  0
SECTION
  2
HEADER
  9
$ACADVER
  1
AC1018
  9
$ACADMAINTVER
 70
     0
  9
$DWGCODEPAGE
  3
ANSI_932
  9
$INSBASE
 10
0.0
 20
0.0
 30
0.0
  9
$EXTMIN
 10
0.0
 20
0.0
 30
0.0
  9
$EXTMAX
 10
1782.0
 20
1260.0
 30
0.0
  9
$LIMMIN
 10
0.0
 20
0.0
  9
$LIMMAX
 10
1782.0
 20
1260.0
  9
$ORTHOMODE
 70
     0
  9
$REGENMODE
 70
     1
  9
$FILLMODE
 70
     1
  9
$QTEXTMODE
 70
     0
  9
$MIRRTEXT
 70
     1
  9
$LTSCALE
 40
1.5
  9
$ATTMODE
 70
     1
  9
$TEXTSIZE
 40
18.0
  9
$TRACEWID
 40
0.05
  9
$TEXTSTYLE
  7
Standard
  9
$CLAYER
  8
0
  9
$CELTYPE
  6
ByLayer
  9
$CECOLOR
 62
   256
  9
$CELTSCALE
 40
1.0
  9
$DISPSILH
 70
     0
  9
$DIMSCALE
 40
6.0
  9
$DIMASZ
 40
2.0
  9
$DIMEXO
 40
2.0
  9
$DIMDLI
 40
10.0
  9
$DIMRND
 40
0.0
  9
$DIMDLE
 40
0.0
  9
$DIMEXE
 40
1.0
  9
$DIMTP
 40
0.0
  9
$DIMTM
 40
0.0
  9
$DIMTXT
 40
3.0
  9
$DIMCEN
 40
0.09
  9
$DIMTSZ
 40
0.0
  9
$DIMTOL
 70
     0
  9
$DIMLIM
 70
     0
  9
$DIMTIH
 70
     0
  9
$DIMTOH
 70
     0
  9
$DIMSE1
 70
     0
  9
$DIMSE2
 70
     0
  9
$DIMTAD
 70
     3
  9
$DIMZIN
 70
     8
  9
$DIMBLK
  1

  9
$DIMASO
 70
     1
  9
$DIMSHO
 70
     1
  9
$DIMPOST
  1

  9
$DIMAPOST
  1

  9
$DIMALT
 70
     0
  9
$DIMALTD
 70
     2
  9
$DIMALTF
 40
25.4
  9
$DIMLFAC
 40
1.0
  9
$DIMTOFL
 70
     1
  9
$DIMTVP
 40
0.7
  9
$DIMTIX
 70
     0
  9
$DIMSOXD
 70
     0
  9
$DIMSAH
 70
     0
  9
$DIMBLK1
  1

  9
$DIMBLK2
  1

  9
$DIMSTYLE
  2
Standard
  9
$DIMCLRD
 70
     0
  9
$DIMCLRE
 70
     0
  9
$DIMCLRT
 70
     0
  9
$DIMTFAC
 40
0.5
  9
$DIMGAP
 40
0.09
  9
$DIMJUST
 70
     0
  9
$DIMSD1
 70
     0
  9
$DIMSD2
 70
     0
  9
$DIMTOLJ
 70
     1
  9
$DIMTZIN
 70
     8
  9
$DIMALTZ
 70
     0
  9
$DIMALTTZ
 70
     0
  9
$DIMUPT
 70
     1
  9
$DIMDEC
 70
     2
  9
$DIMTDEC
 70
     4
  9
$DIMALTU
 70
     2
  9
$DIMALTTD
 70
     2
  9
$DIMTXSTY
  7
Standard
  9
$DIMAUNIT
 70
     0
  9
$DIMADEC
 70
     0
  9
$DIMALTRND
 40
0.0
  9
$DIMAZIN
 70
     0
  9
$DIMDSEP
 70
    46
  9
$DIMATFIT
 70
     2
  9
$DIMFRAC
 70
     0
  9
$DIMLDRBLK
  1

  9
$DIMLUNIT
 70
     2
  9
$DIMLWD
 70
    -2
  9
$DIMLWE
 70
    -2
  9
$DIMTMOVE
 70
     2
  9
$LUNITS
 70
     2
  9
$LUPREC
 70
     4
  9
$SKETCHINC
 40
0.1
  9
$FILLETRAD
 40
0.5
  9
$AUNITS
 70
     0
  9
$AUPREC
 70
     0
  9
$MENU
  1
.
  9
$ELEVATION
 40
0.0
  9
$PELEVATION
 40
0.0
  9
$THICKNESS
 40
0.0
  9
$LIMCHECK
 70
     0
  9
$CHAMFERA
 40
0.5
  9
$CHAMFERB
 40
0.5
  9
$CHAMFERC
 40
1.0
  9
$CHAMFERD
 40
0.0
  9
$SKPOLY
 70
     0
  9
$TDCREATE
 40
2456421.823865741
  9
$TDUCREATE
 40
2456421.448865741
  9
$TDUPDATE
 40
2456421.823865741
  9
$TDUUPDATE
 40
2456421.448865741
  9
$TDINDWG
 40
0.0000000116
  9
$TDUSRTIMER
 40
0.0000000116
  9
$USRTIMER
 70
     1
  9
$ANGBASE
 50
0.0
  9
$ANGDIR
 70
     0
  9
$PDMODE
 70
     0
  9
$PDSIZE
 40
0.0
  9
$PLINEWID
 40
0.0
  9
$SPLFRAME
 70
     0
  9
$SPLINETYPE
 70
     6
  9
$SPLINESEGS
 70
     8
  9
$HANDSEED
  5
59D
  9
$SURFTAB1
 70
     6
  9
$SURFTAB2
 70
     6
  9
$SURFTYPE
 70
     6
  9
$SURFU
 70
     6
  9
$SURFV
 70
     6
  9
$UCSBASE
  2

  9
$UCSNAME
  2

  9
$UCSORG
 10
0.0
 20
0.0
 30
0.0
  9
$UCSXDIR
 10
1.0
 20
0.0
 30
0.0
  9
$UCSYDIR
 10
0.0
 20
1.0
 30
0.0
  9
$UCSORTHOREF
  2

  9
$UCSORTHOVIEW
 70
     0
  9
$UCSORGTOP
 10
0.0
 20
0.0
 30
0.0
  9
$UCSORGBOTTOM
 10
0.0
 20
0.0
 30
0.0
  9
$UCSORGLEFT
 10
0.0
 20
0.0
 30
0.0
  9
$UCSORGRIGHT
 10
0.0
 20
0.0
 30
0.0
  9
$UCSORGFRONT
 10
0.0
 20
0.0
 30
0.0
  9
$UCSORGBACK
 10
0.0
 20
0.0
 30
0.0
  9
$PUCSBASE
  2

  9
$PUCSNAME
  2

  9
$PUCSORG
 10
0.0
 20
0.0
 30
0.0
  9
$PUCSXDIR
 10
1.0
 20
0.0
 30
0.0
  9
$PUCSYDIR
 10
0.0
 20
1.0
 30
0.0
  9
$PUCSORTHOREF
  2

  9
$PUCSORTHOVIEW
 70
     0
  9
$PUCSORGTOP
 10
0.0
 20
0.0
 30
0.0
  9
$PUCSORGBOTTOM
 10
0.0
 20
0.0
 30
0.0
  9
$PUCSORGLEFT
 10
0.0
 20
0.0
 30
0.0
  9
$PUCSORGRIGHT
 10
0.0
 20
0.0
 30
0.0
  9
$PUCSORGFRONT
 10
0.0
 20
0.0
 30
0.0
  9
$PUCSORGBACK
 10
0.0
 20
0.0
 30
0.0
  9
$USERI1
 70
     0
  9
$USERI2
 70
     0
  9
$USERI3
 70
     0
  9
$USERI4
 70
     0
  9
$USERI5
 70
     0
  9
$USERR1
 40
0.0
  9
$USERR2
 40
0.0
  9
$USERR3
 40
0.0
  9
$USERR4
 40
0.0
  9
$USERR5
 40
0.0
  9
$WORLDVIEW
 70
     1
  9
$SHADEDGE
 70
     3
  9
$SHADEDIF
 70
    70
  9
$TILEMODE
 70
     1
  9
$MAXACTVP
 70
    64
  9
$PINSBASE
 10
0.0
 20
0.0
 30
0.0
  9
$PLIMCHECK
 70
     0
  9
$PEXTMIN
 10
0.0
 20
0.0
 30
0.0
  9
$PEXTMAX
 10
297.0
 20
210.0
 30
0.0
  9
$PLIMMIN
 10
0.0
 20
0.0
  9
$PLIMMAX
 10
297.0
 20
210.0
  9
$UNITMODE
 70
     0
  9
$VISRETAIN
 70
     1
  9
$PLINEGEN
 70
     0
  9
$PSLTSCALE
 70
     1
  9
$TREEDEPTH
 70
  3020
  9
$CMLSTYLE
  2
Standard
  9
$CMLJUST
 70
     0
  9
$CMLSCALE
 40
1.0
  9
$PROXYGRAPHICS
 70
     1
  9
$MEASUREMENT
 70
     1
  9
$CELWEIGHT
370
    -1
  9
$ENDCAPS
280
     0
  9
$JOINSTYLE
280
     0
  9
$LWDISPLAY
290
     0
  9
$INSUNITS
 70
     4
  9
$HYPERLINKBASE
  1

  9
$STYLESHEET
  1

  9
$XEDIT
290
     1
  9
$CEPSNTYPE
380
     0
  9
$PSTYLEMODE
290
     1
  9
$FINGERPRINTGUID
  2
{7FE21EF1-DA2E-4411-9038-998D5CAF28FC}
  9
$VERSIONGUID
  2
{FAEB1C32-E019-11D5-929B-00C0DF256EC4}
  9
$EXTNAMES
290
     1
  9
$PSVPSCALE
 40
0.0
  9
$OLESTARTUP
290
     0
  9
$SORTENTS
280
   127
  9
$INDEXCTL
280
     0
  9
$HIDETEXT
280
     1
  9
$XCLIPFRAME
290
     0
  9
$HALOGAP
280
     0
  9
$OBSCOLOR
 70
   257
  9
$OBSLTYPE
280
     0
  9
$INTERSECTIONDISPLAY
280
     0
  9
$INTERSECTIONCOLOR
 70
   257
  9
$DIMASSOC
280
     1
  9
$PROJECTNAME
  1

  0
ENDSEC
  0
SECTION
  2
CLASSES
  0
CLASS
  1
ACDBDICTIONARYWDFLT
  2
AcDbDictionaryWithDefault
  3
ObjectDBX Classes
 90
        0
 91
        3
280
     0
281
     0
  0
ENDSEC
  0
SECTION
  2
TABLES
  0
TABLE
  2
VPORT
  5
8
330
0
100
AcDbSymbolTable
 70
     1
  0
VPORT
  5
29
330
8
100
AcDbSymbolTableRecord
100
AcDbViewportTableRecord
  2
*Active
 70
     0
 10
0.0
 20
0.0
 11
1.0
 21
1.0
 12
10.42990654205607
 22
4.5
 13
0.0
 23
0.0
 14
0.5
 24
0.5
 15
0.5
 25
0.5
 16
0.0
 26
0.0
 36
1.0
 17
0.0
 27
0.0
 37
0.0
 40
9.0
 41
1.972972972850329
 42
50.0
 43
0.0
 44
0.0
 50
0.0
 51
0.0
 71
     0
 72
   100
 73
     1
 74
     3
 75
     0
 76
     0
 77
     0
 78
     0
281
     0
 65
     1
110
0.0
120
0.0
130
0.0
111
1.0
121
0.0
131
0.0
112
0.0
122
1.0
132
0.0
 79
     0
146
0.0
  0
ENDTAB
  0
TABLE
  2
LTYPE
  5
5
330
0
100
AcDbSymbolTable
 70
     9
  0
LTYPE
  5
14
330
5
100
AcDbSymbolTableRecord
100
AcDbLinetypeTableRecord
  2
ByBlock
 70
     0
  3

 72
    65
 73
     0
 40
0.0
  0
LTYPE
  5
15
330
5
100
AcDbSymbolTableRecord
100
AcDbLinetypeTableRecord
  2
ByLayer
 70
     0
  3

 72
    65
 73
     0
 40
0.0
  0
LTYPE
  5
16
330
5
100
AcDbSymbolTableRecord
100
AcDbLinetypeTableRecord
  2
Continuous
 70
     0
  3
Solid line
 72
    65
 73
     0
 40
0.0
  0
LTYPE
  5
68
330
5
100
AcDbSymbolTableRecord
100
AcDbLinetypeTableRecord
  2
DOT
 70
     0
  3
DOT
 72
    65
 73
     2
 40
4.0
 49
6.0
 74
     0
 49
-2.0
 74
     0
  0
LTYPE
  5
69
330
5
100
AcDbSymbolTableRecord
100
AcDbLinetypeTableRecord
  2
HIDDEN
 70
     0
  3
HIDDEN
 72
    65
 73
     2
 40
4.2
 49
8.4
 74
     0
 49
-4.2
 74
     0
  0
LTYPE
  5
6A
330
5
100
AcDbSymbolTableRecord
100
AcDbLinetypeTableRecord
  2
DASHDOT
 70
     0
  3
DASHDOT
 72
    65
 73
     4
 40
14.5
 49
30.0
 74
     0
 49
-9.0
 74
     0
 49
2.5
 74
     0
 49
-9.0
 74
     0
  0
LTYPE
  5
6B
330
5
100
AcDbSymbolTableRecord
100
AcDbLinetypeTableRecord
  2
PHANTOM
 70
     0
  3
PHANTOM
 72
    65
 73
     6
 40
12.0
 49
30.0
 74
     0
 49
-9.0
 74
     0
 49
2.5
 74
     0
 49
-5.0
 74
     0
 49
2.5
 74
     0
 49
-9.0
 74
     0
  0
LTYPE
  5
6C
330
5
100
AcDbSymbolTableRecord
100
AcDbLinetypeTableRecord
  2
ACAD_ISO14W100
 70
     0
  3
ACAD_ISO14W100
 72
    65
 73
     8
 40
1.5
 49
12.0
 74
     0
 49
-3.0
 74
     0
 49
0.5
 74
     0
 49
-3.0
 74
     0
 49
0.5
 74
     0
 49
-3.0
 74
     0
 49
0.5
 74
     0
 49
-3.0
 74
     0
  0
LTYPE
  5
6D
330
5
100
AcDbSymbolTableRecord
100
AcDbLinetypeTableRecord
  2
ACAD_ISO06W100
 70
     0
  3
ACAD_ISO06W100
 72
    65
 73
     8
 40
13.5
 49
24.0
 74
     0
 49
-3.0
 74
     0
 49
0.5
 74
     0
 49
-3.0
 74
     0
 49
0.5
 74
     0
 49
-3.0
 74
     0
 49
0.5
 74
     0
 49
-3.0
 74
     0
  0
LTYPE
  5
6E
330
5
100
AcDbSymbolTableRecord
100
AcDbLinetypeTableRecord
  2
ACAD_ISO11W100
 70
     0
  3
ACAD_ISO11W100
 72
    65
 73
     6
 40
15.5
 49
12.0
 74
     0
 49
-3.0
 74
     0
 49
12.0
 74
     0
 49
-3.0
 74
     0
 49
0.5
 74
     0
 49
-3.0
 74
     0
  0
LTYPE
  5
6F
330
5
100
AcDbSymbolTableRecord
100
AcDbLinetypeTableRecord
  2
ACAD_ISO13W100
 70
     0
  3
ACAD_ISO13W100
 72
    65
 73
     8
 40
13.0
 49
12.0
 74
     0
 49
-3.0
 74
     0
 49
12.0
 74
     0
 49
-3.0
 74
     0
 49
0.5
 74
     0
 49
-3.0
 74
     0
 49
0.5
 74
     0
 49
-3.0
 74
     0
  0
ENDTAB
  0
TABLE
  2
LAYER
  5
2
330
0
100
AcDbSymbolTable
 70
    24
  0
LAYER
  5
10
330
2
100
AcDbSymbolTableRecord
100
AcDbLayerTableRecord
  2
0
 70
     0
 62
     7
  6
Continuous
370
    -3
390
F
  0
LAYER
  5
70
330
2
100
AcDbSymbolTableRecord
100
AcDbLayerTableRecord
  2
1
 70
     0
 62
    45
  6
Continuous
370
    -3
390
F
  0
LAYER
  5
71
330
2
100
AcDbSymbolTableRecord
100
AcDbLayerTableRecord
  2
2
 70
     0
 62
    90
  6
Continuous
370
    -3
390
F
  0
LAYER
  5
72
330
2
100
AcDbSymbolTableRecord
100
AcDbLayerTableRecord
  2
3
 70
     0
 62
     6
  6
Continuous
370
    -3
390
F
  0
LAYER
  5
73
330
2
100
AcDbSymbolTableRecord
100
AcDbLayerTableRecord
  2
4
 70
     0
 62
    30
  6
Continuous
370
    -3
390
F
  0
LAYER
  5
74
330
2
100
AcDbSymbolTableRecord
100
AcDbLayerTableRecord
  2
5
 70
     0
 62
     2
  6
Continuous
370
    -3
390
F
  0
LAYER
  5
75
330
2
100
AcDbSymbolTableRecord
100
AcDbLayerTableRecord
  2
6
 70
     0
 62
     7
  6
Continuous
370
    -3
390
F
  0
LAYER
  5
76
330
2
100
AcDbSymbolTableRecord
100
AcDbLayerTableRecord
  2
7
 70
     0
 62
   132
  6
Continuous
370
    -3
390
F
  0
LAYER
  5
77
330
2
100
AcDbSymbolTableRecord
100
AcDbLayerTableRecord
  2
8
 70
     0
 62
   171
  6
Continuous
370
    -3
390
F
  0
LAYER
  5
78
330
2
100
AcDbSymbolTableRecord
100
AcDbLayerTableRecord
  2
9
 70
     0
 62
   170
  6
Continuous
370
    -3
390
F
  0
LAYER
  5
79
330
2
100
AcDbSymbolTableRecord
100
AcDbLayerTableRecord
  2
10
 70
     0
 62
   172
  6
Continuous
370
    -3
390
F
  0
LAYER
  5
7A
330
2
100
AcDbSymbolTableRecord
100
AcDbLayerTableRecord
  2
11
 70
     0
 62
    16
  6
Continuous
370
    -3
390
F
  0
LAYER
  5
7B
330
2
100
AcDbSymbolTableRecord
100
AcDbLayerTableRecord
  2
12
 70
     0
 62
   136
  6
Continuous
370
    -3
390
F
  0
LAYER
  5
7C
330
2
100
AcDbSymbolTableRecord
100
AcDbLayerTableRecord
  2
13
 70
     0
 62
   216
  6
Continuous
370
    -3
390
F
  0
LAYER
  5
7D
330
2
100
AcDbSymbolTableRecord
100
AcDbLayerTableRecord
  2
14
 70
     0
 62
     7
  6
Continuous
370
    -3
390
F
  0
LAYER
  5
7E
330
2
100
AcDbSymbolTableRecord
100
AcDbLayerTableRecord
  2
15
 70
     0
 62
    14
  6
Continuous
370
    -3
390
F
  0
LAYER
  5
7F
330
2
100
AcDbSymbolTableRecord
100
AcDbLayerTableRecord
  2
16
 70
     0
 62
    94
  6
Continuous
370
    -3
390
F
  0
LAYER
  5
80
330
2
100
AcDbSymbolTableRecord
100
AcDbLayerTableRecord
  2
17
 70
     0
 62
   230
  6
Continuous
370
    -3
390
F
  0
LAYER
  5
81
330
2
100
AcDbSymbolTableRecord
100
AcDbLayerTableRecord
  2
18
 70
     0
 62
     7
  6
Continuous
370
    -3
390
F
  0
LAYER
  5
82
330
2
100
AcDbSymbolTableRecord
100
AcDbLayerTableRecord
  2
19
 70
     0
 62
    52
  6
Continuous
370
    -3
390
F
  0
LAYER
  5
83
330
2
100
AcDbSymbolTableRecord
100
AcDbLayerTableRecord
  2
20
 70
     0
 62
   134
  6
Continuous
370
    -3
390
F
  0
LAYER
  5
84
330
2
100
AcDbSymbolTableRecord
100
AcDbLayerTableRecord
  2
21
 70
     0
 62
   214
  6
Continuous
370
    -3
390
F
  0
LAYER
  5
85
330
2
100
AcDbSymbolTableRecord
100
AcDbLayerTableRecord
  2
22
 70
     0
 62
     7
  6
Continuous
370
    -3
390
F
  0
LAYER
  5
86
330
2
100
AcDbSymbolTableRecord
100
AcDbLayerTableRecord
  2
128
 70
     0
 62
     7
  6
Continuous
370
    -3
390
F
  0
ENDTAB
  0
TABLE
  2
STYLE
  5
3
330
0
100
AcDbSymbolTable
 70
     2
  0
STYLE
  5
11
330
3
100
AcDbSymbolTableRecord
100
AcDbTextStyleTableRecord
  2
Standard
 70
     0
 40
0.0
 41
1.0
 50
0.0
 71
     0
 42
0.2
  3
txt
  4
bigfont
  0
STYLE
  5
2C
330
3
100
AcDbSymbolTableRecord
100
AcDbTextStyleTableRecord
  2
T_STANDARD
 70
     4
 40
10.0
 41
1.0
 50
0.0
 71
     0
 42
10.0
  3
txt
  4
bigfont
  0
ENDTAB
  0
TABLE
  2
VIEW
  5
6
330
0
100
AcDbSymbolTable
 70
     0
  0
ENDTAB
  0
TABLE
  2
UCS
  5
7
330
0
100
AcDbSymbolTable
 70
     0
  0
ENDTAB
  0
TABLE
  2
APPID
  5
9
330
0
100
AcDbSymbolTable
 70
     2
  0
APPID
  5
12
330
9
100
AcDbSymbolTableRecord
100
AcDbRegAppTableRecord
  2
ACAD
 70
     0
  0
APPID
  5
2B
330
9
100
AcDbSymbolTableRecord
100
AcDbRegAppTableRecord
  2
ODA
 70
     0
  0
ENDTAB
  0
TABLE
  2
DIMSTYLE
  5
A
330
0
100
AcDbSymbolTable
 70
     1
100
AcDbDimStyleTable
  0
DIMSTYLE
105
27
102
{ACAD_REACTORS
330
108
330
113
330
11E
330
12B
330
320
330
32B
330
335
330
341
330
447
330
452
330
45D
330
467
330
473
330
4E4
330
4EF
330
4FB
330
506
330
532
330
53D
330
548
330
552
330
55E
330
569
330
574
330
57F
330
58A
330
594
102
}
330
A
100
AcDbSymbolTableRecord
100
AcDbDimStyleTableRecord
  2
Standard
 70
     0
340
11
  0
ENDTAB
  0
TABLE
  2
BLOCK_RECORD
  5
1
330
0
100
AcDbSymbolTable
 70
    70
  0
BLOCK_RECORD
  5
1F
330
1
100
AcDbSymbolTableRecord
100
AcDbBlockTableRecord
  2
*Model_Space
340
22
  0
BLOCK_RECORD
  5
1B
330
1
100
AcDbSymbolTableRecord
100
AcDbBlockTableRecord
  2
*Paper_Space
340
1E
  0
BLOCK_RECORD
  5
23
330
1
100
AcDbSymbolTableRecord
100
AcDbBlockTableRecord
  2
*Paper_Space0
340
26
  0
BLOCK_RECORD
  5
2D
330
1
100
AcDbSymbolTableRecord
100
AcDbBlockTableRecord
  2
_ORIGIN
340
0
  0
BLOCK_RECORD
  5
32
330
1
100
AcDbSymbolTableRecord
100
AcDbBlockTableRecord
  2
_DOTBLANK
340
0
  0
BLOCK_RECORD
  5
37
330
1
100
AcDbSymbolTableRecord
100
AcDbBlockTableRecord
  2
_DOT
340
0
  0
BLOCK_RECORD
  5
3C
330
1
100
AcDbSymbolTableRecord
100
AcDbBlockTableRecord
  2
_OPEN
340
0
  0
BLOCK_RECORD
  5
42
330
1
100
AcDbSymbolTableRecord
100
AcDbBlockTableRecord
  2
_CLOSED
340
0
  0
BLOCK_RECORD
  5
49
330
1
100
AcDbSymbolTableRecord
100
AcDbBlockTableRecord
  2
_CLOSEDBLANK
340
0
  0
BLOCK_RECORD
  5
4F
330
1
100
AcDbSymbolTableRecord
100
AcDbBlockTableRecord
  2
_BOXBLANK
340
0
  0
BLOCK_RECORD
  5
57
330
1
100
AcDbSymbolTableRecord
100
AcDbBlockTableRecord
  2
_BOXFILLED
340
0
  0
BLOCK_RECORD
  5
5C
330
1
100
AcDbSymbolTableRecord
100
AcDbBlockTableRecord
  2
_INTEGRAL
340
0
  0
BLOCK_RECORD
  5
61
330
1
100
AcDbSymbolTableRecord
100
AcDbBlockTableRecord
  2
_OBLIQUE
340
0
  0
BLOCK_RECORD
  5
65
330
1
100
AcDbSymbolTableRecord
100
AcDbBlockTableRecord
  2
_NONE
340
0
  0
BLOCK_RECORD
  5
C9
330
1
100
AcDbSymbolTableRecord
100
AcDbBlockTableRecord
  2
*G12
340
0
102
{BLKREFS
331
D0
102
}
  0
BLOCK_RECORD
  5
FD
330
1
100
AcDbSymbolTableRecord
100
AcDbBlockTableRecord
  2
Dim1
340
0
  0
BLOCK_RECORD
  5
109
330
1
100
AcDbSymbolTableRecord
100
AcDbBlockTableRecord
  2
Dim2
340
0
  0
BLOCK_RECORD
  5
114
330
1
100
AcDbSymbolTableRecord
100
AcDbBlockTableRecord
  2
Dim3
340
0
  0
BLOCK_RECORD
  5
120
330
1
100
AcDbSymbolTableRecord
100
AcDbBlockTableRecord
  2
Dim4
340
0
  0
BLOCK_RECORD
  5
136
330
1
100
AcDbSymbolTableRecord
100
AcDbBlockTableRecord
  2
*G17
340
0
102
{BLKREFS
331
13F
102
}
  0
BLOCK_RECORD
  5
142
330
1
100
AcDbSymbolTableRecord
100
AcDbBlockTableRecord
  2
*G18
340
0
102
{BLKREFS
331
14B
102
}
  0
BLOCK_RECORD
  5
14E
330
1
100
AcDbSymbolTableRecord
100
AcDbBlockTableRecord
  2
*G19
340
0
102
{BLKREFS
331
157
102
}
  0
BLOCK_RECORD
  5
15A
330
1
100
AcDbSymbolTableRecord
100
AcDbBlockTableRecord
  2
*G20
340
0
102
{BLKREFS
331
163
102
}
  0
BLOCK_RECORD
  5
166
330
1
100
AcDbSymbolTableRecord
100
AcDbBlockTableRecord
  2
*G21
340
0
102
{BLKREFS
331
16F
102
}
  0
BLOCK_RECORD
  5
172
330
1
100
AcDbSymbolTableRecord
100
AcDbBlockTableRecord
  2
*G22
340
0
102
{BLKREFS
331
17B
102
}
  0
BLOCK_RECORD
  5
17E
330
1
100
AcDbSymbolTableRecord
100
AcDbBlockTableRecord
  2
*G23
340
0
102
{BLKREFS
331
187
102
}
  0
BLOCK_RECORD
  5
18A
330
1
100
AcDbSymbolTableRecord
100
AcDbBlockTableRecord
  2
*G24
340
0
102
{BLKREFS
331
193
102
}
  0
BLOCK_RECORD
  5
196
330
1
100
AcDbSymbolTableRecord
100
AcDbBlockTableRecord
  2
*G25
340
0
102
{BLKREFS
331
19F
102
}
  0
BLOCK_RECORD
  5
1A2
330
1
100
AcDbSymbolTableRecord
100
AcDbBlockTableRecord
  2
*G26
340
0
102
{BLKREFS
331
1AB
102
}
  0
BLOCK_RECORD
  5
1B0
330
1
100
AcDbSymbolTableRecord
100
AcDbBlockTableRecord
  2
*G27
340
0
102
{BLKREFS
331
1B9
102
}
  0
BLOCK_RECORD
  5
1BD
330
1
100
AcDbSymbolTableRecord
100
AcDbBlockTableRecord
  2
*G28
340
0
102
{BLKREFS
331
1C6
102
}
  0
BLOCK_RECORD
  5
1CA
330
1
100
AcDbSymbolTableRecord
100
AcDbBlockTableRecord
  2
*G29
340
0
102
{BLKREFS
331
1D3
102
}
  0
BLOCK_RECORD
  5
1D7
330
1
100
AcDbSymbolTableRecord
100
AcDbBlockTableRecord
  2
*G30
340
0
102
{BLKREFS
331
1E0
102
}
  0
BLOCK_RECORD
  5
316
330
1
100
AcDbSymbolTableRecord
100
AcDbBlockTableRecord
  2
Dim5
340
0
  0
BLOCK_RECORD
  5
321
330
1
100
AcDbSymbolTableRecord
100
AcDbBlockTableRecord
  2
Dim6
340
0
  0
BLOCK_RECORD
  5
32C
330
1
100
AcDbSymbolTableRecord
100
AcDbBlockTableRecord
  2
Dim7
340
0
  0
BLOCK_RECORD
  5
336
330
1
100
AcDbSymbolTableRecord
100
AcDbBlockTableRecord
  2
Dim8
340
0
  0
BLOCK_RECORD
  5
342
330
1
100
AcDbSymbolTableRecord
100
AcDbBlockTableRecord
  2
*G35
340
0
102
{BLKREFS
331
359
102
}
  0
BLOCK_RECORD
  5
35A
330
1
100
AcDbSymbolTableRecord
100
AcDbBlockTableRecord
  2
*G36
340
0
102
{BLKREFS
331
371
102
}
  0
BLOCK_RECORD
  5
372
330
1
100
AcDbSymbolTableRecord
100
AcDbBlockTableRecord
  2
*G37
340
0
102
{BLKREFS
331
389
102
}
  0
BLOCK_RECORD
  5
38A
330
1
100
AcDbSymbolTableRecord
100
AcDbBlockTableRecord
  2
*G38
340
0
102
{BLKREFS
331
3A1
102
}
  0
BLOCK_RECORD
  5
3AF
330
1
100
AcDbSymbolTableRecord
100
AcDbBlockTableRecord
  2
*G39
340
0
102
{BLKREFS
331
3BA
102
}
  0
BLOCK_RECORD
  5
3BB
330
1
100
AcDbSymbolTableRecord
100
AcDbBlockTableRecord
  2
*G40
340
0
102
{BLKREFS
331
3C4
102
}
  0
BLOCK_RECORD
  5
3C5
330
1
100
AcDbSymbolTableRecord
100
AcDbBlockTableRecord
  2
*G41
340
0
102
{BLKREFS
331
3DC
102
}
  0
BLOCK_RECORD
  5
3F3
330
1
100
AcDbSymbolTableRecord
100
AcDbBlockTableRecord
  2
*G42
340
0
102
{BLKREFS
331
3FE
102
}
  0
BLOCK_RECORD
  5
3FF
330
1
100
AcDbSymbolTableRecord
100
AcDbBlockTableRecord
  2
*G43
340
0
102
{BLKREFS
331
416
102
}
  0
BLOCK_RECORD
  5
43C
330
1
100
AcDbSymbolTableRecord
100
AcDbBlockTableRecord
  2
Dim9
340
0
  0
BLOCK_RECORD
  5
448
330
1
100
AcDbSymbolTableRecord
100
AcDbBlockTableRecord
  2
Dim10
340
0
  0
BLOCK_RECORD
  5
453
330
1
100
AcDbSymbolTableRecord
100
AcDbBlockTableRecord
  2
Dim11
340
0
  0
BLOCK_RECORD
  5
45E
330
1
100
AcDbSymbolTableRecord
100
AcDbBlockTableRecord
  2
Dim12
340
0
  0
BLOCK_RECORD
  5
468
330
1
100
AcDbSymbolTableRecord
100
AcDbBlockTableRecord
  2
Dim13
340
0
  0
BLOCK_RECORD
  5
474
330
1
100
AcDbSymbolTableRecord
100
AcDbBlockTableRecord
  2
*G49
340
0
102
{BLKREFS
331
48A
102
}
  0
BLOCK_RECORD
  5
48B
330
1
100
AcDbSymbolTableRecord
100
AcDbBlockTableRecord
  2
*G50
340
0
102
{BLKREFS
331
4A2
102
}
  0
BLOCK_RECORD
  5
4A3
330
1
100
AcDbSymbolTableRecord
100
AcDbBlockTableRecord
  2
*G51
340
0
102
{BLKREFS
331
4AF
102
}
  0
BLOCK_RECORD
  5
4B0
330
1
100
AcDbSymbolTableRecord
100
AcDbBlockTableRecord
  2
*G52
340
0
102
{BLKREFS
331
4C7
102
}
  0
BLOCK_RECORD
  5
4C8
330
1
100
AcDbSymbolTableRecord
100
AcDbBlockTableRecord
  2
*G53
340
0
102
{BLKREFS
331
4D4
102
}
  0
BLOCK_RECORD
  5
4D9
330
1
100
AcDbSymbolTableRecord
100
AcDbBlockTableRecord
  2
Dim14
340
0
  0
BLOCK_RECORD
  5
4E5
330
1
100
AcDbSymbolTableRecord
100
AcDbBlockTableRecord
  2
Dim15
340
0
  0
BLOCK_RECORD
  5
4F0
330
1
100
AcDbSymbolTableRecord
100
AcDbBlockTableRecord
  2
Dim16
340
0
  0
BLOCK_RECORD
  5
4FC
330
1
100
AcDbSymbolTableRecord
100
AcDbBlockTableRecord
  2
Dim17
340
0
  0
BLOCK_RECORD
  5
50F
330
1
100
AcDbSymbolTableRecord
100
AcDbBlockTableRecord
  2
*G58
340
0
102
{BLKREFS
331
51F
102
}
  0
BLOCK_RECORD
  5
512
330
1
100
AcDbSymbolTableRecord
100
AcDbBlockTableRecord
  2
*G59
340
0
102
{BLKREFS
331
51E
102
}
  0
BLOCK_RECORD
  5
527
330
1
100
AcDbSymbolTableRecord
100
AcDbBlockTableRecord
  2
Dim18
340
0
  0
BLOCK_RECORD
  5
533
330
1
100
AcDbSymbolTableRecord
100
AcDbBlockTableRecord
  2
Dim19
340
0
  0
BLOCK_RECORD
  5
53E
330
1
100
AcDbSymbolTableRecord
100
AcDbBlockTableRecord
  2
Dim20
340
0
  0
BLOCK_RECORD
  5
549
330
1
100
AcDbSymbolTableRecord
100
AcDbBlockTableRecord
  2
Dim21
340
0
  0
BLOCK_RECORD
  5
553
330
1
100
AcDbSymbolTableRecord
100
AcDbBlockTableRecord
  2
Dim22
340
0
  0
BLOCK_RECORD
  5
55F
330
1
100
AcDbSymbolTableRecord
100
AcDbBlockTableRecord
  2
Dim23
340
0
  0
BLOCK_RECORD
  5
56A
330
1
100
AcDbSymbolTableRecord
100
AcDbBlockTableRecord
  2
Dim24
340
0
  0
BLOCK_RECORD
  5
575
330
1
100
AcDbSymbolTableRecord
100
AcDbBlockTableRecord
  2
Dim25
340
0
  0
BLOCK_RECORD
  5
580
330
1
100
AcDbSymbolTableRecord
100
AcDbBlockTableRecord
  2
Dim26
340
0
  0
BLOCK_RECORD
  5
58B
330
1
100
AcDbSymbolTableRecord
100
AcDbBlockTableRecord
  2
Dim27
340
0
  0
ENDTAB
  0
ENDSEC
  0
SECTION
  2
BLOCKS
  0
BLOCK
  5
20
330
1F
100
AcDbEntity
  8
0
100
AcDbBlockBegin
  2
*Model_Space
 70
     0
 71
     0
 10
0.0
 20
0.0
 30
0.0
  3
*Model_Space
  1

  0
ENDBLK
  5
21
330
1F
100
AcDbEntity
  8
0
100
AcDbBlockEnd
  0
BLOCK
  5
1C
330
1B
100
AcDbEntity
 67
     1
  8
0
100
AcDbBlockBegin
  2
*Paper_Space
 70
     0
 71
     0
 10
0.0
 20
0.0
 30
0.0
  3
*Paper_Space
  1

  0
ENDBLK
  5
1D
330
1B
100
AcDbEntity
 67
     1
  8
0
100
AcDbBlockEnd
  0
BLOCK
  5
24
330
23
100
AcDbEntity
  8
0
100
AcDbBlockBegin
  2
*Paper_Space0
 70
     0
 71
     0
 10
0.0
 20
0.0
 30
0.0
  3
*Paper_Space0
  1

  0
ENDBLK
  5
25
330
23
100
AcDbEntity
  8
0
100
AcDbBlockEnd
  0
BLOCK
  5
30
330
2D
100
AcDbEntity
  8
0
100
AcDbBlockBegin
  2
_ORIGIN
 70
     0
 71
     0
 10
0.0
 20
0.0
 30
0.0
  3
_ORIGIN
  1

  0
CIRCLE
  5
2E
330
2D
100
AcDbEntity
  8
0
100
AcDbCircle
 10
0.0
 20
0.0
 30
0.0
 40
0.5
  0
LINE
  5
2F
330
2D
100
AcDbEntity
  8
0
100
AcDbLine
 10
0.0
 20
0.0
 30
0.0
 11
-1.0
 21
0.0
 31
0.0
  0
ENDBLK
  5
31
330
2D
100
AcDbEntity
  8
0
100
AcDbBlockEnd
  0
BLOCK
  5
35
330
32
100
AcDbEntity
  8
0
100
AcDbBlockBegin
  2
_DOTBLANK
 70
     0
 71
     0
 10
0.0
 20
0.0
 30
0.0
  3
_DOTBLANK
  1

  0
CIRCLE
  5
33
330
32
100
AcDbEntity
  8
0
100
AcDbCircle
 10
0.0
 20
0.0
 30
0.0
 40
0.5
  0
LINE
  5
34
330
32
100
AcDbEntity
  8
0
100
AcDbLine
 10
-0.5
 20
0.0
 30
0.0
 11
-1.0
 21
0.0
 31
0.0
  0
ENDBLK
  5
36
330
32
100
AcDbEntity
  8
0
100
AcDbBlockEnd
  0
BLOCK
  5
3A
330
37
100
AcDbEntity
  8
0
100
AcDbBlockBegin
  2
_DOT
 70
     0
 71
     0
 10
0.0
 20
0.0
 30
0.0
  3
_DOT
  1

  0
LWPOLYLINE
  5
38
330
37
100
AcDbEntity
  8
0
100
AcDbPolyline
 90
        2
 70
     1
 43
0.5
 10
-0.25
 20
0.0
 42
1.0
 10
0.25
 20
0.0
 42
1.0
  0
LINE
  5
39
330
37
100
AcDbEntity
  8
0
100
AcDbLine
 10
-0.5
 20
0.0
 30
0.0
 11
-1.0
 21
0.0
 31
0.0
  0
ENDBLK
  5
3B
330
37
100
AcDbEntity
  8
0
100
AcDbBlockEnd
  0
BLOCK
  5
40
330
3C
100
AcDbEntity
  8
0
100
AcDbBlockBegin
  2
_OPEN
 70
     0
 71
     0
 10
0.0
 20
0.0
 30
0.0
  3
_OPEN
  1

  0
LINE
  5
3D
330
3C
100
AcDbEntity
  8
0
100
AcDbLine
 10
-1.0
 20
0.1666666666666667
 30
0.0
 11
0.0
 21
0.0
 31
0.0
  0
LINE
  5
3E
330
3C
100
AcDbEntity
  8
0
100
AcDbLine
 10
-1.0
 20
-0.1666666666666667
 30
0.0
 11
0.0
 21
0.0
 31
0.0
  0
LINE
  5
3F
330
3C
100
AcDbEntity
  8
0
100
AcDbLine
 10
0.0
 20
0.0
 30
0.0
 11
-1.0
 21
0.0
 31
0.0
  0
ENDBLK
  5
41
330
3C
100
AcDbEntity
  8
0
100
AcDbBlockEnd
  0
BLOCK
  5
47
330
42
100
AcDbEntity
  8
0
100
AcDbBlockBegin
  2
_CLOSED
 70
     0
 71
     0
 10
0.0
 20
0.0
 30
0.0
  3
_CLOSED
  1

  0
LINE
  5
43
330
42
100
AcDbEntity
  8
0
100
AcDbLine
 10
-1.0
 20
0.1666666666666667
 30
0.0
 11
0.0
 21
0.0
 31
0.0
  0
LINE
  5
44
330
42
100
AcDbEntity
  8
0
100
AcDbLine
 10
0.0
 20
0.0
 30
0.0
 11
-1.0
 21
-0.1666666666666667
 31
0.0
  0
LINE
  5
45
330
42
100
AcDbEntity
  8
0
100
AcDbLine
 10
-1.0
 20
0.1666666666666667
 30
0.0
 11
-1.0
 21
-0.1666666666666667
 31
0.0
  0
LINE
  5
46
330
42
100
AcDbEntity
  8
0
100
AcDbLine
 10
0.0
 20
0.0
 30
0.0
 11
-1.0
 21
0.0
 31
0.0
  0
ENDBLK
  5
48
330
42
100
AcDbEntity
  8
0
100
AcDbBlockEnd
  0
BLOCK
  5
4D
330
49
100
AcDbEntity
  8
0
100
AcDbBlockBegin
  2
_CLOSEDBLANK
 70
     0
 71
     0
 10
0.0
 20
0.0
 30
0.0
  3
_CLOSEDBLANK
  1

  0
LINE
  5
4A
330
49
100
AcDbEntity
  8
0
100
AcDbLine
 10
-1.0
 20
0.1666666666666667
 30
0.0
 11
0.0
 21
0.0
 31
0.0
  0
LINE
  5
4B
330
49
100
AcDbEntity
  8
0
100
AcDbLine
 10
0.0
 20
0.0
 30
0.0
 11
-1.0
 21
-0.1666666666666667
 31
0.0
  0
LINE
  5
4C
330
49
100
AcDbEntity
  8
0
100
AcDbLine
 10
-1.0
 20
0.1666666666666667
 30
0.0
 11
-1.0
 21
-0.1666666666666667
 31
0.0
  0
ENDBLK
  5
4E
330
49
100
AcDbEntity
  8
0
100
AcDbBlockEnd
  0
BLOCK
  5
55
330
4F
100
AcDbEntity
  8
0
100
AcDbBlockBegin
  2
_BOXBLANK
 70
     0
 71
     0
 10
0.0
 20
0.0
 30
0.0
  3
_BOXBLANK
  1

  0
LINE
  5
50
330
4F
100
AcDbEntity
  8
0
100
AcDbLine
 10
-0.5
 20
-0.5
 30
0.0
 11
0.5
 21
-0.5
 31
0.0
  0
LINE
  5
51
330
4F
100
AcDbEntity
  8
0
100
AcDbLine
 10
0.5
 20
-0.5
 30
0.0
 11
0.5
 21
0.5
 31
0.0
  0
LINE
  5
52
330
4F
100
AcDbEntity
  8
0
100
AcDbLine
 10
0.5
 20
0.5
 30
0.0
 11
-0.5
 21
0.5
 31
0.0
  0
LINE
  5
53
330
4F
100
AcDbEntity
  8
0
100
AcDbLine
 10
-0.5
 20
0.5
 30
0.0
 11
-0.5
 21
-0.5
 31
0.0
  0
LINE
  5
54
330
4F
100
AcDbEntity
  8
0
100
AcDbLine
 10
-0.5
 20
0.0
 30
0.0
 11
-1.0
 21
0.0
 31
0.0
  0
ENDBLK
  5
56
330
4F
100
AcDbEntity
  8
0
100
AcDbBlockEnd
  0
BLOCK
  5
5A
330
57
100
AcDbEntity
  8
0
100
AcDbBlockBegin
  2
_BOXFILLED
 70
     0
 71
     0
 10
0.0
 20
0.0
 30
0.0
  3
_BOXFILLED
  1

  0
SOLID
  5
58
330
57
100
AcDbEntity
  8
0
100
AcDbTrace
 10
-0.5
 20
0.5
 30
0.0
 11
0.5
 21
0.5
 31
0.0
 12
-0.5
 22
-0.5
 32
0.0
 13
0.5
 23
-0.5
 33
0.0
  0
LINE
  5
59
330
57
100
AcDbEntity
  8
0
100
AcDbLine
 10
-0.5
 20
0.0
 30
0.0
 11
-1.0
 21
0.0
 31
0.0
  0
ENDBLK
  5
5B
330
57
100
AcDbEntity
  8
0
100
AcDbBlockEnd
  0
BLOCK
  5
5F
330
5C
100
AcDbEntity
  8
0
100
AcDbBlockBegin
  2
_INTEGRAL
 70
     0
 71
     0
 10
0.0
 20
0.0
 30
0.0
  3
_INTEGRAL
  1

  0
ARC
  5
5D
330
5C
100
AcDbEntity
  8
0
100
AcDbCircle
 10
0.444888
 20
-0.0913346
 30
0.0
 40
0.4541666
100
AcDbArc
 50
5844.169510334396
 51
9625.69095819783
  0
ARC
  5
5E
330
5C
100
AcDbEntity
  8
0
100
AcDbCircle
 10
-0.444888
 20
0.0913346
 30
0.0
 40
0.4541666
100
AcDbArc
 50
16157.40982268921
 51
19938.93127055265
  0
ENDBLK
  5
60
330
5C
100
AcDbEntity
  8
0
100
AcDbBlockEnd
  0
BLOCK
  5
63
330
61
100
AcDbEntity
  8
0
100
AcDbBlockBegin
  2
_OBLIQUE
 70
     0
 71
     0
 10
0.0
 20
0.0
 30
0.0
  3
_OBLIQUE
  1

  0
LINE
  5
62
330
61
100
AcDbEntity
  8
0
100
AcDbLine
 10
-0.5
 20
-0.5
 30
0.0
 11
0.5
 21
0.5
 31
0.0
  0
ENDBLK
  5
64
330
61
100
AcDbEntity
  8
0
100
AcDbBlockEnd
  0
BLOCK
  5
66
330
65
100
AcDbEntity
  8
0
100
AcDbBlockBegin
  2
_NONE
 70
     0
 71
     0
 10
0.0
 20
0.0
 30
0.0
  3
_NONE
  1

  0
ENDBLK
  5
67
330
65
100
AcDbEntity
  8
0
100
AcDbBlockEnd
  0
BLOCK
  5
CA
330
C9
100
AcDbEntity
  8
0
100
AcDbBlockBegin
  2
*G12
 70
     1
 71
     0
 10
0.0
 20
0.0
 30
0.0
  3
*G12
  1

  0
LINE
  5
CC
330
C9
100
AcDbEntity
  8
10
  6
Continuous
 62
   172
370
    70
100
AcDbLine
 10
72.0
 20
72.0
 30
0.0
 11
72.0
 21
1152.0
 31
0.0
  0
LINE
  5
CD
330
C9
100
AcDbEntity
  8
10
  6
Continuous
 62
   172
370
    70
100
AcDbLine
 10
72.0
 20
1152.0
 30
0.0
 11
1710.0
 21
1152.0
 31
0.0
  0
LINE
  5
CE
330
C9
100
AcDbEntity
  8
10
  6
Continuous
 62
   172
370
    70
100
AcDbLine
 10
1710.0
 20
1152.0
 30
0.0
 11
1710.0
 21
72.0
 31
0.0
  0
LINE
  5
CF
330
C9
100
AcDbEntity
  8
10
  6
Continuous
 62
   172
370
    70
100
AcDbLine
 10
1710.0
 20
72.0
 30
0.0
 11
72.0
 21
72.0
 31
0.0
  0
ENDBLK
  5
CB
330
C9
100
AcDbEntity
  8
0
100
AcDbBlockEnd
  0
BLOCK
  5
FE
330
FD
100
AcDbEntity
  8
0
100
AcDbBlockBegin
  2
Dim1
 70
     0
 71
     0
 10
0.0
 20
0.0
 30
0.0
  3
Dim1
  1

  0
LINE
  5
100
330
FD
100
AcDbEntity
  8
6
  6
Continuous
 62
     7
370
     9
100
AcDbLine
 10
392.0235484936843
 20
721.3667310990709
 30
0.0
 11
441.5235484936843
 21
721.3667310990709
 31
0.0
  0
LINE
  5
101
330
FD
100
AcDbEntity
  8
6
  6
Continuous
 62
     7
370
     9
100
AcDbLine
 10
392.0235484936844
 20
727.3667310990709
 30
0.0
 11
392.023548493684
 21
673.3667310990709
 31
0.0
  0
LINE
  5
102
330
FD
100
AcDbEntity
  8
6
  6
Continuous
 62
     7
370
     9
100
AcDbLine
 10
441.5235484936844
 20
727.3667310990709
 30
0.0
 11
441.523548493684
 21
676.1234119075523
 31
0.0
  0
LINE
  5
103
330
FD
100
AcDbEntity
  8
6
  6
Continuous
 62
     7
370
     9
100
AcDbLine
 10
392.0235484936843
 20
721.3667310990709
 30
0.0
 11
403.6146584091531
 21
724.4725596403011
 31
0.0
  0
LINE
  5
104
330
FD
100
AcDbEntity
  8
6
  6
Continuous
 62
     7
370
     9
100
AcDbLine
 10
392.0235484936843
 20
721.3667310990709
 30
0.0
 11
403.6146584091531
 21
718.2609025578406
 31
0.0
  0
LINE
  5
105
330
FD
100
AcDbEntity
  8
6
  6
Continuous
 62
     7
370
     9
100
AcDbLine
 10
441.5235484936843
 20
721.3667310990709
 30
0.0
 11
429.9324385782155
 21
718.2609025578407
 31
0.0
  0
LINE
  5
106
330
FD
100
AcDbEntity
  8
6
  6
Continuous
 62
     7
370
     9
100
AcDbLine
 10
441.5235484936843
 20
721.3667310990709
 30
0.0
 11
429.9324385782155
 21
724.4725596403011
 31
0.0
  0
MTEXT
  5
107
330
FD
100
AcDbEntity
  8
6
  6
Continuous
 62
     7
370
     9
100
AcDbMText
 10
416.7735484936843
 20
730.3667310990709
 30
0.0
 40
18.0
 41
0.0
 71
     8
 72
     1
  1
49.5
 73
     1
 44
1.0
  0
ENDBLK
  5
FF
330
FD
100
AcDbEntity
  8
0
100
AcDbBlockEnd
  0
BLOCK
  5
10A
330
109
100
AcDbEntity
  8
0
100
AcDbBlockBegin
  2
Dim2
 70
     0
 71
     0
 10
0.0
 20
0.0
 30
0.0
  3
Dim2
  1

  0
LINE
  5
10C
330
109
100
AcDbEntity
  8
6
  6
Continuous
 62
     7
370
     9
100
AcDbLine
 10
441.5235484936843
 20
721.3667310990709
 30
0.0
 11
1341.523548493684
 21
721.3667310990709
 31
0.0
  0
LINE
  5
10D
330
109
100
AcDbEntity
  8
6
  6
Continuous
 62
     7
370
     9
100
AcDbLine
 10
1341.523548493684
 20
727.3667310990709
 30
0.0
 11
1341.523548493684
 21
676.1234119075523
 31
0.0
  0
LINE
  5
10E
330
109
100
AcDbEntity
  8
6
  6
Continuous
 62
     7
370
     9
100
AcDbLine
 10
441.5235484936843
 20
721.3667310990709
 30
0.0
 11
453.1146584091531
 21
724.4725596403011
 31
0.0
  0
LINE
  5
10F
330
109
100
AcDbEntity
  8
6
  6
Continuous
 62
     7
370
     9
100
AcDbLine
 10
441.5235484936843
 20
721.3667310990709
 30
0.0
 11
453.1146584091531
 21
718.2609025578406
 31
0.0
  0
LINE
  5
110
330
109
100
AcDbEntity
  8
6
  6
Continuous
 62
     7
370
     9
100
AcDbLine
 10
1341.523548493684
 20
721.3667310990709
 30
0.0
 11
1329.932438578215
 21
718.2609025578407
 31
0.0
  0
LINE
  5
111
330
109
100
AcDbEntity
  8
6
  6
Continuous
 62
     7
370
     9
100
AcDbLine
 10
1341.523548493684
 20
721.3667310990709
 30
0.0
 11
1329.932438578215
 21
724.4725596403011
 31
0.0
  0
MTEXT
  5
112
330
109
100
AcDbEntity
  8
6
  6
Continuous
 62
     7
370
     9
100
AcDbMText
 10
891.5235484936841
 20
730.3667310990709
 30
0.0
 40
18.0
 41
0.0
 71
     8
 72
     1
  1
9@100=900
 73
     1
 44
1.0
  0
ENDBLK
  5
10B
330
109
100
AcDbEntity
  8
0
100
AcDbBlockEnd
  0
BLOCK
  5
115
330
114
100
AcDbEntity
  8
0
100
AcDbBlockBegin
  2
Dim3
 70
     0
 71
     0
 10
0.0
 20
0.0
 30
0.0
  3
Dim3
  1

  0
LINE
  5
117
330
114
100
AcDbEntity
  8
6
  6
Continuous
 62
     7
370
     9
100
AcDbLine
 10
1341.523548493684
 20
721.3667310990709
 30
0.0
 11
1391.023548493684
 21
721.3667310990709
 31
0.0
  0
LINE
  5
118
330
114
100
AcDbEntity
  8
6
  6
Continuous
 62
     7
370
     9
100
AcDbLine
 10
1391.023548493684
 20
727.3667310990709
 30
0.0
 11
1391.023548493684
 21
673.3667310990709
 31
0.0
  0
LINE
  5
119
330
114
100
AcDbEntity
  8
6
  6
Continuous
 62
     7
370
     9
100
AcDbLine
 10
1341.523548493684
 20
721.3667310990709
 30
0.0
 11
1353.114658409153
 21
724.4725596403011
 31
0.0
  0
LINE
  5
11A
330
114
100
AcDbEntity
  8
6
  6
Continuous
 62
     7
370
     9
100
AcDbLine
 10
1341.523548493684
 20
721.3667310990709
 30
0.0
 11
1353.114658409153
 21
718.2609025578406
 31
0.0
  0
LINE
  5
11B
330
114
100
AcDbEntity
  8
6
  6
Continuous
 62
     7
370
     9
100
AcDbLine
 10
1391.023548493684
 20
721.3667310990709
 30
0.0
 11
1379.432438578215
 21
718.2609025578407
 31
0.0
  0
LINE
  5
11C
330
114
100
AcDbEntity
  8
6
  6
Continuous
 62
     7
370
     9
100
AcDbLine
 10
1391.023548493684
 20
721.3667310990709
 30
0.0
 11
1379.432438578215
 21
724.4725596403011
 31
0.0
  0
MTEXT
  5
11D
330
114
100
AcDbEntity
  8
6
  6
Continuous
 62
     7
370
     9
100
AcDbMText
 10
1366.273548493684
 20
730.3667310990709
 30
0.0
 40
18.0
 41
0.0
 71
     8
 72
     1
  1
49.5
 73
     1
 44
1.0
  0
ENDBLK
  5
116
330
114
100
AcDbEntity
  8
0
100
AcDbBlockEnd
  0
BLOCK
  5
121
330
120
100
AcDbEntity
  8
0
100
AcDbBlockBegin
  2
Dim4
 70
     0
 71
     0
 10
0.0
 20
0.0
 30
0.0
  3
Dim4
  1

  0
LINE
  5
123
330
120
100
AcDbEntity
  8
6
  6
Continuous
 62
     7
370
     9
100
AcDbLine
 10
332.0235484936838
 20
661.3667310990711
 30
0.0
 11
332.0235484936838
 21
631.3667310990711
 31
0.0
  0
LINE
  5
124
330
120
100
AcDbEntity
  8
6
  6
Continuous
 62
     7
370
     9
100
AcDbLine
 10
326.0235484936838
 20
661.3667310990711
 30
0.0
 11
380.0235484936838
 21
661.3667310990709
 31
0.0
  0
LINE
  5
125
330
120
100
AcDbEntity
  8
6
  6
Continuous
 62
     7
370
     9
100
AcDbLine
 10
326.0235484936838
 20
631.3667310990711
 30
0.0
 11
380.0235484936838
 21
631.3667310990709
 31
0.0
  0
LINE
  5
126
330
120
100
AcDbEntity
  8
6
  6
Continuous
 62
     7
370
     9
100
AcDbLine
 10
332.0235484936838
 20
661.3667310990711
 30
0.0
 11
335.1293770349141
 21
649.7756211836023
 31
0.0
  0
LINE
  5
127
330
120
100
AcDbEntity
  8
6
  6
Continuous
 62
     7
370
     9
100
AcDbLine
 10
332.0235484936838
 20
661.3667310990711
 30
0.0
 11
328.9177199524536
 21
649.7756211836023
 31
0.0
  0
LINE
  5
128
330
120
100
AcDbEntity
  8
6
  6
Continuous
 62
     7
370
     9
100
AcDbLine
 10
332.0235484936838
 20
631.3667310990711
 30
0.0
 11
328.9177199524536
 21
642.9578410145399
 31
0.0
  0
LINE
  5
129
330
120
100
AcDbEntity
  8
6
  6
Continuous
 62
     7
370
     9
100
AcDbLine
 10
332.0235484936838
 20
631.3667310990711
 30
0.0
 11
335.1293770349141
 21
642.9578410145399
 31
0.0
  0
MTEXT
  5
12A
330
120
100
AcDbEntity
  8
6
  6
Continuous
 62
     7
370
     9
100
AcDbMText
 10
323.0235484936838
 20
646.3667310990711
 30
0.0
 40
18.0
 41
0.0
 71
     8
 72
     1
  1
30
 11
1.615544574432587E-15
 21
1.0
 31
0.0
 73
     1
 44
1.0
  0
ENDBLK
  5
122
330
120
100
AcDbEntity
  8
0
100
AcDbBlockEnd
  0
BLOCK
  5
137
330
136
100
AcDbEntity
  8
0
100
AcDbBlockBegin
  2
*G17
 70
     1
 71
     0
 10
0.0
 20
0.0
 30
0.0
  3
*G17
  1

  0
LINE
  5
139
330
136
100
AcDbEntity
  8
2
  6
Continuous
 62
    90
370
    18
100
AcDbLine
 10
437.5235484936836
 20
649.9667088402712
 30
0.0
 11
439.523548493684
 21
653.4308104554086
 31
0.0
  0
LINE
  5
13A
330
136
100
AcDbEntity
  8
2
  6
Continuous
 62
    90
370
    18
100
AcDbLine
 10
439.523548493684
 20
653.4308104554086
 30
0.0
 11
443.5235484936836
 21
653.4308104554086
 31
0.0
  0
LINE
  5
13B
330
136
100
AcDbEntity
  8
2
  6
Continuous
 62
    90
370
    18
100
AcDbLine
 10
443.5235484936836
 20
653.4308104554086
 30
0.0
 11
445.523548493684
 21
649.9667088402712
 31
0.0
  0
LINE
  5
13C
330
136
100
AcDbEntity
  8
2
  6
Continuous
 62
    90
370
    18
100
AcDbLine
 10
445.523548493684
 20
649.9667088402712
 30
0.0
 11
443.5235484936836
 21
646.5026072251331
 31
0.0
  0
LINE
  5
13D
330
136
100
AcDbEntity
  8
2
  6
Continuous
 62
    90
370
    18
100
AcDbLine
 10
443.5235484936836
 20
646.5026072251331
 30
0.0
 11
439.523548493684
 21
646.5026072251331
 31
0.0
  0
LINE
  5
13E
330
136
100
AcDbEntity
  8
2
  6
Continuous
 62
    90
370
    18
100
AcDbLine
 10
439.523548493684
 20
646.5026072251331
 30
0.0
 11
437.5235484936836
 21
649.9667088402712
 31
0.0
  0
ENDBLK
  5
138
330
136
100
AcDbEntity
  8
0
100
AcDbBlockEnd
  0
BLOCK
  5
143
330
142
100
AcDbEntity
  8
0
100
AcDbBlockBegin
  2
*G18
 70
     1
 71
     0
 10
0.0
 20
0.0
 30
0.0
  3
*G18
  1

  0
LINE
  5
145
330
142
100
AcDbEntity
  8
2
  6
Continuous
 62
    90
370
    18
100
AcDbLine
 10
537.5235484936836
 20
649.9667088402712
 30
0.0
 11
539.523548493684
 21
653.4308104554086
 31
0.0
  0
LINE
  5
146
330
142
100
AcDbEntity
  8
2
  6
Continuous
 62
    90
370
    18
100
AcDbLine
 10
539.523548493684
 20
653.4308104554086
 30
0.0
 11
543.5235484936836
 21
653.4308104554086
 31
0.0
  0
LINE
  5
147
330
142
100
AcDbEntity
  8
2
  6
Continuous
 62
    90
370
    18
100
AcDbLine
 10
543.5235484936836
 20
653.4308104554086
 30
0.0
 11
545.523548493684
 21
649.9667088402712
 31
0.0
  0
LINE
  5
148
330
142
100
AcDbEntity
  8
2
  6
Continuous
 62
    90
370
    18
100
AcDbLine
 10
545.523548493684
 20
649.9667088402712
 30
0.0
 11
543.5235484936836
 21
646.5026072251331
 31
0.0
  0
LINE
  5
149
330
142
100
AcDbEntity
  8
2
  6
Continuous
 62
    90
370
    18
100
AcDbLine
 10
543.5235484936836
 20
646.5026072251331
 30
0.0
 11
539.523548493684
 21
646.5026072251331
 31
0.0
  0
LINE
  5
14A
330
142
100
AcDbEntity
  8
2
  6
Continuous
 62
    90
370
    18
100
AcDbLine
 10
539.523548493684
 20
646.5026072251331
 30
0.0
 11
537.5235484936836
 21
649.9667088402712
 31
0.0
  0
ENDBLK
  5
144
330
142
100
AcDbEntity
  8
0
100
AcDbBlockEnd
  0
BLOCK
  5
14F
330
14E
100
AcDbEntity
  8
0
100
AcDbBlockBegin
  2
*G19
 70
     1
 71
     0
 10
0.0
 20
0.0
 30
0.0
  3
*G19
  1

  0
LINE
  5
151
330
14E
100
AcDbEntity
  8
2
  6
Continuous
 62
    90
370
    18
100
AcDbLine
 10
637.5235484936836
 20
649.9667088402712
 30
0.0
 11
639.523548493684
 21
653.4308104554086
 31
0.0
  0
LINE
  5
152
330
14E
100
AcDbEntity
  8
2
  6
Continuous
 62
    90
370
    18
100
AcDbLine
 10
639.523548493684
 20
653.4308104554086
 30
0.0
 11
643.5235484936836
 21
653.4308104554086
 31
0.0
  0
LINE
  5
153
330
14E
100
AcDbEntity
  8
2
  6
Continuous
 62
    90
370
    18
100
AcDbLine
 10
643.5235484936836
 20
653.4308104554086
 30
0.0
 11
645.523548493684
 21
649.9667088402712
 31
0.0
  0
LINE
  5
154
330
14E
100
AcDbEntity
  8
2
  6
Continuous
 62
    90
370
    18
100
AcDbLine
 10
645.523548493684
 20
649.9667088402712
 30
0.0
 11
643.5235484936836
 21
646.5026072251331
 31
0.0
  0
LINE
  5
155
330
14E
100
AcDbEntity
  8
2
  6
Continuous
 62
    90
370
    18
100
AcDbLine
 10
643.5235484936836
 20
646.5026072251331
 30
0.0
 11
639.523548493684
 21
646.5026072251331
 31
0.0
  0
LINE
  5
156
330
14E
100
AcDbEntity
  8
2
  6
Continuous
 62
    90
370
    18
100
AcDbLine
 10
639.523548493684
 20
646.5026072251331
 30
0.0
 11
637.5235484936836
 21
649.9667088402712
 31
0.0
  0
ENDBLK
  5
150
330
14E
100
AcDbEntity
  8
0
100
AcDbBlockEnd
  0
BLOCK
  5
15B
330
15A
100
AcDbEntity
  8
0
100
AcDbBlockBegin
  2
*G20
 70
     1
 71
     0
 10
0.0
 20
0.0
 30
0.0
  3
*G20
  1

  0
LINE
  5
15D
330
15A
100
AcDbEntity
  8
2
  6
Continuous
 62
    90
370
    18
100
AcDbLine
 10
737.5235484936836
 20
649.9667088402712
 30
0.0
 11
739.523548493684
 21
653.4308104554086
 31
0.0
  0
LINE
  5
15E
330
15A
100
AcDbEntity
  8
2
  6
Continuous
 62
    90
370
    18
100
AcDbLine
 10
739.523548493684
 20
653.4308104554086
 30
0.0
 11
743.5235484936836
 21
653.4308104554086
 31
0.0
  0
LINE
  5
15F
330
15A
100
AcDbEntity
  8
2
  6
Continuous
 62
    90
370
    18
100
AcDbLine
 10
743.5235484936836
 20
653.4308104554086
 30
0.0
 11
745.523548493684
 21
649.9667088402712
 31
0.0
  0
LINE
  5
160
330
15A
100
AcDbEntity
  8
2
  6
Continuous
 62
    90
370
    18
100
AcDbLine
 10
745.523548493684
 20
649.9667088402712
 30
0.0
 11
743.5235484936836
 21
646.5026072251331
 31
0.0
  0
LINE
  5
161
330
15A
100
AcDbEntity
  8
2
  6
Continuous
 62
    90
370
    18
100
AcDbLine
 10
743.5235484936836
 20
646.5026072251331
 30
0.0
 11
739.523548493684
 21
646.5026072251331
 31
0.0
  0
LINE
  5
162
330
15A
100
AcDbEntity
  8
2
  6
Continuous
 62
    90
370
    18
100
AcDbLine
 10
739.523548493684
 20
646.5026072251331
 30
0.0
 11
737.5235484936836
 21
649.9667088402712
 31
0.0
  0
ENDBLK
  5
15C
330
15A
100
AcDbEntity
  8
0
100
AcDbBlockEnd
  0
BLOCK
  5
167
330
166
100
AcDbEntity
  8
0
100
AcDbBlockBegin
  2
*G21
 70
     1
 71
     0
 10
0.0
 20
0.0
 30
0.0
  3
*G21
  1

  0
LINE
  5
169
330
166
100
AcDbEntity
  8
2
  6
Continuous
 62
    90
370
    18
100
AcDbLine
 10
837.5235484936836
 20
649.9667088402712
 30
0.0
 11
839.523548493684
 21
653.4308104554086
 31
0.0
  0
LINE
  5
16A
330
166
100
AcDbEntity
  8
2
  6
Continuous
 62
    90
370
    18
100
AcDbLine
 10
839.523548493684
 20
653.4308104554086
 30
0.0
 11
843.5235484936836
 21
653.4308104554086
 31
0.0
  0
LINE
  5
16B
330
166
100
AcDbEntity
  8
2
  6
Continuous
 62
    90
370
    18
100
AcDbLine
 10
843.5235484936836
 20
653.4308104554086
 30
0.0
 11
845.523548493684
 21
649.9667088402712
 31
0.0
  0
LINE
  5
16C
330
166
100
AcDbEntity
  8
2
  6
Continuous
 62
    90
370
    18
100
AcDbLine
 10
845.523548493684
 20
649.9667088402712
 30
0.0
 11
843.5235484936836
 21
646.5026072251331
 31
0.0
  0
LINE
  5
16D
330
166
100
AcDbEntity
  8
2
  6
Continuous
 62
    90
370
    18
100
AcDbLine
 10
843.5235484936836
 20
646.5026072251331
 30
0.0
 11
839.523548493684
 21
646.5026072251331
 31
0.0
  0
LINE
  5
16E
330
166
100
AcDbEntity
  8
2
  6
Continuous
 62
    90
370
    18
100
AcDbLine
 10
839.523548493684
 20
646.5026072251331
 30
0.0
 11
837.5235484936836
 21
649.9667088402712
 31
0.0
  0
ENDBLK
  5
168
330
166
100
AcDbEntity
  8
0
100
AcDbBlockEnd
  0
BLOCK
  5
173
330
172
100
AcDbEntity
  8
0
100
AcDbBlockBegin
  2
*G22
 70
     1
 71
     0
 10
0.0
 20
0.0
 30
0.0
  3
*G22
  1

  0
LINE
  5
175
330
172
100
AcDbEntity
  8
2
  6
Continuous
 62
    90
370
    18
100
AcDbLine
 10
937.5235484936836
 20
649.9667088402712
 30
0.0
 11
939.523548493684
 21
653.4308104554086
 31
0.0
  0
LINE
  5
176
330
172
100
AcDbEntity
  8
2
  6
Continuous
 62
    90
370
    18
100
AcDbLine
 10
939.523548493684
 20
653.4308104554086
 30
0.0
 11
943.5235484936836
 21
653.4308104554086
 31
0.0
  0
LINE
  5
177
330
172
100
AcDbEntity
  8
2
  6
Continuous
 62
    90
370
    18
100
AcDbLine
 10
943.5235484936836
 20
653.4308104554086
 30
0.0
 11
945.523548493684
 21
649.9667088402712
 31
0.0
  0
LINE
  5
178
330
172
100
AcDbEntity
  8
2
  6
Continuous
 62
    90
370
    18
100
AcDbLine
 10
945.523548493684
 20
649.9667088402712
 30
0.0
 11
943.5235484936836
 21
646.5026072251331
 31
0.0
  0
LINE
  5
179
330
172
100
AcDbEntity
  8
2
  6
Continuous
 62
    90
370
    18
100
AcDbLine
 10
943.5235484936836
 20
646.5026072251331
 30
0.0
 11
939.523548493684
 21
646.5026072251331
 31
0.0
  0
LINE
  5
17A
330
172
100
AcDbEntity
  8
2
  6
Continuous
 62
    90
370
    18
100
AcDbLine
 10
939.523548493684
 20
646.5026072251331
 30
0.0
 11
937.5235484936836
 21
649.9667088402712
 31
0.0
  0
ENDBLK
  5
174
330
172
100
AcDbEntity
  8
0
100
AcDbBlockEnd
  0
BLOCK
  5
17F
330
17E
100
AcDbEntity
  8
0
100
AcDbBlockBegin
  2
*G23
 70
     1
 71
     0
 10
0.0
 20
0.0
 30
0.0
  3
*G23
  1

  0
LINE
  5
181
330
17E
100
AcDbEntity
  8
2
  6
Continuous
 62
    90
370
    18
100
AcDbLine
 10
1037.523548493684
 20
649.9667088402712
 30
0.0
 11
1039.523548493684
 21
653.4308104554086
 31
0.0
  0
LINE
  5
182
330
17E
100
AcDbEntity
  8
2
  6
Continuous
 62
    90
370
    18
100
AcDbLine
 10
1039.523548493684
 20
653.4308104554086
 30
0.0
 11
1043.523548493684
 21
653.4308104554086
 31
0.0
  0
LINE
  5
183
330
17E
100
AcDbEntity
  8
2
  6
Continuous
 62
    90
370
    18
100
AcDbLine
 10
1043.523548493684
 20
653.4308104554086
 30
0.0
 11
1045.523548493684
 21
649.9667088402712
 31
0.0
  0
LINE
  5
184
330
17E
100
AcDbEntity
  8
2
  6
Continuous
 62
    90
370
    18
100
AcDbLine
 10
1045.523548493684
 20
649.9667088402712
 30
0.0
 11
1043.523548493684
 21
646.5026072251331
 31
0.0
  0
LINE
  5
185
330
17E
100
AcDbEntity
  8
2
  6
Continuous
 62
    90
370
    18
100
AcDbLine
 10
1043.523548493684
 20
646.5026072251331
 30
0.0
 11
1039.523548493684
 21
646.5026072251331
 31
0.0
  0
LINE
  5
186
330
17E
100
AcDbEntity
  8
2
  6
Continuous
 62
    90
370
    18
100
AcDbLine
 10
1039.523548493684
 20
646.5026072251331
 30
0.0
 11
1037.523548493684
 21
649.9667088402712
 31
0.0
  0
ENDBLK
  5
180
330
17E
100
AcDbEntity
  8
0
100
AcDbBlockEnd
  0
BLOCK
  5
18B
330
18A
100
AcDbEntity
  8
0
100
AcDbBlockBegin
  2
*G24
 70
     1
 71
     0
 10
0.0
 20
0.0
 30
0.0
  3
*G24
  1

  0
LINE
  5
18D
330
18A
100
AcDbEntity
  8
2
  6
Continuous
 62
    90
370
    18
100
AcDbLine
 10
1137.523548493684
 20
649.9667088402712
 30
0.0
 11
1139.523548493684
 21
653.4308104554086
 31
0.0
  0
LINE
  5
18E
330
18A
100
AcDbEntity
  8
2
  6
Continuous
 62
    90
370
    18
100
AcDbLine
 10
1139.523548493684
 20
653.4308104554086
 30
0.0
 11
1143.523548493684
 21
653.4308104554086
 31
0.0
  0
LINE
  5
18F
330
18A
100
AcDbEntity
  8
2
  6
Continuous
 62
    90
370
    18
100
AcDbLine
 10
1143.523548493684
 20
653.4308104554086
 30
0.0
 11
1145.523548493684
 21
649.9667088402712
 31
0.0
  0
LINE
  5
190
330
18A
100
AcDbEntity
  8
2
  6
Continuous
 62
    90
370
    18
100
AcDbLine
 10
1145.523548493684
 20
649.9667088402712
 30
0.0
 11
1143.523548493684
 21
646.5026072251331
 31
0.0
  0
LINE
  5
191
330
18A
100
AcDbEntity
  8
2
  6
Continuous
 62
    90
370
    18
100
AcDbLine
 10
1143.523548493684
 20
646.5026072251331
 30
0.0
 11
1139.523548493684
 21
646.5026072251331
 31
0.0
  0
LINE
  5
192
330
18A
100
AcDbEntity
  8
2
  6
Continuous
 62
    90
370
    18
100
AcDbLine
 10
1139.523548493684
 20
646.5026072251331
 30
0.0
 11
1137.523548493684
 21
649.9667088402712
 31
0.0
  0
ENDBLK
  5
18C
330
18A
100
AcDbEntity
  8
0
100
AcDbBlockEnd
  0
BLOCK
  5
197
330
196
100
AcDbEntity
  8
0
100
AcDbBlockBegin
  2
*G25
 70
     1
 71
     0
 10
0.0
 20
0.0
 30
0.0
  3
*G25
  1

  0
LINE
  5
199
330
196
100
AcDbEntity
  8
2
  6
Continuous
 62
    90
370
    18
100
AcDbLine
 10
1237.523548493684
 20
649.9667088402712
 30
0.0
 11
1239.523548493684
 21
653.4308104554086
 31
0.0
  0
LINE
  5
19A
330
196
100
AcDbEntity
  8
2
  6
Continuous
 62
    90
370
    18
100
AcDbLine
 10
1239.523548493684
 20
653.4308104554086
 30
0.0
 11
1243.523548493684
 21
653.4308104554086
 31
0.0
  0
LINE
  5
19B
330
196
100
AcDbEntity
  8
2
  6
Continuous
 62
    90
370
    18
100
AcDbLine
 10
1243.523548493684
 20
653.4308104554086
 30
0.0
 11
1245.523548493684
 21
649.9667088402712
 31
0.0
  0
LINE
  5
19C
330
196
100
AcDbEntity
  8
2
  6
Continuous
 62
    90
370
    18
100
AcDbLine
 10
1245.523548493684
 20
649.9667088402712
 30
0.0
 11
1243.523548493684
 21
646.5026072251331
 31
0.0
  0
LINE
  5
19D
330
196
100
AcDbEntity
  8
2
  6
Continuous
 62
    90
370
    18
100
AcDbLine
 10
1243.523548493684
 20
646.5026072251331
 30
0.0
 11
1239.523548493684
 21
646.5026072251331
 31
0.0
  0
LINE
  5
19E
330
196
100
AcDbEntity
  8
2
  6
Continuous
 62
    90
370
    18
100
AcDbLine
 10
1239.523548493684
 20
646.5026072251331
 30
0.0
 11
1237.523548493684
 21
649.9667088402712
 31
0.0
  0
ENDBLK
  5
198
330
196
100
AcDbEntity
  8
0
100
AcDbBlockEnd
  0
BLOCK
  5
1A3
330
1A2
100
AcDbEntity
  8
0
100
AcDbBlockBegin
  2
*G26
 70
     1
 71
     0
 10
0.0
 20
0.0
 30
0.0
  3
*G26
  1

  0
LINE
  5
1A5
330
1A2
100
AcDbEntity
  8
2
  6
Continuous
 62
    90
370
    18
100
AcDbLine
 10
1337.523548493684
 20
649.9667088402712
 30
0.0
 11
1339.523548493684
 21
653.4308104554086
 31
0.0
  0
LINE
  5
1A6
330
1A2
100
AcDbEntity
  8
2
  6
Continuous
 62
    90
370
    18
100
AcDbLine
 10
1339.523548493684
 20
653.4308104554086
 30
0.0
 11
1343.523548493684
 21
653.4308104554086
 31
0.0
  0
LINE
  5
1A7
330
1A2
100
AcDbEntity
  8
2
  6
Continuous
 62
    90
370
    18
100
AcDbLine
 10
1343.523548493684
 20
653.4308104554086
 30
0.0
 11
1345.523548493684
 21
649.9667088402712
 31
0.0
  0
LINE
  5
1A8
330
1A2
100
AcDbEntity
  8
2
  6
Continuous
 62
    90
370
    18
100
AcDbLine
 10
1345.523548493684
 20
649.9667088402712
 30
0.0
 11
1343.523548493684
 21
646.5026072251331
 31
0.0
  0
LINE
  5
1A9
330
1A2
100
AcDbEntity
  8
2
  6
Continuous
 62
    90
370
    18
100
AcDbLine
 10
1343.523548493684
 20
646.5026072251331
 30
0.0
 11
1339.523548493684
 21
646.5026072251331
 31
0.0
  0
LINE
  5
1AA
330
1A2
100
AcDbEntity
  8
2
  6
Continuous
 62
    90
370
    18
100
AcDbLine
 10
1339.523548493684
 20
646.5026072251331
 30
0.0
 11
1337.523548493684
 21
649.9667088402712
 31
0.0
  0
ENDBLK
  5
1A4
330
1A2
100
AcDbEntity
  8
0
100
AcDbBlockEnd
  0
BLOCK
  5
1B1
330
1B0
100
AcDbEntity
  8
0
100
AcDbBlockBegin
  2
*G27
 70
     1
 71
     0
 10
0.0
 20
0.0
 30
0.0
  3
*G27
  1

  0
LINE
  5
1B3
330
1B0
100
AcDbEntity
  8
1
  6
Continuous
 62
    45
370
     9
100
AcDbLine
 10
405.5235484936837
 20
646.3667310990709
 30
0.0
 11
407.023548493684
 21
648.964807310424
 31
0.0
  0
LINE
  5
1B4
330
1B0
100
AcDbEntity
  8
1
  6
Continuous
 62
    45
370
     9
100
AcDbLine
 10
407.023548493684
 20
648.964807310424
 30
0.0
 11
410.0235484936837
 21
648.964807310424
 31
0.0
  0
LINE
  5
1B5
330
1B0
100
AcDbEntity
  8
1
  6
Continuous
 62
    45
370
     9
100
AcDbLine
 10
410.0235484936837
 20
648.964807310424
 30
0.0
 11
411.523548493684
 21
646.3667310990709
 31
0.0
  0
LINE
  5
1B6
330
1B0
100
AcDbEntity
  8
1
  6
Continuous
 62
    45
370
     9
100
AcDbLine
 10
411.523548493684
 20
646.3667310990709
 30
0.0
 11
410.0235484936837
 21
643.7686548877174
 31
0.0
  0
LINE
  5
1B7
330
1B0
100
AcDbEntity
  8
1
  6
Continuous
 62
    45
370
     9
100
AcDbLine
 10
410.0235484936837
 20
643.7686548877174
 30
0.0
 11
407.023548493684
 21
643.7686548877174
 31
0.0
  0
LINE
  5
1B8
330
1B0
100
AcDbEntity
  8
1
  6
Continuous
 62
    45
370
     9
100
AcDbLine
 10
407.023548493684
 20
643.7686548877174
 30
0.0
 11
405.5235484936837
 21
646.3667310990709
 31
0.0
  0
ENDBLK
  5
1B2
330
1B0
100
AcDbEntity
  8
0
100
AcDbBlockEnd
  0
BLOCK
  5
1BE
330
1BD
100
AcDbEntity
  8
0
100
AcDbBlockBegin
  2
*G28
 70
     1
 71
     0
 10
0.0
 20
0.0
 30
0.0
  3
*G28
  1

  0
LINE
  5
1C0
330
1BD
100
AcDbEntity
  8
1
  6
Continuous
 62
    45
370
     9
100
AcDbLine
 10
688.5235484936836
 20
646.3667310990709
 30
0.0
 11
690.023548493684
 21
648.964807310424
 31
0.0
  0
LINE
  5
1C1
330
1BD
100
AcDbEntity
  8
1
  6
Continuous
 62
    45
370
     9
100
AcDbLine
 10
690.023548493684
 20
648.964807310424
 30
0.0
 11
693.0235484936836
 21
648.964807310424
 31
0.0
  0
LINE
  5
1C2
330
1BD
100
AcDbEntity
  8
1
  6
Continuous
 62
    45
370
     9
100
AcDbLine
 10
693.0235484936836
 20
648.964807310424
 30
0.0
 11
694.523548493684
 21
646.3667310990709
 31
0.0
  0
LINE
  5
1C3
330
1BD
100
AcDbEntity
  8
1
  6
Continuous
 62
    45
370
     9
100
AcDbLine
 10
694.523548493684
 20
646.3667310990709
 30
0.0
 11
693.0235484936836
 21
643.7686548877174
 31
0.0
  0
LINE
  5
1C4
330
1BD
100
AcDbEntity
  8
1
  6
Continuous
 62
    45
370
     9
100
AcDbLine
 10
693.0235484936836
 20
643.7686548877174
 30
0.0
 11
690.023548493684
 21
643.7686548877174
 31
0.0
  0
LINE
  5
1C5
330
1BD
100
AcDbEntity
  8
1
  6
Continuous
 62
    45
370
     9
100
AcDbLine
 10
690.023548493684
 20
643.7686548877174
 30
0.0
 11
688.5235484936836
 21
646.3667310990709
 31
0.0
  0
ENDBLK
  5
1BF
330
1BD
100
AcDbEntity
  8
0
100
AcDbBlockEnd
  0
BLOCK
  5
1CB
330
1CA
100
AcDbEntity
  8
0
100
AcDbBlockBegin
  2
*G29
 70
     1
 71
     0
 10
0.0
 20
0.0
 30
0.0
  3
*G29
  1

  0
LINE
  5
1CD
330
1CA
100
AcDbEntity
  8
1
  6
Continuous
 62
    45
370
     9
100
AcDbLine
 10
1088.523548493684
 20
646.3667310990709
 30
0.0
 11
1090.023548493684
 21
648.964807310424
 31
0.0
  0
LINE
  5
1CE
330
1CA
100
AcDbEntity
  8
1
  6
Continuous
 62
    45
370
     9
100
AcDbLine
 10
1090.023548493684
 20
648.964807310424
 30
0.0
 11
1093.023548493684
 21
648.964807310424
 31
0.0
  0
LINE
  5
1CF
330
1CA
100
AcDbEntity
  8
1
  6
Continuous
 62
    45
370
     9
100
AcDbLine
 10
1093.023548493684
 20
648.964807310424
 30
0.0
 11
1094.523548493684
 21
646.3667310990709
 31
0.0
  0
LINE
  5
1D0
330
1CA
100
AcDbEntity
  8
1
  6
Continuous
 62
    45
370
     9
100
AcDbLine
 10
1094.523548493684
 20
646.3667310990709
 30
0.0
 11
1093.023548493684
 21
643.7686548877174
 31
0.0
  0
LINE
  5
1D1
330
1CA
100
AcDbEntity
  8
1
  6
Continuous
 62
    45
370
     9
100
AcDbLine
 10
1093.023548493684
 20
643.7686548877174
 30
0.0
 11
1090.023548493684
 21
643.7686548877174
 31
0.0
  0
LINE
  5
1D2
330
1CA
100
AcDbEntity
  8
1
  6
Continuous
 62
    45
370
     9
100
AcDbLine
 10
1090.023548493684
 20
643.7686548877174
 30
0.0
 11
1088.523548493684
 21
646.3667310990709
 31
0.0
  0
ENDBLK
  5
1CC
330
1CA
100
AcDbEntity
  8
0
100
AcDbBlockEnd
  0
BLOCK
  5
1D8
330
1D7
100
AcDbEntity
  8
0
100
AcDbBlockBegin
  2
*G30
 70
     1
 71
     0
 10
0.0
 20
0.0
 30
0.0
  3
*G30
  1

  0
LINE
  5
1DA
330
1D7
100
AcDbEntity
  8
1
  6
Continuous
 62
    45
370
     9
100
AcDbLine
 10
1371.523548493684
 20
646.3667310990709
 30
0.0
 11
1373.023548493684
 21
648.964807310424
 31
0.0
  0
LINE
  5
1DB
330
1D7
100
AcDbEntity
  8
1
  6
Continuous
 62
    45
370
     9
100
AcDbLine
 10
1373.023548493684
 20
648.964807310424
 30
0.0
 11
1376.023548493684
 21
648.964807310424
 31
0.0
  0
LINE
  5
1DC
330
1D7
100
AcDbEntity
  8
1
  6
Continuous
 62
    45
370
     9
100
AcDbLine
 10
1376.023548493684
 20
648.964807310424
 30
0.0
 11
1377.523548493684
 21
646.3667310990709
 31
0.0
  0
LINE
  5
1DD
330
1D7
100
AcDbEntity
  8
1
  6
Continuous
 62
    45
370
     9
100
AcDbLine
 10
1377.523548493684
 20
646.3667310990709
 30
0.0
 11
1376.023548493684
 21
643.7686548877174
 31
0.0
  0
LINE
  5
1DE
330
1D7
100
AcDbEntity
  8
1
  6
Continuous
 62
    45
370
     9
100
AcDbLine
 10
1376.023548493684
 20
643.7686548877174
 30
0.0
 11
1373.023548493684
 21
643.7686548877174
 31
0.0
  0
LINE
  5
1DF
330
1D7
100
AcDbEntity
  8
1
  6
Continuous
 62
    45
370
     9
100
AcDbLine
 10
1373.023548493684
 20
643.7686548877174
 30
0.0
 11
1371.523548493684
 21
646.3667310990709
 31
0.0
  0
ENDBLK
  5
1D9
330
1D7
100
AcDbEntity
  8
0
100
AcDbBlockEnd
  0
BLOCK
  5
317
330
316
100
AcDbEntity
  8
0
100
AcDbBlockBegin
  2
Dim5
 70
     0
 71
     0
 10
0.0
 20
0.0
 30
0.0
  3
Dim5
  1

  0
LINE
  5
319
330
316
100
AcDbEntity
  8
6
  6
Continuous
 62
     7
370
     9
100
AcDbLine
 10
332.0235484936834
 20
971.2749159667592
 30
0.0
 11
332.0235484936834
 21
941.2749159667592
 31
0.0
  0
LINE
  5
31A
330
316
100
AcDbEntity
  8
6
  6
Continuous
 62
     7
370
     9
100
AcDbLine
 10
326.0235484936834
 20
941.2749159667592
 30
0.0
 11
380.0235484936838
 21
941.2749159667592
 31
0.0
  0
LINE
  5
31B
330
316
100
AcDbEntity
  8
6
  6
Continuous
 62
     7
370
     9
100
AcDbLine
 10
332.0235484936834
 20
971.2749159667592
 30
0.0
 11
335.1293770349137
 21
959.6838060512904
 31
0.0
  0
LINE
  5
31C
330
316
100
AcDbEntity
  8
6
  6
Continuous
 62
     7
370
     9
100
AcDbLine
 10
332.0235484936834
 20
971.2749159667592
 30
0.0
 11
328.9177199524532
 21
959.6838060512904
 31
0.0
  0
LINE
  5
31D
330
316
100
AcDbEntity
  8
6
  6
Continuous
 62
     7
370
     9
100
AcDbLine
 10
332.0235484936834
 20
941.2749159667592
 30
0.0
 11
328.9177199524532
 21
952.866025882228
 31
0.0
  0
LINE
  5
31E
330
316
100
AcDbEntity
  8
6
  6
Continuous
 62
     7
370
     9
100
AcDbLine
 10
332.0235484936834
 20
941.2749159667592
 30
0.0
 11
335.1293770349137
 21
952.866025882228
 31
0.0
  0
MTEXT
  5
31F
330
316
100
AcDbEntity
  8
6
  6
Continuous
 62
     7
370
     9
100
AcDbMText
 10
323.0235484936834
 20
956.2749159667592
 30
0.0
 40
18.0
 41
0.0
 71
     8
 72
     1
  1
30
 11
1.615544574432587E-15
 21
1.0
 31
0.0
 73
     1
 44
1.0
  0
ENDBLK
  5
318
330
316
100
AcDbEntity
  8
0
100
AcDbBlockEnd
  0
BLOCK
  5
322
330
321
100
AcDbEntity
  8
0
100
AcDbBlockBegin
  2
Dim6
 70
     0
 71
     0
 10
0.0
 20
0.0
 30
0.0
  3
Dim6
  1

  0
LINE
  5
324
330
321
100
AcDbEntity
  8
6
  6
Continuous
 62
     7
370
     9
100
AcDbLine
 10
332.0235484936834
 20
941.2749159667592
 30
0.0
 11
332.0235484936834
 21
816.2749159667592
 31
0.0
  0
LINE
  5
325
330
321
100
AcDbEntity
  8
6
  6
Continuous
 62
     7
370
     9
100
AcDbLine
 10
326.0235484936834
 20
816.2749159667592
 30
0.0
 11
380.0235484936838
 21
816.2749159667592
 31
0.0
  0
LINE
  5
326
330
321
100
AcDbEntity
  8
6
  6
Continuous
 62
     7
370
     9
100
AcDbLine
 10
332.0235484936834
 20
941.2749159667592
 30
0.0
 11
335.1293770349137
 21
929.6838060512904
 31
0.0
  0
LINE
  5
327
330
321
100
AcDbEntity
  8
6
  6
Continuous
 62
     7
370
     9
100
AcDbLine
 10
332.0235484936834
 20
941.2749159667592
 30
0.0
 11
328.9177199524532
 21
929.6838060512904
 31
0.0
  0
LINE
  5
328
330
321
100
AcDbEntity
  8
6
  6
Continuous
 62
     7
370
     9
100
AcDbLine
 10
332.0235484936834
 20
816.2749159667592
 30
0.0
 11
328.9177199524532
 21
827.866025882228
 31
0.0
  0
LINE
  5
329
330
321
100
AcDbEntity
  8
6
  6
Continuous
 62
     7
370
     9
100
AcDbLine
 10
332.0235484936834
 20
816.2749159667592
 30
0.0
 11
335.1293770349137
 21
827.866025882228
 31
0.0
  0
MTEXT
  5
32A
330
321
100
AcDbEntity
  8
6
  6
Continuous
 62
     7
370
     9
100
AcDbMText
 10
323.0235484936834
 20
878.7749159667592
 30
0.0
 40
18.0
 41
0.0
 71
     8
 72
     1
  1
125
 11
2.059633784282649E-15
 21
1.0
 31
0.0
 73
     1
 44
1.0
  0
ENDBLK
  5
323
330
321
100
AcDbEntity
  8
0
100
AcDbBlockEnd
  0
BLOCK
  5
32D
330
32C
100
AcDbEntity
  8
0
100
AcDbBlockBegin
  2
Dim7
 70
     0
 71
     0
 10
0.0
 20
0.0
 30
0.0
  3
Dim7
  1

  0
LINE
  5
32F
330
32C
100
AcDbEntity
  8
6
  6
Continuous
 62
     7
370
     9
100
AcDbLine
 10
332.0235484936834
 20
816.2749159667592
 30
0.0
 11
332.0235484936834
 21
786.2749159667592
 31
0.0
  0
LINE
  5
330
330
32C
100
AcDbEntity
  8
6
  6
Continuous
 62
     7
370
     9
100
AcDbLine
 10
332.0235484936834
 20
816.2749159667592
 30
0.0
 11
335.1293770349137
 21
804.6838060512904
 31
0.0
  0
LINE
  5
331
330
32C
100
AcDbEntity
  8
6
  6
Continuous
 62
     7
370
     9
100
AcDbLine
 10
332.0235484936834
 20
816.2749159667592
 30
0.0
 11
328.9177199524532
 21
804.6838060512904
 31
0.0
  0
LINE
  5
332
330
32C
100
AcDbEntity
  8
6
  6
Continuous
 62
     7
370
     9
100
AcDbLine
 10
332.0235484936834
 20
786.2749159667592
 30
0.0
 11
328.9177199524532
 21
797.866025882228
 31
0.0
  0
LINE
  5
333
330
32C
100
AcDbEntity
  8
6
  6
Continuous
 62
     7
370
     9
100
AcDbLine
 10
332.0235484936834
 20
786.2749159667592
 30
0.0
 11
335.1293770349137
 21
797.866025882228
 31
0.0
  0
MTEXT
  5
334
330
32C
100
AcDbEntity
  8
6
  6
Continuous
 62
     7
370
     9
100
AcDbMText
 10
323.0235484936834
 20
801.2749159667592
 30
0.0
 40
18.0
 41
0.0
 71
     8
 72
     1
  1
30
 11
1.615544574432587E-15
 21
1.0
 31
0.0
 73
     1
 44
1.0
  0
ENDBLK
  5
32E
330
32C
100
AcDbEntity
  8
0
100
AcDbBlockEnd
  0
BLOCK
  5
337
330
336
100
AcDbEntity
  8
0
100
AcDbBlockBegin
  2
Dim8
 70
     0
 71
     0
 10
0.0
 20
0.0
 30
0.0
  3
Dim8
  1

  0
LINE
  5
339
330
336
100
AcDbEntity
  8
6
  6
Continuous
 62
     7
370
     9
100
AcDbLine
 10
290.0235484936833
 20
971.2749159667592
 30
0.0
 11
290.0235484936834
 21
786.2749159667592
 31
0.0
  0
LINE
  5
33A
330
336
100
AcDbEntity
  8
6
  6
Continuous
 62
     7
370
     9
100
AcDbLine
 10
284.0235484936833
 20
971.2749159667592
 30
0.0
 11
390.0235484936838
 21
971.2749159667592
 31
0.0
  0
LINE
  5
33B
330
336
100
AcDbEntity
  8
6
  6
Continuous
 62
     7
370
     9
100
AcDbLine
 10
284.0235484936834
 20
786.2749159667592
 30
0.0
 11
390.0235484936838
 21
786.2749159667592
 31
0.0
  0
LINE
  5
33C
330
336
100
AcDbEntity
  8
6
  6
Continuous
 62
     7
370
     9
100
AcDbLine
 10
290.0235484936833
 20
971.2749159667592
 30
0.0
 11
293.1293770349135
 21
959.6838060512904
 31
0.0
  0
LINE
  5
33D
330
336
100
AcDbEntity
  8
6
  6
Continuous
 62
     7
370
     9
100
AcDbLine
 10
290.0235484936833
 20
971.2749159667592
 30
0.0
 11
286.917719952453
 21
959.6838060512904
 31
0.0
  0
LINE
  5
33E
330
336
100
AcDbEntity
  8
6
  6
Continuous
 62
     7
370
     9
100
AcDbLine
 10
290.0235484936834
 20
786.2749159667592
 30
0.0
 11
286.9177199524531
 21
797.866025882228
 31
0.0
  0
LINE
  5
33F
330
336
100
AcDbEntity
  8
6
  6
Continuous
 62
     7
370
     9
100
AcDbLine
 10
290.0235484936834
 20
786.2749159667592
 30
0.0
 11
293.1293770349137
 21
797.866025882228
 31
0.0
  0
MTEXT
  5
340
330
336
100
AcDbEntity
  8
6
  6
Continuous
 62
     7
370
     9
100
AcDbMText
 10
281.0235484936833
 20
878.7749159667592
 30
0.0
 40
18.0
 41
0.0
 71
     8
 72
     1
  1
185
 11
1.837589179357618E-15
 21
1.0
 31
0.0
 73
     1
 44
1.0
  0
ENDBLK
  5
338
330
336
100
AcDbEntity
  8
0
100
AcDbBlockEnd
  0
BLOCK
  5
343
330
342
100
AcDbEntity
  8
0
100
AcDbBlockBegin
  2
*G35
 70
     1
 71
     0
 10
0.0
 20
0.0
 30
0.0
  3
*G35
  1

  0
ARC
  5
345
330
342
100
AcDbEntity
  8
12
  6
Continuous
 62
   136
370
    18
100
AcDbCircle
 10
634.3999263848975
 20
309.7589879389515
 30
0.0
 40
2.0
100
AcDbArc
 50
0.0
 51
89.99999999999991
  0
ARC
  5
346
330
342
100
AcDbEntity
  8
12
  6
Continuous
 62
   136
370
    18
100
AcDbCircle
 10
633.4640280022448
 20
313.7589879389516
 30
0.0
 40
2.0
100
AcDbArc
 50
210.0000000000046
 51
269.9999999999998
  0
ARC
  5
347
330
342
100
AcDbEntity
  8
12
  6
Continuous
 62
   136
370
    18
100
AcDbCircle
 10
629.9999263871049
 20
311.7589879389518
 30
0.0
 40
2.0
100
AcDbArc
 50
29.99999999995789
 51
89.99999999999991
  0
LINE
  5
348
330
342
100
AcDbEntity
  8
12
  6
Continuous
 62
   136
370
    18
100
AcDbLine
 10
634.3999263848975
 20
311.7589879389518
 30
0.0
 11
633.4640280022448
 21
311.7589879389518
 31
0.0
  0
ARC
  5
349
330
342
100
AcDbEntity
  8
12
  6
Continuous
 62
   136
370
    18
100
AcDbCircle
 10
615.5999263893117
 20
309.7589879389515
 30
0.0
 40
2.0
100
AcDbArc
 50
89.99999999999991
 51
179.9999999999998
  0
ARC
  5
34A
330
342
100
AcDbEntity
  8
12
  6
Continuous
 62
   136
370
    18
100
AcDbCircle
 10
616.5358247719686
 20
313.7589879389516
 30
0.0
 40
2.0
100
AcDbArc
 50
269.9999999999998
 51
329.9999999999832
  0
ARC
  5
34B
330
342
100
AcDbEntity
  8
12
  6
Continuous
 62
   136
370
    18
100
AcDbCircle
 10
619.9999263871085
 20
311.7589879389518
 30
0.0
 40
2.0
100
AcDbArc
 50
90.00000000012051
 51
150.0000000000535
  0
LINE
  5
34C
330
342
100
AcDbEntity
  8
12
  6
Continuous
 62
   136
370
    18
100
AcDbLine
 10
615.5999263893117
 20
311.7589879389518
 30
0.0
 11
616.5358247719686
 21
311.7589879389518
 31
0.0
  0
ARC
  5
34D
330
342
100
AcDbEntity
  8
12
  6
Continuous
 62
   136
370
    18
100
AcDbCircle
 10
635.3999263848981
 20
306.9589879389523
 30
0.0
 40
1.0
100
AcDbArc
 50
269.9999999999998
 51
0.0
  0
LINE
  5
34E
330
342
100
AcDbEntity
  8
12
  6
Continuous
 62
   136
370
    18
100
AcDbLine
 10
636.3999263848979
 20
309.7589879389515
 30
0.0
 11
636.3999263848979
 21
306.9589879389523
 31
0.0
  0
ARC
  5
34F
330
342
100
AcDbEntity
  8
12
  6
Continuous
 62
   136
370
    18
100
AcDbCircle
 10
614.5999263893153
 20
306.9589879389523
 30
0.0
 40
1.0
100
AcDbArc
 50
179.9999999999998
 51
269.9999999999998
  0
LINE
  5
350
330
342
100
AcDbEntity
  8
12
  6
Continuous
 62
   136
370
    18
100
AcDbLine
 10
613.5999263893148
 20
309.7589879389515
 30
0.0
 11
613.5999263893148
 21
306.9589879389523
 31
0.0
  0
ARC
  5
351
330
342
100
AcDbEntity
  8
12
  6
Continuous
 62
   136
370
    18
100
AcDbCircle
 10
630.3999263848979
 20
303.9589879389523
 30
0.0
 40
2.0
100
AcDbArc
 50
89.99999999999991
 51
179.9999999999998
  0
LINE
  5
352
330
342
100
AcDbEntity
  8
12
  6
Continuous
 62
   136
370
    18
100
AcDbLine
 10
630.3999263848979
 20
305.9589879389522
 30
0.0
 11
635.3999263848981
 21
305.9589879389522
 31
0.0
  0
ARC
  5
353
330
342
100
AcDbEntity
  8
12
  6
Continuous
 62
   136
370
    18
100
AcDbCircle
 10
619.5999263848988
 20
303.9589879389523
 30
0.0
 40
2.0
100
AcDbArc
 50
0.0
 51
89.99999999999991
  0
LINE
  5
354
330
342
100
AcDbEntity
  8
12
  6
Continuous
 62
   136
370
    18
100
AcDbLine
 10
619.5999263893148
 20
305.9589879389522
 30
0.0
 11
614.5999263893153
 21
305.9589879389522
 31
0.0
  0
LINE
  5
355
330
342
100
AcDbEntity
  8
12
  6
Continuous
 62
   136
370
    18
100
AcDbLine
 10
619.9999263871085
 20
313.7589879389516
 30
0.0
 11
629.9999263871049
 21
313.7589879389516
 31
0.0
  0
LINE
  5
356
330
342
100
AcDbEntity
  8
12
  6
Continuous
 62
   136
370
    18
100
AcDbLine
 10
628.3999263871063
 20
263.7589879389518
 30
0.0
 11
628.3999263848975
 21
303.9589879389523
 31
0.0
  0
LINE
  5
357
330
342
100
AcDbEntity
  8
12
  6
Continuous
 62
   136
370
    18
100
AcDbLine
 10
621.5999263871071
 20
263.7589879389518
 30
0.0
 11
621.5999263848983
 21
303.9589879389523
 31
0.0
  0
LINE
  5
358
330
342
100
AcDbEntity
  8
12
  6
Continuous
 62
   136
370
    18
100
AcDbLine
 10
621.5999263871071
 20
263.7589879389518
 30
0.0
 11
628.3999263871063
 21
263.7589879389518
 31
0.0
  0
ENDBLK
  5
344
330
342
100
AcDbEntity
  8
0
100
AcDbBlockEnd
  0
BLOCK
  5
35B
330
35A
100
AcDbEntity
  8
0
100
AcDbBlockBegin
  2
*G36
 70
     1
 71
     0
 10
0.0
 20
0.0
 30
0.0
  3
*G36
  1

  0
ARC
  5
35D
330
35A
100
AcDbEntity
  8
12
  6
Continuous
 62
   136
370
    18
100
AcDbCircle
 10
600.3999263841741
 20
309.7589879389515
 30
0.0
 40
2.0
100
AcDbArc
 50
0.0
 51
89.99999999999991
  0
ARC
  5
35E
330
35A
100
AcDbEntity
  8
12
  6
Continuous
 62
   136
370
    18
100
AcDbCircle
 10
599.4640280015207
 20
313.7589879389516
 30
0.0
 40
2.0
100
AcDbArc
 50
210.000000000016
 51
269.9999999999998
  0
ARC
  5
35F
330
35A
100
AcDbEntity
  8
12
  6
Continuous
 62
   136
370
    18
100
AcDbCircle
 10
595.999926386384
 20
311.7589879389518
 30
0.0
 40
2.0
100
AcDbArc
 50
29.99999999999371
 51
89.99999999999991
  0
LINE
  5
360
330
35A
100
AcDbEntity
  8
12
  6
Continuous
 62
   136
370
    18
100
AcDbLine
 10
600.3999263841741
 20
311.7589879389518
 30
0.0
 11
599.4640280015207
 21
311.7589879389518
 31
0.0
  0
ARC
  5
361
330
35A
100
AcDbEntity
  8
12
  6
Continuous
 62
   136
370
    18
100
AcDbCircle
 10
581.5999263885908
 20
309.7589879389515
 30
0.0
 40
2.0
100
AcDbArc
 50
89.99999999999991
 51
179.9999999999998
  0
ARC
  5
362
330
35A
100
AcDbEntity
  8
12
  6
Continuous
 62
   136
370
    18
100
AcDbCircle
 10
582.5358247712444
 20
313.7589879389516
 30
0.0
 40
2.0
100
AcDbArc
 50
269.9999999999998
 51
329.9999999999816
  0
ARC
  5
363
330
35A
100
AcDbEntity
  8
12
  6
Continuous
 62
   136
370
    18
100
AcDbCircle
 10
585.9999263863809
 20
311.7589879389518
 30
0.0
 40
2.0
100
AcDbArc
 50
89.99999999999991
 51
150.0000000000063
  0
LINE
  5
364
330
35A
100
AcDbEntity
  8
12
  6
Continuous
 62
   136
370
    18
100
AcDbLine
 10
581.5999263885908
 20
311.7589879389518
 30
0.0
 11
582.5358247712444
 21
311.7589879389518
 31
0.0
  0
ARC
  5
365
330
35A
100
AcDbEntity
  8
12
  6
Continuous
 62
   136
370
    18
100
AcDbCircle
 10
601.3999263841772
 20
306.9589879389523
 30
0.0
 40
1.0
100
AcDbArc
 50
269.9999999999998
 51
0.0
  0
LINE
  5
366
330
35A
100
AcDbEntity
  8
12
  6
Continuous
 62
   136
370
    18
100
AcDbLine
 10
602.3999263841778
 20
309.7589879389515
 30
0.0
 11
602.3999263841778
 21
306.9589879389523
 31
0.0
  0
ARC
  5
367
330
35A
100
AcDbEntity
  8
12
  6
Continuous
 62
   136
370
    18
100
AcDbCircle
 10
580.5999263885877
 20
306.9589879389523
 30
0.0
 40
1.0
100
AcDbArc
 50
179.9999999999998
 51
269.9999999999998
  0
LINE
  5
368
330
35A
100
AcDbEntity
  8
12
  6
Continuous
 62
   136
370
    18
100
AcDbLine
 10
579.5999263885914
 20
309.7589879389515
 30
0.0
 11
579.5999263885914
 21
306.9589879389523
 31
0.0
  0
ARC
  5
369
330
35A
100
AcDbEntity
  8
12
  6
Continuous
 62
   136
370
    18
100
AcDbCircle
 10
596.3999263841778
 20
303.9589879389523
 30
0.0
 40
2.0
100
AcDbArc
 50
89.99999999999991
 51
179.9999999999998
  0
LINE
  5
36A
330
35A
100
AcDbEntity
  8
12
  6
Continuous
 62
   136
370
    18
100
AcDbLine
 10
596.3999263841778
 20
305.9589879389522
 30
0.0
 11
601.3999263841772
 21
305.9589879389522
 31
0.0
  0
ARC
  5
36B
330
35A
100
AcDbEntity
  8
12
  6
Continuous
 62
   136
370
    18
100
AcDbCircle
 10
585.5999263841746
 20
303.9589879389523
 30
0.0
 40
2.0
100
AcDbArc
 50
0.0
 51
89.99999999999991
  0
LINE
  5
36C
330
35A
100
AcDbEntity
  8
12
  6
Continuous
 62
   136
370
    18
100
AcDbLine
 10
585.5999263885914
 20
305.9589879389522
 30
0.0
 11
580.5999263885877
 21
305.9589879389522
 31
0.0
  0
LINE
  5
36D
330
35A
100
AcDbEntity
  8
12
  6
Continuous
 62
   136
370
    18
100
AcDbLine
 10
585.9999263863809
 20
313.7589879389516
 30
0.0
 11
595.999926386384
 21
313.7589879389516
 31
0.0
  0
LINE
  5
36E
330
35A
100
AcDbEntity
  8
12
  6
Continuous
 62
   136
370
    18
100
AcDbLine
 10
594.3999263863822
 20
263.7589879389518
 30
0.0
 11
594.3999263841741
 21
303.9589879389523
 31
0.0
  0
LINE
  5
36F
330
35A
100
AcDbEntity
  8
12
  6
Continuous
 62
   136
370
    18
100
AcDbLine
 10
587.5999263863829
 20
263.7589879389518
 30
0.0
 11
587.5999263841749
 21
303.9589879389523
 31
0.0
  0
LINE
  5
370
330
35A
100
AcDbEntity
  8
12
  6
Continuous
 62
   136
370
    18
100
AcDbLine
 10
587.5999263863829
 20
263.7589879389518
 30
0.0
 11
594.3999263863822
 21
263.7589879389518
 31
0.0
  0
ENDBLK
  5
35C
330
35A
100
AcDbEntity
  8
0
100
AcDbBlockEnd
  0
BLOCK
  5
373
330
372
100
AcDbEntity
  8
0
100
AcDbBlockBegin
  2
*G37
 70
     1
 71
     0
 10
0.0
 20
0.0
 30
0.0
  3
*G37
  1

  0
ARC
  5
375
330
372
100
AcDbEntity
  8
12
  6
Continuous
 62
   136
370
    18
100
AcDbCircle
 10
547.600073615098
 20
309.7589879389515
 30
0.0
 40
2.0
100
AcDbArc
 50
89.99999999999991
 51
179.9999999999998
  0
ARC
  5
376
330
372
100
AcDbEntity
  8
12
  6
Continuous
 62
   136
370
    18
100
AcDbCircle
 10
548.5359719977549
 20
313.7589879389516
 30
0.0
 40
2.0
100
AcDbArc
 50
269.9999999999998
 51
329.9999999999962
  0
ARC
  5
377
330
372
100
AcDbEntity
  8
12
  6
Continuous
 62
   136
370
    18
100
AcDbCircle
 10
552.0000736128917
 20
311.7589879389518
 30
0.0
 40
2.0
100
AcDbArc
 50
89.99999999999991
 51
149.9999999999949
  0
LINE
  5
378
330
372
100
AcDbEntity
  8
12
  6
Continuous
 62
   136
370
    18
100
AcDbLine
 10
547.600073615098
 20
311.7589879389518
 30
0.0
 11
548.5359719977549
 21
311.7589879389518
 31
0.0
  0
ARC
  5
379
330
372
100
AcDbEntity
  8
12
  6
Continuous
 62
   136
370
    18
100
AcDbCircle
 10
566.4000736106849
 20
309.7589879389515
 30
0.0
 40
2.0
100
AcDbArc
 50
0.0
 51
89.99999999999991
  0
ARC
  5
37A
330
372
100
AcDbEntity
  8
12
  6
Continuous
 62
   136
370
    18
100
AcDbCircle
 10
565.4641752280312
 20
313.7589879389516
 30
0.0
 40
2.0
100
AcDbArc
 50
209.9999999999704
 51
269.9999999999998
  0
ARC
  5
37B
330
372
100
AcDbEntity
  8
12
  6
Continuous
 62
   136
370
    18
100
AcDbCircle
 10
562.0000736128912
 20
311.7589879389518
 30
0.0
 40
2.0
100
AcDbArc
 50
29.99999999999208
 51
89.99999999999991
  0
LINE
  5
37C
330
372
100
AcDbEntity
  8
12
  6
Continuous
 62
   136
370
    18
100
AcDbLine
 10
566.4000736106849
 20
311.7589879389518
 30
0.0
 11
565.4641752280312
 21
311.7589879389518
 31
0.0
  0
ARC
  5
37D
330
372
100
AcDbEntity
  8
12
  6
Continuous
 62
   136
370
    18
100
AcDbCircle
 10
546.6000736150985
 20
306.9589879389523
 30
0.0
 40
1.0
100
AcDbArc
 50
179.9999999999998
 51
269.9999999999998
  0
LINE
  5
37E
330
372
100
AcDbEntity
  8
12
  6
Continuous
 62
   136
370
    18
100
AcDbLine
 10
545.6000736150987
 20
309.7589879389515
 30
0.0
 11
545.6000736150987
 21
306.9589879389523
 31
0.0
  0
ARC
  5
37F
330
372
100
AcDbEntity
  8
12
  6
Continuous
 62
   136
370
    18
100
AcDbCircle
 10
567.4000736106844
 20
306.9589879389523
 30
0.0
 40
1.0
100
AcDbArc
 50
269.9999999999998
 51
0.0
  0
LINE
  5
380
330
372
100
AcDbEntity
  8
12
  6
Continuous
 62
   136
370
    18
100
AcDbLine
 10
568.4000736106851
 20
309.7589879389515
 30
0.0
 11
568.4000736106851
 21
306.9589879389523
 31
0.0
  0
ARC
  5
381
330
372
100
AcDbEntity
  8
12
  6
Continuous
 62
   136
370
    18
100
AcDbCircle
 10
551.6000736150987
 20
303.9589879389523
 30
0.0
 40
2.0
100
AcDbArc
 50
0.0
 51
89.99999999999991
  0
LINE
  5
382
330
372
100
AcDbEntity
  8
12
  6
Continuous
 62
   136
370
    18
100
AcDbLine
 10
551.6000736150987
 20
305.9589879389522
 30
0.0
 11
546.6000736150985
 21
305.9589879389522
 31
0.0
  0
ARC
  5
383
330
372
100
AcDbEntity
  8
12
  6
Continuous
 62
   136
370
    18
100
AcDbCircle
 10
562.4000736150978
 20
303.9589879389523
 30
0.0
 40
2.0
100
AcDbArc
 50
89.99999999999991
 51
179.9999999999998
  0
LINE
  5
384
330
372
100
AcDbEntity
  8
12
  6
Continuous
 62
   136
370
    18
100
AcDbLine
 10
562.4000736106851
 20
305.9589879389522
 30
0.0
 11
567.4000736106844
 21
305.9589879389522
 31
0.0
  0
LINE
  5
385
330
372
100
AcDbEntity
  8
12
  6
Continuous
 62
   136
370
    18
100
AcDbLine
 10
562.0000736128912
 20
313.7589879389516
 30
0.0
 11
552.0000736128917
 21
313.7589879389516
 31
0.0
  0
LINE
  5
386
330
372
100
AcDbEntity
  8
12
  6
Continuous
 62
   136
370
    18
100
AcDbLine
 10
553.6000736128934
 20
263.7589879389518
 30
0.0
 11
553.600073615098
 21
303.9589879389523
 31
0.0
  0
LINE
  5
387
330
372
100
AcDbEntity
  8
12
  6
Continuous
 62
   136
370
    18
100
AcDbLine
 10
560.4000736128927
 20
263.7589879389518
 30
0.0
 11
560.4000736150973
 21
303.9589879389523
 31
0.0
  0
LINE
  5
388
330
372
100
AcDbEntity
  8
12
  6
Continuous
 62
   136
370
    18
100
AcDbLine
 10
560.4000736128927
 20
263.7589879389518
 30
0.0
 11
553.6000736128934
 21
263.7589879389518
 31
0.0
  0
ENDBLK
  5
374
330
372
100
AcDbEntity
  8
0
100
AcDbBlockEnd
  0
BLOCK
  5
38B
330
38A
100
AcDbEntity
  8
0
100
AcDbBlockBegin
  2
*G38
 70
     1
 71
     0
 10
0.0
 20
0.0
 30
0.0
  3
*G38
  1

  0
ARC
  5
38D
330
38A
100
AcDbEntity
  8
12
  6
Continuous
 62
   136
370
    18
100
AcDbCircle
 10
581.6000736158225
 20
309.7589879389515
 30
0.0
 40
2.0
100
AcDbArc
 50
89.99999999999991
 51
179.9999999999998
  0
ARC
  5
38E
330
38A
100
AcDbEntity
  8
12
  6
Continuous
 62
   136
370
    18
100
AcDbCircle
 10
582.5359719984759
 20
313.7589879389516
 30
0.0
 40
2.0
100
AcDbArc
 50
269.9999999999998
 51
330.0000000000288
  0
ARC
  5
38F
330
38A
100
AcDbEntity
  8
12
  6
Continuous
 62
   136
370
    18
100
AcDbCircle
 10
586.0000736136159
 20
311.7589879389518
 30
0.0
 40
2.0
100
AcDbArc
 50
89.99999999999991
 51
150.0000000000079
  0
LINE
  5
390
330
38A
100
AcDbEntity
  8
12
  6
Continuous
 62
   136
370
    18
100
AcDbLine
 10
581.6000736158225
 20
311.7589879389518
 30
0.0
 11
582.5359719984759
 21
311.7589879389518
 31
0.0
  0
ARC
  5
391
330
38A
100
AcDbEntity
  8
12
  6
Continuous
 62
   136
370
    18
100
AcDbCircle
 10
600.4000736114091
 20
309.7589879389515
 30
0.0
 40
2.0
100
AcDbArc
 50
0.0
 51
89.99999999999991
  0
ARC
  5
392
330
38A
100
AcDbEntity
  8
12
  6
Continuous
 62
   136
370
    18
100
AcDbCircle
 10
599.4641752287522
 20
313.7589879389516
 30
0.0
 40
2.0
100
AcDbArc
 50
210.0000000000046
 51
269.9999999999998
  0
ARC
  5
393
330
38A
100
AcDbEntity
  8
12
  6
Continuous
 62
   136
370
    18
100
AcDbCircle
 10
596.0000736136157
 20
311.7589879389518
 30
0.0
 40
2.0
100
AcDbArc
 50
30.00000000000674
 51
89.99999999999991
  0
LINE
  5
394
330
38A
100
AcDbEntity
  8
12
  6
Continuous
 62
   136
370
    18
100
AcDbLine
 10
600.4000736114091
 20
311.7589879389518
 30
0.0
 11
599.4641752287522
 21
311.7589879389518
 31
0.0
  0
ARC
  5
395
330
38A
100
AcDbEntity
  8
12
  6
Continuous
 62
   136
370
    18
100
AcDbCircle
 10
580.6000736158227
 20
306.9589879389523
 30
0.0
 40
1.0
100
AcDbArc
 50
179.9999999999998
 51
269.9999999999998
  0
LINE
  5
396
330
38A
100
AcDbEntity
  8
12
  6
Continuous
 62
   136
370
    18
100
AcDbLine
 10
579.600073615822
 20
309.7589879389515
 30
0.0
 11
579.600073615822
 21
306.9589879389523
 31
0.0
  0
ARC
  5
397
330
38A
100
AcDbEntity
  8
12
  6
Continuous
 62
   136
370
    18
100
AcDbCircle
 10
601.4000736114089
 20
306.9589879389523
 30
0.0
 40
1.0
100
AcDbArc
 50
269.9999999999998
 51
0.0
  0
LINE
  5
398
330
38A
100
AcDbEntity
  8
12
  6
Continuous
 62
   136
370
    18
100
AcDbLine
 10
602.4000736114085
 20
309.7589879389515
 30
0.0
 11
602.4000736114085
 21
306.9589879389523
 31
0.0
  0
ARC
  5
399
330
38A
100
AcDbEntity
  8
12
  6
Continuous
 62
   136
370
    18
100
AcDbCircle
 10
585.6000736158221
 20
303.9589879389523
 30
0.0
 40
2.0
100
AcDbArc
 50
0.0
 51
89.99999999999991
  0
LINE
  5
39A
330
38A
100
AcDbEntity
  8
12
  6
Continuous
 62
   136
370
    18
100
AcDbLine
 10
585.6000736158221
 20
305.9589879389522
 30
0.0
 11
580.6000736158227
 21
305.9589879389522
 31
0.0
  0
ARC
  5
39B
330
38A
100
AcDbEntity
  8
12
  6
Continuous
 62
   136
370
    18
100
AcDbCircle
 10
596.400073615822
 20
303.9589879389523
 30
0.0
 40
2.0
100
AcDbArc
 50
89.99999999999991
 51
179.9999999999998
  0
LINE
  5
39C
330
38A
100
AcDbEntity
  8
12
  6
Continuous
 62
   136
370
    18
100
AcDbLine
 10
596.4000736114085
 20
305.9589879389522
 30
0.0
 11
601.4000736114089
 21
305.9589879389522
 31
0.0
  0
LINE
  5
39D
330
38A
100
AcDbEntity
  8
12
  6
Continuous
 62
   136
370
    18
100
AcDbLine
 10
596.0000736136157
 20
313.7589879389516
 30
0.0
 11
586.0000736136159
 21
313.7589879389516
 31
0.0
  0
LINE
  5
39E
330
38A
100
AcDbEntity
  8
12
  6
Continuous
 62
   136
370
    18
100
AcDbLine
 10
587.6000736136144
 20
263.7589879389518
 30
0.0
 11
587.6000736158225
 21
303.9589879389523
 31
0.0
  0
LINE
  5
39F
330
38A
100
AcDbEntity
  8
12
  6
Continuous
 62
   136
370
    18
100
AcDbLine
 10
594.4000736136137
 20
263.7589879389518
 30
0.0
 11
594.4000736158217
 21
303.9589879389523
 31
0.0
  0
LINE
  5
3A0
330
38A
100
AcDbEntity
  8
12
  6
Continuous
 62
   136
370
    18
100
AcDbLine
 10
594.4000736136137
 20
263.7589879389518
 30
0.0
 11
587.6000736136144
 21
263.7589879389518
 31
0.0
  0
ENDBLK
  5
38C
330
38A
100
AcDbEntity
  8
0
100
AcDbBlockEnd
  0
BLOCK
  5
3B0
330
3AF
100
AcDbEntity
  8
0
100
AcDbBlockBegin
  2
*G39
 70
     1
 71
     0
 10
0.0
 20
0.0
 30
0.0
  3
*G39
  1

  0
LINE
  5
3B2
330
3AF
100
AcDbEntity
  8
12
  6
Continuous
 62
   136
370
    18
100
AcDbLine
 10
459.0065040000007
 20
290.9589434213515
 30
0.0
 11
452.997471999999
 21
290.9589434213515
 31
0.0
  0
LINE
  5
3B3
330
3AF
100
AcDbEntity
  8
12
  6
Continuous
 62
   136
370
    18
100
AcDbLine
 10
459.0065040000007
 20
283.958943421353
 30
0.0
 11
452.9974480000018
 21
283.958943421353
 31
0.0
  0
ARC
  5
3B4
330
3AF
100
AcDbEntity
  8
12
  6
Continuous
 62
   136
370
    18
100
AcDbCircle
 10
452.9974480000018
 20
284.3589434213526
 30
0.0
 40
0.4000000000000002
100
AcDbArc
 50
179.9999999999998
 51
269.9999999999998
  0
ARC
  5
3B5
330
3AF
100
AcDbEntity
  8
12
  6
Continuous
 62
   136
370
    18
100
AcDbCircle
 10
468.113408000001
 20
287.4586514213527
 30
0.0
 40
15.515912
100
AcDbArc
 50
166.9619780000073
 51
193.0356699999992
  0
ARC
  5
3B6
330
3AF
100
AcDbEntity
  8
12
  6
Continuous
 62
   136
370
    18
100
AcDbCircle
 10
452.9974480000018
 20
297.5589434213515
 30
0.0
 40
0.4000000000000002
100
AcDbArc
 50
89.99999999999991
 51
179.9999999999998
  0
ARC
  5
3B7
330
3AF
100
AcDbEntity
  8
12
  6
Continuous
 62
   136
370
    18
100
AcDbCircle
 10
468.113408000001
 20
294.4592314213522
 30
0.0
 40
15.515912
100
AcDbArc
 50
166.9643300000004
 51
193.0380219999984
  0
LINE
  5
3B8
330
3AF
100
AcDbEntity
  8
12
  6
Continuous
 62
   136
370
    18
100
AcDbLine
 10
459.0065040000007
 20
297.9589434213511
 30
0.0
 11
452.9974480000018
 21
297.9589434213511
 31
0.0
  0
LINE
  5
3B9
330
3AF
100
AcDbEntity
  8
12
  6
Continuous
 62
   136
370
    18
100
AcDbLine
 10
452.5974480000012
 20
284.3589434213526
 30
0.0
 11
452.5974480000012
 21
297.5589434213515
 31
0.0
  0
ENDBLK
  5
3B1
330
3AF
100
AcDbEntity
  8
0
100
AcDbBlockEnd
  0
BLOCK
  5
3BC
330
3BB
100
AcDbEntity
  8
0
100
AcDbBlockBegin
  2
*G40
 70
     1
 71
     0
 10
0.0
 20
0.0
 30
0.0
  3
*G40
  1

  0
ARC
  5
3BE
330
3BB
100
AcDbEntity
  8
12
  6
Continuous
 62
   136
370
    18
100
AcDbCircle
 10
459.4065039999995
 20
278.3589434213526
 30
0.0
 40
0.4000000000000002
100
AcDbArc
 50
179.9999999999998
 51
269.9999999999998
  0
LINE
  5
3BF
330
3BB
100
AcDbEntity
  8
12
  6
Continuous
 62
   136
370
    18
100
AcDbLine
 10
462.0000000000003
 20
277.9589434213513
 30
0.0
 11
459.4065039999995
 21
277.9589434213513
 31
0.0
  0
ARC
  5
3C0
330
3BB
100
AcDbEntity
  8
12
  6
Continuous
 62
   136
370
    18
100
AcDbCircle
 10
459.4065039999995
 20
303.5589434213515
 30
0.0
 40
0.4000000000000002
100
AcDbArc
 50
89.99999999999991
 51
179.9999999999998
  0
LINE
  5
3C1
330
3BB
100
AcDbEntity
  8
12
  6
Continuous
 62
   136
370
    18
100
AcDbLine
 10
462.0000000000003
 20
303.9589434213511
 30
0.0
 11
459.4065039999995
 21
303.9589434213511
 31
0.0
  0
LINE
  5
3C2
330
3BB
100
AcDbEntity
  8
12
  6
Continuous
 62
   136
370
    18
100
AcDbLine
 10
459.0065040000007
 20
289.9589434213513
 30
0.0
 11
459.0065040000007
 21
278.3589434213526
 31
0.0
  0
LINE
  5
3C3
330
3BB
100
AcDbEntity
  8
12
  6
Continuous
 62
   136
370
    18
100
AcDbLine
 10
459.0065040000007
 20
303.5589434213515
 30
0.0
 11
459.0065040000007
 21
289.9589434213513
 31
0.0
  0
ENDBLK
  5
3BD
330
3BB
100
AcDbEntity
  8
0
100
AcDbBlockEnd
  0
BLOCK
  5
3C6
330
3C5
100
AcDbEntity
  8
0
100
AcDbBlockBegin
  2
*G41
 70
     1
 71
     0
 10
0.0
 20
0.0
 30
0.0
  3
*G41
  1

  0
ARC
  5
3C8
330
3C5
100
AcDbEntity
  8
12
  6
Continuous
 62
   136
370
    18
100
AcDbCircle
 10
480.0000736136502
 20
309.7589879389515
 30
0.0
 40
2.0
100
AcDbArc
 50
89.99999999999991
 51
179.9999999999998
  0
ARC
  5
3C9
330
3C5
100
AcDbEntity
  8
12
  6
Continuous
 62
   136
370
    18
100
AcDbCircle
 10
480.9359719963071
 20
313.7589879389516
 30
0.0
 40
2.0
100
AcDbArc
 50
269.9999999999998
 51
329.99999999998
  0
ARC
  5
3CA
330
3C5
100
AcDbEntity
  8
12
  6
Continuous
 62
   136
370
    18
100
AcDbCircle
 10
484.4000736114439
 20
311.7589879389518
 30
0.0
 40
2.0
100
AcDbArc
 50
89.99999999999991
 51
150.0000000000112
  0
LINE
  5
3CB
330
3C5
100
AcDbEntity
  8
12
  6
Continuous
 62
   136
370
    18
100
AcDbLine
 10
480.0000736136502
 20
311.7589879389518
 30
0.0
 11
480.9359719963071
 21
311.7589879389518
 31
0.0
  0
ARC
  5
3CC
330
3C5
100
AcDbEntity
  8
12
  6
Continuous
 62
   136
370
    18
100
AcDbCircle
 10
498.8000736092371
 20
309.7589879389515
 30
0.0
 40
2.0
100
AcDbArc
 50
0.0
 51
89.99999999999991
  0
ARC
  5
3CD
330
3C5
100
AcDbEntity
  8
12
  6
Continuous
 62
   136
370
    18
100
AcDbCircle
 10
497.8641752265802
 20
313.7589879389516
 30
0.0
 40
2.0
100
AcDbArc
 50
209.9999999999997
 51
269.9999999999998
  0
ARC
  5
3CE
330
3C5
100
AcDbEntity
  8
12
  6
Continuous
 62
   136
370
    18
100
AcDbCircle
 10
494.4000736114434
 20
311.7589879389518
 30
0.0
 40
2.0
100
AcDbArc
 50
30.00000000000837
 51
89.99999999999991
  0
LINE
  5
3CF
330
3C5
100
AcDbEntity
  8
12
  6
Continuous
 62
   136
370
    18
100
AcDbLine
 10
498.8000736092371
 20
311.7589879389518
 30
0.0
 11
497.8641752265802
 21
311.7589879389518
 31
0.0
  0
ARC
  5
3D0
330
3C5
100
AcDbEntity
  8
12
  6
Continuous
 62
   136
370
    18
100
AcDbCircle
 10
479.0000736136507
 20
306.9589879389523
 30
0.0
 40
1.0
100
AcDbArc
 50
179.9999999999998
 51
269.9999999999998
  0
LINE
  5
3D1
330
3C5
100
AcDbEntity
  8
12
  6
Continuous
 62
   136
370
    18
100
AcDbLine
 10
478.0000736136498
 20
309.7589879389515
 30
0.0
 11
478.0000736136498
 21
306.9589879389523
 31
0.0
  0
ARC
  5
3D2
330
3C5
100
AcDbEntity
  8
12
  6
Continuous
 62
   136
370
    18
100
AcDbCircle
 10
499.8000736092366
 20
306.9589879389523
 30
0.0
 40
1.0
100
AcDbArc
 50
269.9999999999998
 51
0.0
  0
LINE
  5
3D3
330
3C5
100
AcDbEntity
  8
12
  6
Continuous
 62
   136
370
    18
100
AcDbLine
 10
500.8000736092362
 20
309.7589879389515
 30
0.0
 11
500.8000736092362
 21
306.9589879389523
 31
0.0
  0
ARC
  5
3D4
330
3C5
100
AcDbEntity
  8
12
  6
Continuous
 62
   136
370
    18
100
AcDbCircle
 10
484.0000736136498
 20
303.9589879389523
 30
0.0
 40
2.0
100
AcDbArc
 50
0.0
 51
89.99999999999991
  0
LINE
  5
3D5
330
3C5
100
AcDbEntity
  8
12
  6
Continuous
 62
   136
370
    18
100
AcDbLine
 10
484.0000736136498
 20
305.9589879389522
 30
0.0
 11
479.0000736136507
 21
305.9589879389522
 31
0.0
  0
ARC
  5
3D6
330
3C5
100
AcDbEntity
  8
12
  6
Continuous
 62
   136
370
    18
100
AcDbCircle
 10
494.8000736136499
 20
303.9589879389523
 30
0.0
 40
2.0
100
AcDbArc
 50
89.99999999999991
 51
179.9999999999998
  0
LINE
  5
3D7
330
3C5
100
AcDbEntity
  8
12
  6
Continuous
 62
   136
370
    18
100
AcDbLine
 10
494.8000736092362
 20
305.9589879389522
 30
0.0
 11
499.8000736092366
 21
305.9589879389522
 31
0.0
  0
LINE
  5
3D8
330
3C5
100
AcDbEntity
  8
12
  6
Continuous
 62
   136
370
    18
100
AcDbLine
 10
494.4000736114434
 20
313.7589879389516
 30
0.0
 11
484.4000736114439
 21
313.7589879389516
 31
0.0
  0
LINE
  5
3D9
330
3C5
100
AcDbEntity
  8
12
  6
Continuous
 62
   136
370
    18
100
AcDbLine
 10
486.0000736114424
 20
263.7589879389518
 30
0.0
 11
486.0000736136502
 21
303.9589879389523
 31
0.0
  0
LINE
  5
3DA
330
3C5
100
AcDbEntity
  8
12
  6
Continuous
 62
   136
370
    18
100
AcDbLine
 10
492.8000736114449
 20
263.7589879389518
 30
0.0
 11
492.8000736136527
 21
303.9589879389523
 31
0.0
  0
LINE
  5
3DB
330
3C5
100
AcDbEntity
  8
12
  6
Continuous
 62
   136
370
    18
100
AcDbLine
 10
492.8000736114449
 20
263.7589879389518
 30
0.0
 11
486.0000736114424
 21
263.7589879389518
 31
0.0
  0
ENDBLK
  5
3C7
330
3C5
100
AcDbEntity
  8
0
100
AcDbBlockEnd
  0
BLOCK
  5
3F4
330
3F3
100
AcDbEntity
  8
0
100
AcDbBlockBegin
  2
*G42
 70
     1
 71
     0
 10
0.0
 20
0.0
 30
0.0
  3
*G42
  1

  0
LINE
  5
3F6
330
3F3
100
AcDbEntity
  8
12
  6
Continuous
 62
   136
370
    18
100
AcDbLine
 10
722.993495999999
 20
290.9589434213515
 30
0.0
 11
729.0025280000008
 21
290.9589434213515
 31
0.0
  0
LINE
  5
3F7
330
3F3
100
AcDbEntity
  8
12
  6
Continuous
 62
   136
370
    18
100
AcDbLine
 10
722.993495999999
 20
283.958943421353
 30
0.0
 11
729.002551999998
 21
283.958943421353
 31
0.0
  0
ARC
  5
3F8
330
3F3
100
AcDbEntity
  8
12
  6
Continuous
 62
   136
370
    18
100
AcDbCircle
 10
729.002551999998
 20
284.3589434213526
 30
0.0
 40
0.4000000000000002
100
AcDbArc
 50
269.9999999999998
 51
0.0
  0
ARC
  5
3F9
330
3F3
100
AcDbEntity
  8
12
  6
Continuous
 62
   136
370
    18
100
AcDbCircle
 10
713.8865919999988
 20
287.4586514213527
 30
0.0
 40
15.515912
100
AcDbArc
 50
346.9643300000002
 51
13.03802199999268
  0
ARC
  5
3FA
330
3F3
100
AcDbEntity
  8
12
  6
Continuous
 62
   136
370
    18
100
AcDbCircle
 10
729.002551999998
 20
297.5589434213537
 30
0.0
 40
0.4000000000000002
100
AcDbArc
 50
0.0
 51
89.99999999999991
  0
ARC
  5
3FB
330
3F3
100
AcDbEntity
  8
12
  6
Continuous
 62
   136
370
    18
100
AcDbCircle
 10
713.8865919999988
 20
294.4592314213522
 30
0.0
 40
15.515912
100
AcDbArc
 50
346.9619780000008
 51
13.03566999999941
  0
LINE
  5
3FC
330
3F3
100
AcDbEntity
  8
12
  6
Continuous
 62
   136
370
    18
100
AcDbLine
 10
722.993495999999
 20
297.9589434213533
 30
0.0
 11
729.002551999998
 21
297.9589434213533
 31
0.0
  0
LINE
  5
3FD
330
3F3
100
AcDbEntity
  8
12
  6
Continuous
 62
   136
370
    18
100
AcDbLine
 10
729.4025519999989
 20
284.3589434213526
 30
0.0
 11
729.4025519999989
 21
297.5589434213537
 31
0.0
  0
ENDBLK
  5
3F5
330
3F3
100
AcDbEntity
  8
0
100
AcDbBlockEnd
  0
BLOCK
  5
400
330
3FF
100
AcDbEntity
  8
0
100
AcDbBlockBegin
  2
*G43
 70
     1
 71
     0
 10
0.0
 20
0.0
 30
0.0
  3
*G43
  1

  0
ARC
  5
402
330
3FF
100
AcDbEntity
  8
12
  6
Continuous
 62
   136
370
    18
100
AcDbCircle
 10
701.9999263863464
 20
309.7589879389515
 30
0.0
 40
2.0
100
AcDbArc
 50
0.0
 51
89.99999999999991
  0
ARC
  5
403
330
3FF
100
AcDbEntity
  8
12
  6
Continuous
 62
   136
370
    18
100
AcDbCircle
 10
701.0640280036929
 20
313.7589879389516
 30
0.0
 40
2.0
100
AcDbArc
 50
210.000000000016
 51
269.9999999999998
  0
ARC
  5
404
330
3FF
100
AcDbEntity
  8
12
  6
Continuous
 62
   136
370
    18
100
AcDbCircle
 10
697.599926388553
 20
311.7589879389518
 30
0.0
 40
2.0
100
AcDbArc
 50
29.99999999994649
 51
89.99999999999991
  0
LINE
  5
405
330
3FF
100
AcDbEntity
  8
12
  6
Continuous
 62
   136
370
    18
100
AcDbLine
 10
701.9999263863464
 20
311.7589879389518
 30
0.0
 11
701.0640280036929
 21
311.7589879389518
 31
0.0
  0
ARC
  5
406
330
3FF
100
AcDbEntity
  8
12
  6
Continuous
 62
   136
370
    18
100
AcDbCircle
 10
683.199926390763
 20
309.7589879389515
 30
0.0
 40
2.0
100
AcDbArc
 50
89.99999999999991
 51
179.9999999999998
  0
ARC
  5
407
330
3FF
100
AcDbEntity
  8
12
  6
Continuous
 62
   136
370
    18
100
AcDbCircle
 10
684.1358247734166
 20
313.7589879389516
 30
0.0
 40
2.0
100
AcDbArc
 50
269.9999999999998
 51
329.9999999999816
  0
ARC
  5
408
330
3FF
100
AcDbEntity
  8
12
  6
Continuous
 62
   136
370
    18
100
AcDbCircle
 10
687.5999263885532
 20
311.7589879389518
 30
0.0
 40
2.0
100
AcDbArc
 50
89.99999999999991
 51
150.0000000000063
  0
LINE
  5
409
330
3FF
100
AcDbEntity
  8
12
  6
Continuous
 62
   136
370
    18
100
AcDbLine
 10
683.199926390763
 20
311.7589879389518
 30
0.0
 11
684.1358247734166
 21
311.7589879389518
 31
0.0
  0
ARC
  5
40A
330
3FF
100
AcDbEntity
  8
12
  6
Continuous
 62
   136
370
    18
100
AcDbCircle
 10
702.9999263863461
 20
306.9589879389523
 30
0.0
 40
1.0
100
AcDbArc
 50
269.9999999999998
 51
0.0
  0
LINE
  5
40B
330
3FF
100
AcDbEntity
  8
12
  6
Continuous
 62
   136
370
    18
100
AcDbLine
 10
703.9999263863458
 20
309.7589879389515
 30
0.0
 11
703.9999263863458
 21
306.9589879389523
 31
0.0
  0
ARC
  5
40C
330
3FF
100
AcDbEntity
  8
12
  6
Continuous
 62
   136
370
    18
100
AcDbCircle
 10
682.19992639076
 20
306.9589879389523
 30
0.0
 40
1.0
100
AcDbArc
 50
179.9999999999998
 51
269.9999999999998
  0
LINE
  5
40D
330
3FF
100
AcDbEntity
  8
12
  6
Continuous
 62
   136
370
    18
100
AcDbLine
 10
681.1999263907594
 20
309.7589879389515
 30
0.0
 11
681.1999263907594
 21
306.9589879389523
 31
0.0
  0
ARC
  5
40E
330
3FF
100
AcDbEntity
  8
12
  6
Continuous
 62
   136
370
    18
100
AcDbCircle
 10
697.9999263863458
 20
303.9589879389523
 30
0.0
 40
2.0
100
AcDbArc
 50
89.99999999999991
 51
179.9999999999998
  0
LINE
  5
40F
330
3FF
100
AcDbEntity
  8
12
  6
Continuous
 62
   136
370
    18
100
AcDbLine
 10
697.9999263863458
 20
305.9589879389522
 30
0.0
 11
702.9999263863461
 21
305.9589879389522
 31
0.0
  0
ARC
  5
410
330
3FF
100
AcDbEntity
  8
12
  6
Continuous
 62
   136
370
    18
100
AcDbCircle
 10
687.1999263863469
 20
303.9589879389523
 30
0.0
 40
2.0
100
AcDbArc
 50
0.0
 51
89.99999999999991
  0
LINE
  5
411
330
3FF
100
AcDbEntity
  8
12
  6
Continuous
 62
   136
370
    18
100
AcDbLine
 10
687.1999263907636
 20
305.9589879389522
 30
0.0
 11
682.19992639076
 21
305.9589879389522
 31
0.0
  0
LINE
  5
412
330
3FF
100
AcDbEntity
  8
12
  6
Continuous
 62
   136
370
    18
100
AcDbLine
 10
687.5999263885532
 20
313.7589879389516
 30
0.0
 11
697.599926388553
 21
313.7589879389516
 31
0.0
  0
LINE
  5
413
330
3FF
100
AcDbEntity
  8
12
  6
Continuous
 62
   136
370
    18
100
AcDbLine
 10
695.9999263885544
 20
263.7589879389518
 30
0.0
 11
695.9999263863464
 21
303.9589879389523
 31
0.0
  0
LINE
  5
414
330
3FF
100
AcDbEntity
  8
12
  6
Continuous
 62
   136
370
    18
100
AcDbLine
 10
689.1999263885551
 20
263.7589879389518
 30
0.0
 11
689.1999263863471
 21
303.9589879389523
 31
0.0
  0
LINE
  5
415
330
3FF
100
AcDbEntity
  8
12
  6
Continuous
 62
   136
370
    18
100
AcDbLine
 10
689.1999263885551
 20
263.7589879389518
 30
0.0
 11
695.9999263885544
 21
263.7589879389518
 31
0.0
  0
ENDBLK
  5
401
330
3FF
100
AcDbEntity
  8
0
100
AcDbBlockEnd
  0
BLOCK
  5
43D
330
43C
100
AcDbEntity
  8
0
100
AcDbBlockBegin
  2
Dim9
 70
     0
 71
     0
 10
0.0
 20
0.0
 30
0.0
  3
Dim9
  1

  0
LINE
  5
43F
330
43C
100
AcDbEntity
  8
14
  6
Continuous
 62
     7
370
     9
100
AcDbLine
 10
406.0000000000003
 20
443.7589879389519
 30
0.0
 11
776.0000000000003
 21
443.7589879389519
 31
0.0
  0
LINE
  5
440
330
43C
100
AcDbEntity
  8
14
  6
Continuous
 62
     7
370
     9
100
AcDbLine
 10
406.0000000000003
 20
449.7589879389519
 30
0.0
 11
405.9999999999999
 21
325.1589434213515
 31
0.0
  0
LINE
  5
441
330
43C
100
AcDbEntity
  8
14
  6
Continuous
 62
     7
370
     9
100
AcDbLine
 10
776.0000000000003
 20
449.7589879389519
 30
0.0
 11
775.9999999999999
 21
325.1589434213515
 31
0.0
  0
LINE
  5
442
330
43C
100
AcDbEntity
  8
14
  6
Continuous
 62
     7
370
     9
100
AcDbLine
 10
406.0000000000003
 20
443.7589879389519
 30
0.0
 11
417.5911099154691
 21
446.8648164801821
 31
0.0
  0
LINE
  5
443
330
43C
100
AcDbEntity
  8
14
  6
Continuous
 62
     7
370
     9
100
AcDbLine
 10
406.0000000000003
 20
443.7589879389519
 30
0.0
 11
417.5911099154691
 21
440.6531593977216
 31
0.0
  0
LINE
  5
444
330
43C
100
AcDbEntity
  8
14
  6
Continuous
 62
     7
370
     9
100
AcDbLine
 10
776.0000000000003
 20
443.7589879389519
 30
0.0
 11
764.4088900845315
 21
440.6531593977217
 31
0.0
  0
LINE
  5
445
330
43C
100
AcDbEntity
  8
14
  6
Continuous
 62
     7
370
     9
100
AcDbLine
 10
776.0000000000003
 20
443.7589879389519
 30
0.0
 11
764.4088900845315
 21
446.8648164801821
 31
0.0
  0
MTEXT
  5
446
330
43C
100
AcDbEntity
  8
14
  6
Continuous
 62
     7
370
     9
100
AcDbMText
 10
591.0000000000003
 20
452.7589879389519
 30
0.0
 40
18.0
 41
0.0
 71
     8
 72
     1
  1
185
 73
     1
 44
1.0
  0
ENDBLK
  5
43E
330
43C
100
AcDbEntity
  8
0
100
AcDbBlockEnd
  0
BLOCK
  5
449
330
448
100
AcDbEntity
  8
0
100
AcDbBlockBegin
  2
Dim10
 70
     0
 71
     0
 10
0.0
 20
0.0
 30
0.0
  3
Dim10
  1

  0
LINE
  5
44B
330
448
100
AcDbEntity
  8
14
  6
Continuous
 62
     7
370
     9
100
AcDbLine
 10
406.0000000000001
 20
401.7589879389519
 30
0.0
 11
466.0000000000001
 21
401.7589879389519
 31
0.0
  0
LINE
  5
44C
330
448
100
AcDbEntity
  8
14
  6
Continuous
 62
     7
370
     9
100
AcDbLine
 10
466.0000000000001
 20
407.7589879389519
 30
0.0
 11
465.9999999999999
 21
321.7589434213513
 31
0.0
  0
LINE
  5
44D
330
448
100
AcDbEntity
  8
14
  6
Continuous
 62
     7
370
     9
100
AcDbLine
 10
406.0000000000001
 20
401.7589879389519
 30
0.0
 11
417.5911099154689
 21
404.8648164801821
 31
0.0
  0
LINE
  5
44E
330
448
100
AcDbEntity
  8
14
  6
Continuous
 62
     7
370
     9
100
AcDbLine
 10
406.0000000000001
 20
401.7589879389519
 30
0.0
 11
417.5911099154689
 21
398.6531593977216
 31
0.0
  0
LINE
  5
44F
330
448
100
AcDbEntity
  8
14
  6
Continuous
 62
     7
370
     9
100
AcDbLine
 10
466.0000000000001
 20
401.7589879389519
 30
0.0
 11
454.4088900845313
 21
398.6531593977217
 31
0.0
  0
LINE
  5
450
330
448
100
AcDbEntity
  8
14
  6
Continuous
 62
     7
370
     9
100
AcDbLine
 10
466.0000000000001
 20
401.7589879389519
 30
0.0
 11
454.4088900845313
 21
404.8648164801821
 31
0.0
  0
MTEXT
  5
451
330
448
100
AcDbEntity
  8
14
  6
Continuous
 62
     7
370
     9
100
AcDbMText
 10
436.0000000000001
 20
410.7589879389519
 30
0.0
 40
18.0
 41
0.0
 71
     8
 72
     1
  1
30
 73
     1
 44
1.0
  0
ENDBLK
  5
44A
330
448
100
AcDbEntity
  8
0
100
AcDbBlockEnd
  0
BLOCK
  5
454
330
453
100
AcDbEntity
  8
0
100
AcDbBlockBegin
  2
Dim11
 70
     0
 71
     0
 10
0.0
 20
0.0
 30
0.0
  3
Dim11
  1

  0
LINE
  5
456
330
453
100
AcDbEntity
  8
14
  6
Continuous
 62
     7
370
     9
100
AcDbLine
 10
466.0000000000001
 20
401.7589879389519
 30
0.0
 11
716.0
 21
401.7589879389519
 31
0.0
  0
LINE
  5
457
330
453
100
AcDbEntity
  8
14
  6
Continuous
 62
     7
370
     9
100
AcDbLine
 10
716.0
 20
407.7589879389519
 30
0.0
 11
715.9999999999999
 21
321.7589434213513
 31
0.0
  0
LINE
  5
458
330
453
100
AcDbEntity
  8
14
  6
Continuous
 62
     7
370
     9
100
AcDbLine
 10
466.0000000000001
 20
401.7589879389519
 30
0.0
 11
477.5911099154689
 21
404.8648164801821
 31
0.0
  0
LINE
  5
459
330
453
100
AcDbEntity
  8
14
  6
Continuous
 62
     7
370
     9
100
AcDbLine
 10
466.0000000000001
 20
401.7589879389519
 30
0.0
 11
477.5911099154689
 21
398.6531593977216
 31
0.0
  0
LINE
  5
45A
330
453
100
AcDbEntity
  8
14
  6
Continuous
 62
     7
370
     9
100
AcDbLine
 10
716.0
 20
401.7589879389519
 30
0.0
 11
704.4088900845312
 21
398.6531593977217
 31
0.0
  0
LINE
  5
45B
330
453
100
AcDbEntity
  8
14
  6
Continuous
 62
     7
370
     9
100
AcDbLine
 10
716.0
 20
401.7589879389519
 30
0.0
 11
704.4088900845312
 21
404.8648164801821
 31
0.0
  0
MTEXT
  5
45C
330
453
100
AcDbEntity
  8
14
  6
Continuous
 62
     7
370
     9
100
AcDbMText
 10
591.0000000000001
 20
410.7589879389519
 30
0.0
 40
18.0
 41
0.0
 71
     8
 72
     1
  1
125
 73
     1
 44
1.0
  0
ENDBLK
  5
455
330
453
100
AcDbEntity
  8
0
100
AcDbBlockEnd
  0
BLOCK
  5
45F
330
45E
100
AcDbEntity
  8
0
100
AcDbBlockBegin
  2
Dim12
 70
     0
 71
     0
 10
0.0
 20
0.0
 30
0.0
  3
Dim12
  1

  0
LINE
  5
461
330
45E
100
AcDbEntity
  8
14
  6
Continuous
 62
     7
370
     9
100
AcDbLine
 10
716.0
 20
401.7589879389519
 30
0.0
 11
776.0
 21
401.7589879389519
 31
0.0
  0
LINE
  5
462
330
45E
100
AcDbEntity
  8
14
  6
Continuous
 62
     7
370
     9
100
AcDbLine
 10
716.0
 20
401.7589879389519
 30
0.0
 11
727.5911099154688
 21
404.8648164801821
 31
0.0
  0
LINE
  5
463
330
45E
100
AcDbEntity
  8
14
  6
Continuous
 62
     7
370
     9
100
AcDbLine
 10
716.0
 20
401.7589879389519
 30
0.0
 11
727.5911099154688
 21
398.6531593977216
 31
0.0
  0
LINE
  5
464
330
45E
100
AcDbEntity
  8
14
  6
Continuous
 62
     7
370
     9
100
AcDbLine
 10
776.0
 20
401.7589879389519
 30
0.0
 11
764.4088900845312
 21
398.6531593977217
 31
0.0
  0
LINE
  5
465
330
45E
100
AcDbEntity
  8
14
  6
Continuous
 62
     7
370
     9
100
AcDbLine
 10
776.0
 20
401.7589879389519
 30
0.0
 11
764.4088900845312
 21
404.8648164801821
 31
0.0
  0
MTEXT
  5
466
330
45E
100
AcDbEntity
  8
14
  6
Continuous
 62
     7
370
     9
100
AcDbMText
 10
746.0
 20
410.7589879389519
 30
0.0
 40
18.0
 41
0.0
 71
     8
 72
     1
  1
30
 73
     1
 44
1.0
  0
ENDBLK
  5
460
330
45E
100
AcDbEntity
  8
0
100
AcDbBlockEnd
  0
BLOCK
  5
469
330
468
100
AcDbEntity
  8
0
100
AcDbBlockBegin
  2
Dim13
 70
     0
 71
     0
 10
0.0
 20
0.0
 30
0.0
  3
Dim13
  1

  0
LINE
  5
46B
330
468
100
AcDbEntity
  8
14
  6
Continuous
 62
     7
370
     9
100
AcDbLine
 10
450.9999999891144
 20
200.1052272623301
 30
0.0
 11
730.9999999999987
 21
200.1052272623301
 31
0.0
  0
LINE
  5
46C
330
468
100
AcDbEntity
  8
14
  6
Continuous
 62
     7
370
     9
100
AcDbLine
 10
450.9999999891143
 20
194.1052272623301
 30
0.0
 11
450.9999999891153
 21
258.2589434213542
 31
0.0
  0
LINE
  5
46D
330
468
100
AcDbEntity
  8
14
  6
Continuous
 62
     7
370
     9
100
AcDbLine
 10
730.9999999999986
 20
194.1052272623301
 30
0.0
 11
730.9999999999997
 21
258.2589434213542
 31
0.0
  0
LINE
  5
46E
330
468
100
AcDbEntity
  8
14
  6
Continuous
 62
     7
370
     9
100
AcDbLine
 10
450.9999999891144
 20
200.1052272623301
 30
0.0
 11
462.5911099045832
 21
203.2110558035604
 31
0.0
  0
LINE
  5
46F
330
468
100
AcDbEntity
  8
14
  6
Continuous
 62
     7
370
     9
100
AcDbLine
 10
450.9999999891144
 20
200.1052272623301
 30
0.0
 11
462.5911099045832
 21
196.9993987210999
 31
0.0
  0
LINE
  5
470
330
468
100
AcDbEntity
  8
14
  6
Continuous
 62
     7
370
     9
100
AcDbLine
 10
730.9999999999987
 20
200.1052272623301
 30
0.0
 11
719.40889008453
 21
196.9993987210999
 31
0.0
  0
LINE
  5
471
330
468
100
AcDbEntity
  8
14
  6
Continuous
 62
     7
370
     9
100
AcDbLine
 10
730.9999999999987
 20
200.1052272623301
 30
0.0
 11
719.40889008453
 21
203.2110558035604
 31
0.0
  0
MTEXT
  5
472
330
468
100
AcDbEntity
  8
14
  6
Continuous
 62
     7
370
     9
100
AcDbMText
 10
590.9999999945566
 20
209.1052272623301
 30
0.0
 40
18.0
 41
0.0
 71
     8
 72
     1
  1
140
 73
     1
 44
1.0
  0
ENDBLK
  5
46A
330
468
100
AcDbEntity
  8
0
100
AcDbBlockEnd
  0
BLOCK
  5
475
330
474
100
AcDbEntity
  8
0
100
AcDbBlockBegin
  2
*G49
 70
     1
 71
     0
 10
0.0
 20
0.0
 30
0.0
  3
*G49
  1

  0
ARC
  5
477
330
474
100
AcDbEntity
  8
12
  6
Continuous
 62
   136
370
    18
100
AcDbCircle
 10
615.6000736165466
 20
309.7589879389515
 30
0.0
 40
2.0
100
AcDbArc
 50
89.99999999999991
 51
179.9999999999998
  0
ARC
  5
478
330
474
100
AcDbEntity
  8
12
  6
Continuous
 62
   136
370
    18
100
AcDbCircle
 10
616.5359719991993
 20
313.7589879389516
 30
0.0
 40
2.0
100
AcDbArc
 50
269.9999999999998
 51
329.9999999999947
  0
ARC
  5
479
330
474
100
AcDbEntity
  8
12
  6
Continuous
 62
   136
370
    18
100
AcDbCircle
 10
620.0000736143393
 20
311.7589879389518
 30
0.0
 40
2.0
100
AcDbArc
 50
89.99999999999991
 51
150.0000000000421
  0
LINE
  5
47A
330
474
100
AcDbEntity
  8
12
  6
Continuous
 62
   136
370
    18
100
AcDbLine
 10
615.6000736165466
 20
311.7589879389518
 30
0.0
 11
616.5359719991993
 21
311.7589879389518
 31
0.0
  0
ARC
  5
47B
330
474
100
AcDbEntity
  8
12
  6
Continuous
 62
   136
370
    18
100
AcDbCircle
 10
566.3999263834532
 20
309.7589879389515
 30
0.0
 40
2.0
100
AcDbArc
 50
0.0
 51
89.99999999999991
  0
ARC
  5
47C
330
474
100
AcDbEntity
  8
12
  6
Continuous
 62
   136
370
    18
100
AcDbCircle
 10
565.4640280007964
 20
313.7589879389516
 30
0.0
 40
2.0
100
AcDbArc
 50
210.0000000000176
 51
269.9999999999998
  0
ARC
  5
47D
330
474
100
AcDbEntity
  8
12
  6
Continuous
 62
   136
370
    18
100
AcDbCircle
 10
561.9999263856606
 20
311.7589879389518
 30
0.0
 40
2.0
100
AcDbArc
 50
30.00000000000512
 51
89.99999999999991
  0
LINE
  5
47E
330
474
100
AcDbEntity
  8
12
  6
Continuous
 62
   136
370
    18
100
AcDbLine
 10
566.3999263834532
 20
311.7589879389518
 30
0.0
 11
565.4640280007964
 21
311.7589879389518
 31
0.0
  0
ARC
  5
47F
330
474
100
AcDbEntity
  8
12
  6
Continuous
 62
   136
370
    18
100
AcDbCircle
 10
614.6000736165461
 20
306.9589879389523
 30
0.0
 40
1.0
100
AcDbArc
 50
179.9999999999998
 51
269.9999999999998
  0
LINE
  5
480
330
474
100
AcDbEntity
  8
12
  6
Continuous
 62
   136
370
    18
100
AcDbLine
 10
613.6000736165464
 20
309.7589879389515
 30
0.0
 11
613.6000736165464
 21
306.9589879389523
 31
0.0
  0
ARC
  5
481
330
474
100
AcDbEntity
  8
12
  6
Continuous
 62
   136
370
    18
100
AcDbCircle
 10
567.3999263834538
 20
306.9589879389523
 30
0.0
 40
1.0
100
AcDbArc
 50
269.9999999999998
 51
0.0
  0
LINE
  5
482
330
474
100
AcDbEntity
  8
12
  6
Continuous
 62
   136
370
    18
100
AcDbLine
 10
568.3999263834502
 20
309.7589879389515
 30
0.0
 11
568.3999263834502
 21
306.9589879389523
 31
0.0
  0
ARC
  5
483
330
474
100
AcDbEntity
  8
12
  6
Continuous
 62
   136
370
    18
100
AcDbCircle
 10
619.6000736165464
 20
303.9589879389523
 30
0.0
 40
2.0
100
AcDbArc
 50
0.0
 51
89.99999999999991
  0
LINE
  5
484
330
474
100
AcDbEntity
  8
12
  6
Continuous
 62
   136
370
    18
100
AcDbLine
 10
619.6000736165464
 20
305.9589879389522
 30
0.0
 11
614.6000736165461
 21
305.9589879389522
 31
0.0
  0
ARC
  5
485
330
474
100
AcDbEntity
  8
12
  6
Continuous
 62
   136
370
    18
100
AcDbCircle
 10
562.3999263878661
 20
303.9589879389523
 30
0.0
 40
2.0
100
AcDbArc
 50
89.99999999999991
 51
179.9999999999998
  0
LINE
  5
486
330
474
100
AcDbEntity
  8
12
  6
Continuous
 62
   136
370
    18
100
AcDbLine
 10
562.3999263834502
 20
305.9589879389522
 30
0.0
 11
567.3999263834538
 21
305.9589879389522
 31
0.0
  0
LINE
  5
487
330
474
100
AcDbEntity
  8
12
  6
Continuous
 62
   136
370
    18
100
AcDbLine
 10
621.6000736143378
 20
263.7589879389518
 30
0.0
 11
621.6000736165466
 21
303.9589879389523
 31
0.0
  0
LINE
  5
488
330
474
100
AcDbEntity
  8
12
  6
Continuous
 62
   136
370
    18
100
AcDbLine
 10
560.3999263856579
 20
263.7589879389518
 30
0.0
 11
560.3999263878667
 21
303.9589879389523
 31
0.0
  0
LINE
  5
489
330
474
100
AcDbEntity
  8
12
  6
Continuous
 62
   136
370
    18
100
AcDbLine
 10
560.3999263856579
 20
263.7589879389518
 30
0.0
 11
621.6000736143378
 21
263.7589879389518
 31
0.0
  0
ENDBLK
  5
476
330
474
100
AcDbEntity
  8
0
100
AcDbBlockEnd
  0
BLOCK
  5
48C
330
48B
100
AcDbEntity
  8
0
100
AcDbBlockBegin
  2
*G50
 70
     1
 71
     0
 10
0.0
 20
0.0
 30
0.0
  3
*G50
  1

  0
ARC
  5
48E
330
48B
100
AcDbEntity
  8
12
  6
Continuous
 62
   136
370
    18
100
AcDbCircle
 10
513.600073613599
 20
309.7589879389515
 30
0.0
 40
2.0
100
AcDbArc
 50
89.99999999999991
 51
179.9999999999998
  0
ARC
  5
48F
330
48B
100
AcDbEntity
  8
12
  6
Continuous
 62
   136
370
    18
100
AcDbCircle
 10
514.5359719962559
 20
313.7589879389516
 30
0.0
 40
2.0
100
AcDbArc
 50
269.9999999999998
 51
329.9999999999962
  0
ARC
  5
490
330
48B
100
AcDbEntity
  8
12
  6
Continuous
 62
   136
370
    18
100
AcDbCircle
 10
518.0000736113926
 20
311.7589879389518
 30
0.0
 40
2.0
100
AcDbArc
 50
89.99999999999991
 51
149.9999999999949
  0
LINE
  5
491
330
48B
100
AcDbEntity
  8
12
  6
Continuous
 62
   136
370
    18
100
AcDbLine
 10
513.600073613599
 20
311.7589879389518
 30
0.0
 11
514.5359719962559
 21
311.7589879389518
 31
0.0
  0
ARC
  5
492
330
48B
100
AcDbEntity
  8
12
  6
Continuous
 62
   136
370
    18
100
AcDbCircle
 10
532.4000736091858
 20
309.7589879389515
 30
0.0
 40
2.0
100
AcDbArc
 50
0.0
 51
89.99999999999991
  0
ARC
  5
493
330
48B
100
AcDbEntity
  8
12
  6
Continuous
 62
   136
370
    18
100
AcDbCircle
 10
531.4641752265321
 20
313.7589879389516
 30
0.0
 40
2.0
100
AcDbArc
 50
209.9999999999704
 51
269.9999999999998
  0
ARC
  5
494
330
48B
100
AcDbEntity
  8
12
  6
Continuous
 62
   136
370
    18
100
AcDbCircle
 10
528.0000736113922
 20
311.7589879389518
 30
0.0
 40
2.0
100
AcDbArc
 50
29.99999999999208
 51
89.99999999999991
  0
LINE
  5
495
330
48B
100
AcDbEntity
  8
12
  6
Continuous
 62
   136
370
    18
100
AcDbLine
 10
532.4000736091858
 20
311.7589879389518
 30
0.0
 11
531.4641752265321
 21
311.7589879389518
 31
0.0
  0
ARC
  5
496
330
48B
100
AcDbEntity
  8
12
  6
Continuous
 62
   136
370
    18
100
AcDbCircle
 10
512.6000736135994
 20
306.9589879389523
 30
0.0
 40
1.0
100
AcDbArc
 50
179.9999999999998
 51
269.9999999999998
  0
LINE
  5
497
330
48B
100
AcDbEntity
  8
12
  6
Continuous
 62
   136
370
    18
100
AcDbLine
 10
511.6000736135996
 20
309.7589879389515
 30
0.0
 11
511.6000736135996
 21
306.9589879389523
 31
0.0
  0
ARC
  5
498
330
48B
100
AcDbEntity
  8
12
  6
Continuous
 62
   136
370
    18
100
AcDbCircle
 10
533.4000736091854
 20
306.9589879389523
 30
0.0
 40
1.0
100
AcDbArc
 50
269.9999999999998
 51
0.0
  0
LINE
  5
499
330
48B
100
AcDbEntity
  8
12
  6
Continuous
 62
   136
370
    18
100
AcDbLine
 10
534.400073609186
 20
309.7589879389515
 30
0.0
 11
534.400073609186
 21
306.9589879389523
 31
0.0
  0
ARC
  5
49A
330
48B
100
AcDbEntity
  8
12
  6
Continuous
 62
   136
370
    18
100
AcDbCircle
 10
517.6000736135996
 20
303.9589879389523
 30
0.0
 40
2.0
100
AcDbArc
 50
0.0
 51
89.99999999999991
  0
LINE
  5
49B
330
48B
100
AcDbEntity
  8
12
  6
Continuous
 62
   136
370
    18
100
AcDbLine
 10
517.6000736135996
 20
305.9589879389522
 30
0.0
 11
512.6000736135994
 21
305.9589879389522
 31
0.0
  0
ARC
  5
49C
330
48B
100
AcDbEntity
  8
12
  6
Continuous
 62
   136
370
    18
100
AcDbCircle
 10
528.4000736135987
 20
303.9589879389523
 30
0.0
 40
2.0
100
AcDbArc
 50
89.99999999999991
 51
179.9999999999998
  0
LINE
  5
49D
330
48B
100
AcDbEntity
  8
12
  6
Continuous
 62
   136
370
    18
100
AcDbLine
 10
528.400073609186
 20
305.9589879389522
 30
0.0
 11
533.4000736091854
 21
305.9589879389522
 31
0.0
  0
LINE
  5
49E
330
48B
100
AcDbEntity
  8
12
  6
Continuous
 62
   136
370
    18
100
AcDbLine
 10
528.0000736113922
 20
313.7589879389516
 30
0.0
 11
518.0000736113926
 21
313.7589879389516
 31
0.0
  0
LINE
  5
49F
330
48B
100
AcDbEntity
  8
12
  6
Continuous
 62
   136
370
    18
100
AcDbLine
 10
519.6000736113944
 20
263.7589879389518
 30
0.0
 11
519.600073613599
 21
303.9589879389523
 31
0.0
  0
LINE
  5
4A0
330
48B
100
AcDbEntity
  8
12
  6
Continuous
 62
   136
370
    18
100
AcDbLine
 10
526.4000736113936
 20
263.7589879389518
 30
0.0
 11
526.4000736135982
 21
303.9589879389523
 31
0.0
  0
LINE
  5
4A1
330
48B
100
AcDbEntity
  8
12
  6
Continuous
 62
   136
370
    18
100
AcDbLine
 10
526.4000736113936
 20
263.7589879389518
 30
0.0
 11
519.6000736113944
 21
263.7589879389518
 31
0.0
  0
ENDBLK
  5
48D
330
48B
100
AcDbEntity
  8
0
100
AcDbBlockEnd
  0
BLOCK
  5
4A4
330
4A3
100
AcDbEntity
  8
0
100
AcDbBlockBegin
  2
*G51
 70
     1
 71
     0
 10
0.0
 20
0.0
 30
0.0
  3
*G51
  1

  0
ARC
  5
4A6
330
4A3
100
AcDbEntity
  8
12
  6
Continuous
 62
   136
370
    18
100
AcDbCircle
 10
532.3999263819542
 20
309.7589879389515
 30
0.0
 40
2.0
100
AcDbArc
 50
0.0
 51
89.99999999999991
  0
ARC
  5
4A7
330
4A3
100
AcDbEntity
  8
12
  6
Continuous
 62
   136
370
    18
100
AcDbCircle
 10
531.4640279992973
 20
313.7589879389516
 30
0.0
 40
2.0
100
AcDbArc
 50
210.0000000000176
 51
269.9999999999998
  0
ARC
  5
4A8
330
4A3
100
AcDbEntity
  8
12
  6
Continuous
 62
   136
370
    18
100
AcDbCircle
 10
527.9999263841615
 20
311.7589879389518
 30
0.0
 40
2.0
100
AcDbArc
 50
30.00000000000512
 51
89.99999999999991
  0
LINE
  5
4A9
330
4A3
100
AcDbEntity
  8
12
  6
Continuous
 62
   136
370
    18
100
AcDbLine
 10
532.3999263819542
 20
311.7589879389518
 30
0.0
 11
531.4640279992973
 21
311.7589879389518
 31
0.0
  0
ARC
  5
4AA
330
4A3
100
AcDbEntity
  8
12
  6
Continuous
 62
   136
370
    18
100
AcDbCircle
 10
533.3999263819547
 20
306.9589879389523
 30
0.0
 40
1.0
100
AcDbArc
 50
269.9999999999998
 51
0.0
  0
LINE
  5
4AB
330
4A3
100
AcDbEntity
  8
12
  6
Continuous
 62
   136
370
    18
100
AcDbLine
 10
534.3999263819511
 20
309.7589879389515
 30
0.0
 11
534.3999263819511
 21
306.9589879389523
 31
0.0
  0
ARC
  5
4AC
330
4A3
100
AcDbEntity
  8
12
  6
Continuous
 62
   136
370
    18
100
AcDbCircle
 10
528.399926386367
 20
303.9589879389523
 30
0.0
 40
2.0
100
AcDbArc
 50
89.99999999999991
 51
179.9999999999998
  0
LINE
  5
4AD
330
4A3
100
AcDbEntity
  8
12
  6
Continuous
 62
   136
370
    18
100
AcDbLine
 10
528.3999263819511
 20
305.9589879389522
 30
0.0
 11
533.3999263819547
 21
305.9589879389522
 31
0.0
  0
LINE
  5
4AE
330
4A3
100
AcDbEntity
  8
12
  6
Continuous
 62
   136
370
    18
100
AcDbLine
 10
526.3999263841588
 20
263.7589879389518
 30
0.0
 11
526.3999263863676
 21
303.9589879389523
 31
0.0
  0
ENDBLK
  5
4A5
330
4A3
100
AcDbEntity
  8
0
100
AcDbBlockEnd
  0
BLOCK
  5
4B1
330
4B0
100
AcDbEntity
  8
0
100
AcDbBlockBegin
  2
*G52
 70
     1
 71
     0
 10
0.0
 20
0.0
 30
0.0
  3
*G52
  1

  0
ARC
  5
4B3
330
4B0
100
AcDbEntity
  8
12
  6
Continuous
 62
   136
370
    18
100
AcDbCircle
 10
668.3997791542981
 20
309.7589434214606
 30
0.0
 40
2.0
100
AcDbArc
 50
0.0
 51
89.99999999999991
  0
ARC
  5
4B4
330
4B0
100
AcDbEntity
  8
12
  6
Continuous
 62
   136
370
    18
100
AcDbCircle
 10
667.4638807716454
 20
313.7589434214607
 30
0.0
 40
2.0
100
AcDbArc
 50
210.0000000000046
 51
269.9999999999998
  0
ARC
  5
4B5
330
4B0
100
AcDbEntity
  8
12
  6
Continuous
 62
   136
370
    18
100
AcDbCircle
 10
663.9997791565055
 20
311.758943421461
 30
0.0
 40
2.0
100
AcDbArc
 50
29.99999999995789
 51
89.99999999999991
  0
LINE
  5
4B6
330
4B0
100
AcDbEntity
  8
12
  6
Continuous
 62
   136
370
    18
100
AcDbLine
 10
668.3997791542981
 20
311.758943421461
 30
0.0
 11
667.4638807716454
 21
311.758943421461
 31
0.0
  0
ARC
  5
4B7
330
4B0
100
AcDbEntity
  8
12
  6
Continuous
 62
   136
370
    18
100
AcDbCircle
 10
649.5997791587123
 20
309.7589434214606
 30
0.0
 40
2.0
100
AcDbArc
 50
89.99999999999991
 51
179.9999999999998
  0
ARC
  5
4B8
330
4B0
100
AcDbEntity
  8
12
  6
Continuous
 62
   136
370
    18
100
AcDbCircle
 10
650.5356775413692
 20
313.7589434214607
 30
0.0
 40
2.0
100
AcDbArc
 50
269.9999999999998
 51
329.9999999999832
  0
ARC
  5
4B9
330
4B0
100
AcDbEntity
  8
12
  6
Continuous
 62
   136
370
    18
100
AcDbCircle
 10
653.9997791565091
 20
311.758943421461
 30
0.0
 40
2.0
100
AcDbArc
 50
90.00000000012051
 51
150.0000000000535
  0
LINE
  5
4BA
330
4B0
100
AcDbEntity
  8
12
  6
Continuous
 62
   136
370
    18
100
AcDbLine
 10
649.5997791587123
 20
311.758943421461
 30
0.0
 11
650.5356775413692
 21
311.758943421461
 31
0.0
  0
ARC
  5
4BB
330
4B0
100
AcDbEntity
  8
12
  6
Continuous
 62
   136
370
    18
100
AcDbCircle
 10
669.3997791542987
 20
306.9589434214615
 30
0.0
 40
1.0
100
AcDbArc
 50
269.9999999999998
 51
0.0
  0
LINE
  5
4BC
330
4B0
100
AcDbEntity
  8
12
  6
Continuous
 62
   136
370
    18
100
AcDbLine
 10
670.3997791542985
 20
309.7589434214606
 30
0.0
 11
670.3997791542985
 21
306.9589434214615
 31
0.0
  0
ARC
  5
4BD
330
4B0
100
AcDbEntity
  8
12
  6
Continuous
 62
   136
370
    18
100
AcDbCircle
 10
648.5997791587159
 20
306.9589434214615
 30
0.0
 40
1.0
100
AcDbArc
 50
179.9999999999998
 51
269.9999999999998
  0
LINE
  5
4BE
330
4B0
100
AcDbEntity
  8
12
  6
Continuous
 62
   136
370
    18
100
AcDbLine
 10
647.5997791587154
 20
309.7589434214606
 30
0.0
 11
647.5997791587154
 21
306.9589434214615
 31
0.0
  0
ARC
  5
4BF
330
4B0
100
AcDbEntity
  8
12
  6
Continuous
 62
   136
370
    18
100
AcDbCircle
 10
664.3997791542985
 20
303.9589434214615
 30
0.0
 40
2.0
100
AcDbArc
 50
89.99999999999991
 51
179.9999999999998
  0
LINE
  5
4C0
330
4B0
100
AcDbEntity
  8
12
  6
Continuous
 62
   136
370
    18
100
AcDbLine
 10
664.3997791542985
 20
305.9589434214614
 30
0.0
 11
669.3997791542987
 21
305.9589434214614
 31
0.0
  0
ARC
  5
4C1
330
4B0
100
AcDbEntity
  8
12
  6
Continuous
 62
   136
370
    18
100
AcDbCircle
 10
653.5997791542994
 20
303.9589434214615
 30
0.0
 40
2.0
100
AcDbArc
 50
0.0
 51
89.99999999999991
  0
LINE
  5
4C2
330
4B0
100
AcDbEntity
  8
12
  6
Continuous
 62
   136
370
    18
100
AcDbLine
 10
653.5997791587154
 20
305.9589434214614
 30
0.0
 11
648.5997791587159
 21
305.9589434214614
 31
0.0
  0
LINE
  5
4C3
330
4B0
100
AcDbEntity
  8
12
  6
Continuous
 62
   136
370
    18
100
AcDbLine
 10
653.9997791565091
 20
313.7589434214607
 30
0.0
 11
663.9997791565055
 21
313.7589434214607
 31
0.0
  0
LINE
  5
4C4
330
4B0
100
AcDbEntity
  8
12
  6
Continuous
 62
   136
370
    18
100
AcDbLine
 10
662.399779156507
 20
263.758943421461
 30
0.0
 11
662.3997791542981
 21
303.9589434214615
 31
0.0
  0
LINE
  5
4C5
330
4B0
100
AcDbEntity
  8
12
  6
Continuous
 62
   136
370
    18
100
AcDbLine
 10
655.5997791565077
 20
263.758943421461
 30
0.0
 11
655.5997791542989
 21
303.9589434214615
 31
0.0
  0
LINE
  5
4C6
330
4B0
100
AcDbEntity
  8
12
  6
Continuous
 62
   136
370
    18
100
AcDbLine
 10
655.5997791565077
 20
263.758943421461
 30
0.0
 11
662.399779156507
 21
263.758943421461
 31
0.0
  0
ENDBLK
  5
4B2
330
4B0
100
AcDbEntity
  8
0
100
AcDbBlockEnd
  0
BLOCK
  5
4C9
330
4C8
100
AcDbEntity
  8
0
100
AcDbBlockBegin
  2
*G53
 70
     1
 71
     0
 10
0.0
 20
0.0
 30
0.0
  3
*G53
  1

  0
ARC
  5
4CB
330
4C8
100
AcDbEntity
  8
12
  6
Continuous
 62
   136
370
    18
100
AcDbCircle
 10
649.5999263859472
 20
309.7589434214606
 30
0.0
 40
2.0
100
AcDbArc
 50
89.99999999999991
 51
179.9999999999998
  0
ARC
  5
4CC
330
4C8
100
AcDbEntity
  8
12
  6
Continuous
 62
   136
370
    18
100
AcDbCircle
 10
650.5358247685999
 20
313.7589434214607
 30
0.0
 40
2.0
100
AcDbArc
 50
269.9999999999998
 51
329.9999999999947
  0
ARC
  5
4CD
330
4C8
100
AcDbEntity
  8
12
  6
Continuous
 62
   136
370
    18
100
AcDbCircle
 10
653.9999263837399
 20
311.758943421461
 30
0.0
 40
2.0
100
AcDbArc
 50
89.99999999999991
 51
150.0000000000421
  0
LINE
  5
4CE
330
4C8
100
AcDbEntity
  8
12
  6
Continuous
 62
   136
370
    18
100
AcDbLine
 10
649.5999263859472
 20
311.758943421461
 30
0.0
 11
650.5358247685999
 21
311.758943421461
 31
0.0
  0
ARC
  5
4CF
330
4C8
100
AcDbEntity
  8
12
  6
Continuous
 62
   136
370
    18
100
AcDbCircle
 10
648.5999263859467
 20
306.9589434214615
 30
0.0
 40
1.0
100
AcDbArc
 50
179.9999999999998
 51
269.9999999999998
  0
LINE
  5
4D0
330
4C8
100
AcDbEntity
  8
12
  6
Continuous
 62
   136
370
    18
100
AcDbLine
 10
647.599926385947
 20
309.7589434214606
 30
0.0
 11
647.599926385947
 21
306.9589434214615
 31
0.0
  0
ARC
  5
4D1
330
4C8
100
AcDbEntity
  8
12
  6
Continuous
 62
   136
370
    18
100
AcDbCircle
 10
653.599926385947
 20
303.9589434214615
 30
0.0
 40
2.0
100
AcDbArc
 50
0.0
 51
89.99999999999991
  0
LINE
  5
4D2
330
4C8
100
AcDbEntity
  8
12
  6
Continuous
 62
   136
370
    18
100
AcDbLine
 10
653.599926385947
 20
305.9589434214614
 30
0.0
 11
648.5999263859467
 21
305.9589434214614
 31
0.0
  0
LINE
  5
4D3
330
4C8
100
AcDbEntity
  8
12
  6
Continuous
 62
   136
370
    18
100
AcDbLine
 10
655.5999263837384
 20
263.758943421461
 30
0.0
 11
655.5999263859472
 21
303.9589434214615
 31
0.0
  0
ENDBLK
  5
4CA
330
4C8
100
AcDbEntity
  8
0
100
AcDbBlockEnd
  0
BLOCK
  5
4DA
330
4D9
100
AcDbEntity
  8
0
100
AcDbBlockBegin
  2
Dim14
 70
     0
 71
     0
 10
0.0
 20
0.0
 30
0.0
  3
Dim14
  1

  0
LINE
  5
4DC
330
4D9
100
AcDbEntity
  8
14
  6
Continuous
 62
     7
370
     9
100
AcDbLine
 10
419.9508115307347
 20
359.7589879389519
 30
0.0
 11
511.6000736135997
 21
359.7589879389519
 31
0.0
  0
LINE
  5
4DD
330
4D9
100
AcDbEntity
  8
14
  6
Continuous
 62
     7
370
     9
100
AcDbLine
 10
500.8000736092362
 20
365.7589879389519
 30
0.0
 11
500.8000736092362
 21
325.7589879389516
 31
0.0
  0
LINE
  5
4DE
330
4D9
100
AcDbEntity
  8
14
  6
Continuous
 62
     7
370
     9
100
AcDbLine
 10
511.6000736135997
 20
365.7589879389519
 30
0.0
 11
511.6000736135996
 21
325.7589879389516
 31
0.0
  0
LINE
  5
4DF
330
4D9
100
AcDbEntity
  8
14
  6
Continuous
 62
     7
370
     9
100
AcDbLine
 10
500.8000736092362
 20
359.7589879389519
 30
0.0
 11
489.2089636937674
 21
356.6531593977217
 31
0.0
  0
LINE
  5
4E0
330
4D9
100
AcDbEntity
  8
14
  6
Continuous
 62
     7
370
     9
100
AcDbLine
 10
500.8000736092362
 20
359.7589879389519
 30
0.0
 11
489.2089636937674
 21
362.8648164801821
 31
0.0
  0
LINE
  5
4E1
330
4D9
100
AcDbEntity
  8
14
  6
Continuous
 62
     7
370
     9
100
AcDbLine
 10
511.6000736135997
 20
359.7589879389519
 30
0.0
 11
523.1911835290686
 21
362.8648164801821
 31
0.0
  0
LINE
  5
4E2
330
4D9
100
AcDbEntity
  8
14
  6
Continuous
 62
     7
370
     9
100
AcDbLine
 10
511.6000736135997
 20
359.7589879389519
 30
0.0
 11
523.1911835290686
 21
356.6531593977216
 31
0.0
  0
MTEXT
  5
4E3
330
4D9
100
AcDbEntity
  8
14
  6
Continuous
 62
     7
370
     9
100
AcDbMText
 10
460.4508115307347
 20
350.7589879389519
 30
0.0
 40
18.0
 41
0.0
 71
     8
 72
     1
  1
（6以下）
 73
     1
 44
1.0
  0
ENDBLK
  5
4DB
330
4D9
100
AcDbEntity
  8
0
100
AcDbBlockEnd
  0
BLOCK
  5
4E6
330
4E5
100
AcDbEntity
  8
0
100
AcDbBlockBegin
  2
Dim15
 70
     0
 71
     0
 10
0.0
 20
0.0
 30
0.0
  3
Dim15
  1

  0
LINE
  5
4E8
330
4E5
100
AcDbEntity
  8
14
  6
Continuous
 62
     7
370
     9
100
AcDbLine
 10
511.6000736135997
 20
359.7589879389519
 30
0.0
 11
534.3999263819512
 21
359.7589879389519
 31
0.0
  0
LINE
  5
4E9
330
4E5
100
AcDbEntity
  8
14
  6
Continuous
 62
     7
370
     9
100
AcDbLine
 10
534.3999263819512
 20
365.7589879389519
 30
0.0
 11
534.3999263819511
 21
325.7589879389516
 31
0.0
  0
LINE
  5
4EA
330
4E5
100
AcDbEntity
  8
14
  6
Continuous
 62
     7
370
     9
100
AcDbLine
 10
511.6000736135997
 20
359.7589879389519
 30
0.0
 11
523.1911835290686
 21
362.8648164801821
 31
0.0
  0
LINE
  5
4EB
330
4E5
100
AcDbEntity
  8
14
  6
Continuous
 62
     7
370
     9
100
AcDbLine
 10
511.6000736135997
 20
359.7589879389519
 30
0.0
 11
523.1911835290686
 21
356.6531593977216
 31
0.0
  0
LINE
  5
4EC
330
4E5
100
AcDbEntity
  8
14
  6
Continuous
 62
     7
370
     9
100
AcDbLine
 10
534.3999263819512
 20
359.7589879389519
 30
0.0
 11
522.8088164664824
 21
356.6531593977217
 31
0.0
  0
LINE
  5
4ED
330
4E5
100
AcDbEntity
  8
14
  6
Continuous
 62
     7
370
     9
100
AcDbLine
 10
534.3999263819512
 20
359.7589879389519
 30
0.0
 11
522.8088164664824
 21
362.8648164801821
 31
0.0
  0
MTEXT
  5
4EE
330
4E5
100
AcDbEntity
  8
14
  6
Continuous
 62
     7
370
     9
100
AcDbMText
 10
522.9999999977754
 20
368.7589879389519
 30
0.0
 40
18.0
 41
0.0
 71
     8
 72
     1
  1
11.4
 73
     1
 44
1.0
  0
ENDBLK
  5
4E7
330
4E5
100
AcDbEntity
  8
0
100
AcDbBlockEnd
  0
BLOCK
  5
4F1
330
4F0
100
AcDbEntity
  8
0
100
AcDbBlockBegin
  2
Dim16
 70
     0
 71
     0
 10
0.0
 20
0.0
 30
0.0
  3
Dim16
  1

  0
LINE
  5
4F3
330
4F0
100
AcDbEntity
  8
14
  6
Continuous
 62
     7
370
     9
100
AcDbLine
 10
554.6357498704626
 20
359.7589879389519
 30
0.0
 11
658.9999263876025
 21
359.7589879389519
 31
0.0
  0
LINE
  5
4F4
330
4F0
100
AcDbEntity
  8
14
  6
Continuous
 62
     7
370
     9
100
AcDbLine
 10
624.9999263863265
 20
365.7589879389519
 30
0.0
 11
624.9999263863264
 21
325.7589879389516
 31
0.0
  0
LINE
  5
4F5
330
4F0
100
AcDbEntity
  8
14
  6
Continuous
 62
     7
370
     9
100
AcDbLine
 10
658.9999263876025
 20
365.7589879389519
 30
0.0
 11
658.9999263876024
 21
325.7589879389516
 31
0.0
  0
LINE
  5
4F6
330
4F0
100
AcDbEntity
  8
14
  6
Continuous
 62
     7
370
     9
100
AcDbLine
 10
624.9999263863265
 20
359.7589879389519
 30
0.0
 11
636.5910363017953
 21
362.8648164801821
 31
0.0
  0
LINE
  5
4F7
330
4F0
100
AcDbEntity
  8
14
  6
Continuous
 62
     7
370
     9
100
AcDbLine
 10
624.9999263863265
 20
359.7589879389519
 30
0.0
 11
636.5910363017953
 21
356.6531593977216
 31
0.0
  0
LINE
  5
4F8
330
4F0
100
AcDbEntity
  8
14
  6
Continuous
 62
     7
370
     9
100
AcDbLine
 10
658.9999263876025
 20
359.7589879389519
 30
0.0
 11
647.4088164721337
 21
356.6531593977217
 31
0.0
  0
LINE
  5
4F9
330
4F0
100
AcDbEntity
  8
14
  6
Continuous
 62
     7
370
     9
100
AcDbLine
 10
658.9999263876025
 20
359.7589879389519
 30
0.0
 11
647.4088164721337
 21
362.8648164801821
 31
0.0
  0
MTEXT
  5
4FA
330
4F0
100
AcDbEntity
  8
14
  6
Continuous
 62
     7
370
     9
100
AcDbMText
 10
608.6357498704625
 20
350.7589879389519
 30
0.0
 40
18.0
 41
0.0
 71
     8
 72
     1
  1
（17.4以下）
 73
     1
 44
1.0
  0
ENDBLK
  5
4F2
330
4F0
100
AcDbEntity
  8
0
100
AcDbBlockEnd
  0
BLOCK
  5
4FD
330
4FC
100
AcDbEntity
  8
0
100
AcDbBlockBegin
  2
Dim17
 70
     0
 71
     0
 10
0.0
 20
0.0
 30
0.0
  3
Dim17
  1

  0
LINE
  5
4FF
330
4FC
100
AcDbEntity
  8
14
  6
Continuous
 62
     7
370
     9
100
AcDbLine
 10
658.9999263876025
 20
359.7589879389519
 30
0.0
 11
750.8118966570214
 21
359.7589879389519
 31
0.0
  0
LINE
  5
500
330
4FC
100
AcDbEntity
  8
14
  6
Continuous
 62
     7
370
     9
100
AcDbLine
 10
692.999926388326
 20
365.7589879389519
 30
0.0
 11
692.9999263883259
 21
325.7589879389516
 31
0.0
  0
LINE
  5
501
330
4FC
100
AcDbEntity
  8
14
  6
Continuous
 62
     7
370
     9
100
AcDbLine
 10
658.9999263876025
 20
359.7589879389519
 30
0.0
 11
670.5910363030713
 21
362.8648164801821
 31
0.0
  0
LINE
  5
502
330
4FC
100
AcDbEntity
  8
14
  6
Continuous
 62
     7
370
     9
100
AcDbLine
 10
658.9999263876025
 20
359.7589879389519
 30
0.0
 11
670.5910363030713
 21
356.6531593977216
 31
0.0
  0
LINE
  5
503
330
4FC
100
AcDbEntity
  8
14
  6
Continuous
 62
     7
370
     9
100
AcDbLine
 10
692.999926388326
 20
359.7589879389519
 30
0.0
 11
681.4088164728572
 21
356.6531593977217
 31
0.0
  0
LINE
  5
504
330
4FC
100
AcDbEntity
  8
14
  6
Continuous
 62
     7
370
     9
100
AcDbLine
 10
692.999926388326
 20
359.7589879389519
 30
0.0
 11
681.4088164728572
 21
362.8648164801821
 31
0.0
  0
MTEXT
  5
505
330
4FC
100
AcDbEntity
  8
14
  6
Continuous
 62
     7
370
     9
100
AcDbMText
 10
696.8118966570213
 20
368.7589879389519
 30
0.0
 40
18.0
 41
0.0
 71
     8
 72
     1
  1
（17.4以下）
 73
     1
 44
1.0
  0
ENDBLK
  5
4FE
330
4FC
100
AcDbEntity
  8
0
100
AcDbBlockEnd
  0
BLOCK
  5
510
330
50F
100
AcDbEntity
  8
0
100
AcDbBlockBegin
  2
*G58
 70
     1
 71
     0
 10
0.0
 20
0.0
 30
0.0
  3
*G58
  1

  0
INSERT
  5
51E
330
50F
100
AcDbEntity
  8
0
100
AcDbBlockReference
  2
*G59
 10
0.0
 20
0.0
 30
0.0
  0
ENDBLK
  5
511
330
50F
100
AcDbEntity
  8
0
100
AcDbBlockEnd
  0
BLOCK
  5
513
330
512
100
AcDbEntity
  8
0
100
AcDbBlockBegin
  2
*G59
 70
     1
 71
     0
 10
0.0
 20
0.0
 30
0.0
  3
*G59
  1

  0
LINE
  5
515
330
512
100
AcDbEntity
  8
11
  6
Continuous
 62
    16
370
     9
100
AcDbLine
 10
737.3475468931994
 20
199.2737923262998
 30
0.0
 11
800.9999472498894
 21
262.9261926829898
 31
0.0
  0
LINE
  5
516
330
512
100
AcDbEntity
  8
11
  6
Continuous
 62
    16
370
     9
100
AcDbLine
 10
737.6376441501125
 20
208.0491709574518
 30
0.0
 11
800.9999472498894
 21
271.4114740572286
 31
0.0
  0
LINE
  5
517
330
512
100
AcDbEntity
  8
11
  6
Continuous
 62
    16
370
     9
100
AcDbLine
 10
737.9277414070256
 20
216.8245495886034
 30
0.0
 11
800.9999472498894
 21
279.8967554314672
 31
0.0
  0
LINE
  5
518
330
512
100
AcDbEntity
  8
11
  6
Continuous
 62
    16
370
     9
100
AcDbLine
 10
388.4104357186999
 20
181.1447585123344
 30
0.0
 11
443.4328030489667
 21
236.1671258426013
 31
0.0
  0
LINE
  5
519
330
512
100
AcDbEntity
  8
11
  6
Continuous
 62
    16
370
     9
100
AcDbLine
 10
396.8957170929385
 20
181.1447585123344
 30
0.0
 11
443.7043310435223
 21
227.9533724629182
 31
0.0
  0
LINE
  5
51A
330
512
100
AcDbEntity
  8
11
  6
Continuous
 62
    16
370
     9
100
AcDbLine
 10
405.3809984671772
 20
181.1447585123344
 30
0.0
 11
443.9758590380778
 21
219.7396190832351
 31
0.0
  0
LINE
  5
51B
330
512
100
AcDbEntity
  8
11
  6
Continuous
 62
    16
370
     9
100
AcDbLine
 10
381.1796710539829
 20
301.1932144611961
 30
0.0
 11
389.7454000141389
 21
309.7589434213519
 31
0.0
  0
LINE
  5
51C
330
512
100
AcDbEntity
  8
11
  6
Continuous
 62
    16
370
     9
100
AcDbLine
 10
380.999964237213
 20
292.5282262701876
 30
0.0
 11
398.2306813883775
 21
309.7589434213519
 31
0.0
  0
LINE
  5
51D
330
512
100
AcDbEntity
  8
11
  6
Continuous
 62
    16
370
     9
100
AcDbLine
 10
381.1262402160497
 20
284.1692208747855
 30
0.0
 11
406.7159627626162
 21
309.7589434213519
 31
0.0
  0
ENDBLK
  5
514
330
512
100
AcDbEntity
  8
0
100
AcDbBlockEnd
  0
BLOCK
  5
528
330
527
100
AcDbEntity
  8
0
100
AcDbBlockBegin
  2
Dim18
 70
     0
 71
     0
 10
0.0
 20
0.0
 30
0.0
  3
Dim18
  1

  0
LINE
  5
52A
330
527
100
AcDbEntity
  8
6
  6
Continuous
 62
     7
370
     9
100
AcDbLine
 10
392.0235484936843
 20
1073.274915966759
 30
0.0
 11
1391.023548493684
 21
1073.274915966759
 31
0.0
  0
LINE
  5
52B
330
527
100
AcDbEntity
  8
6
  6
Continuous
 62
     7
370
     9
100
AcDbLine
 10
392.0235484936843
 20
1079.274915966759
 30
0.0
 11
392.0235484936839
 21
973.2749159667592
 31
0.0
  0
LINE
  5
52C
330
527
100
AcDbEntity
  8
6
  6
Continuous
 62
     7
370
     9
100
AcDbLine
 10
1391.023548493684
 20
1079.274915966759
 30
0.0
 11
1391.023548493684
 21
973.2749159667592
 31
0.0
  0
LINE
  5
52D
330
527
100
AcDbEntity
  8
6
  6
Continuous
 62
     7
370
     9
100
AcDbLine
 10
392.0235484936843
 20
1073.274915966759
 30
0.0
 11
403.6146584091531
 21
1076.380744507989
 31
0.0
  0
LINE
  5
52E
330
527
100
AcDbEntity
  8
6
  6
Continuous
 62
     7
370
     9
100
AcDbLine
 10
392.0235484936843
 20
1073.274915966759
 30
0.0
 11
403.6146584091531
 21
1070.169087425529
 31
0.0
  0
LINE
  5
52F
330
527
100
AcDbEntity
  8
6
  6
Continuous
 62
     7
370
     9
100
AcDbLine
 10
1391.023548493684
 20
1073.274915966759
 30
0.0
 11
1379.432438578215
 21
1070.169087425529
 31
0.0
  0
LINE
  5
530
330
527
100
AcDbEntity
  8
6
  6
Continuous
 62
     7
370
     9
100
AcDbLine
 10
1391.023548493684
 20
1073.274915966759
 30
0.0
 11
1379.432438578215
 21
1076.380744507989
 31
0.0
  0
MTEXT
  5
531
330
527
100
AcDbEntity
  8
6
  6
Continuous
 62
     7
370
     9
100
AcDbMText
 10
891.5235484936844
 20
1082.274915966759
 30
0.0
 40
18.0
 41
0.0
 71
     8
 72
     1
  1
999
 73
     1
 44
1.0
  0
ENDBLK
  5
529
330
527
100
AcDbEntity
  8
0
100
AcDbBlockEnd
  0
BLOCK
  5
534
330
533
100
AcDbEntity
  8
0
100
AcDbBlockBegin
  2
Dim19
 70
     0
 71
     0
 10
0.0
 20
0.0
 30
0.0
  3
Dim19
  1

  0
LINE
  5
536
330
533
100
AcDbEntity
  8
6
  6
Continuous
 62
     7
370
     9
100
AcDbLine
 10
362.0235484936843
 20
1031.274915966759
 30
0.0
 11
393.5235484936842
 21
1031.274915966759
 31
0.0
  0
LINE
  5
537
330
533
100
AcDbEntity
  8
6
  6
Continuous
 62
     7
370
     9
100
AcDbLine
 10
393.5235484936842
 20
1037.274915966759
 30
0.0
 11
393.5235484936839
 21
953.2749159667592
 31
0.0
  0
LINE
  5
538
330
533
100
AcDbEntity
  8
6
  6
Continuous
 62
     7
370
     9
100
AcDbLine
 10
392.0235484936843
 20
1031.274915966759
 30
0.0
 11
380.4324385782155
 21
1028.169087425529
 31
0.0
  0
LINE
  5
539
330
533
100
AcDbEntity
  8
6
  6
Continuous
 62
     7
370
     9
100
AcDbLine
 10
392.0235484936843
 20
1031.274915966759
 30
0.0
 11
380.4324385782155
 21
1034.380744507989
 31
0.0
  0
LINE
  5
53A
330
533
100
AcDbEntity
  8
6
  6
Continuous
 62
     7
370
     9
100
AcDbLine
 10
393.5235484936842
 20
1031.274915966759
 30
0.0
 11
405.1146584091531
 21
1034.380744507989
 31
0.0
  0
LINE
  5
53B
330
533
100
AcDbEntity
  8
6
  6
Continuous
 62
     7
370
     9
100
AcDbLine
 10
393.5235484936842
 20
1031.274915966759
 30
0.0
 11
405.1146584091531
 21
1028.169087425529
 31
0.0
  0
MTEXT
  5
53C
330
533
100
AcDbEntity
  8
6
  6
Continuous
 62
     7
370
     9
100
AcDbMText
 10
378.509099794206
 20
1040.274915966759
 30
0.0
 40
18.0
 41
0.0
 71
     8
 72
     1
  1
1.5
 73
     1
 44
1.0
  0
ENDBLK
  5
535
330
533
100
AcDbEntity
  8
0
100
AcDbBlockEnd
  0
BLOCK
  5
53F
330
53E
100
AcDbEntity
  8
0
100
AcDbBlockBegin
  2
Dim20
 70
     0
 71
     0
 10
0.0
 20
0.0
 30
0.0
  3
Dim20
  1

  0
LINE
  5
541
330
53E
100
AcDbEntity
  8
6
  6
Continuous
 62
     7
370
     9
100
AcDbLine
 10
393.5235484936842
 20
1031.274915966759
 30
0.0
 11
1389.523548493684
 21
1031.274915966759
 31
0.0
  0
LINE
  5
542
330
53E
100
AcDbEntity
  8
6
  6
Continuous
 62
     7
370
     9
100
AcDbLine
 10
1389.523548493684
 20
1037.274915966759
 30
0.0
 11
1389.523548493684
 21
953.2749159667592
 31
0.0
  0
LINE
  5
543
330
53E
100
AcDbEntity
  8
6
  6
Continuous
 62
     7
370
     9
100
AcDbLine
 10
393.5235484936842
 20
1031.274915966759
 30
0.0
 11
381.9324385782154
 21
1028.169087425529
 31
0.0
  0
LINE
  5
544
330
53E
100
AcDbEntity
  8
6
  6
Continuous
 62
     7
370
     9
100
AcDbLine
 10
393.5235484936842
 20
1031.274915966759
 30
0.0
 11
381.9324385782155
 21
1034.380744507989
 31
0.0
  0
LINE
  5
545
330
53E
100
AcDbEntity
  8
6
  6
Continuous
 62
     7
370
     9
100
AcDbLine
 10
1389.523548493684
 20
1031.274915966759
 30
0.0
 11
1401.114658409153
 21
1034.380744507989
 31
0.0
  0
LINE
  5
546
330
53E
100
AcDbEntity
  8
6
  6
Continuous
 62
     7
370
     9
100
AcDbLine
 10
1389.523548493684
 20
1031.274915966759
 30
0.0
 11
1401.114658409153
 21
1028.169087425529
 31
0.0
  0
MTEXT
  5
547
330
53E
100
AcDbEntity
  8
6
  6
Continuous
 62
     7
370
     9
100
AcDbMText
 10
891.523548493684
 20
1040.274915966759
 30
0.0
 40
18.0
 41
0.0
 71
     8
 72
     1
  1
996
 73
     1
 44
1.0
  0
ENDBLK
  5
540
330
53E
100
AcDbEntity
  8
0
100
AcDbBlockEnd
  0
BLOCK
  5
54A
330
549
100
AcDbEntity
  8
0
100
AcDbBlockBegin
  2
Dim21
 70
     0
 71
     0
 10
0.0
 20
0.0
 30
0.0
  3
Dim21
  1

  0
LINE
  5
54C
330
549
100
AcDbEntity
  8
6
  6
Continuous
 62
     7
370
     9
100
AcDbLine
 10
1389.523548493684
 20
1031.274915966759
 30
0.0
 11
1421.023548493684
 21
1031.274915966759
 31
0.0
  0
LINE
  5
54D
330
549
100
AcDbEntity
  8
6
  6
Continuous
 62
     7
370
     9
100
AcDbLine
 10
1389.523548493684
 20
1031.274915966759
 30
0.0
 11
1377.932438578215
 21
1028.169087425529
 31
0.0
  0
LINE
  5
54E
330
549
100
AcDbEntity
  8
6
  6
Continuous
 62
     7
370
     9
100
AcDbLine
 10
1389.523548493684
 20
1031.274915966759
 30
0.0
 11
1377.932438578215
 21
1034.380744507989
 31
0.0
  0
LINE
  5
54F
330
549
100
AcDbEntity
  8
6
  6
Continuous
 62
     7
370
     9
100
AcDbLine
 10
1391.023548493684
 20
1031.274915966759
 30
0.0
 11
1402.614658409153
 21
1034.380744507989
 31
0.0
  0
LINE
  5
550
330
549
100
AcDbEntity
  8
6
  6
Continuous
 62
     7
370
     9
100
AcDbLine
 10
1391.023548493684
 20
1031.274915966759
 30
0.0
 11
1402.614658409153
 21
1028.169087425529
 31
0.0
  0
MTEXT
  5
551
330
549
100
AcDbEntity
  8
6
  6
Continuous
 62
     7
370
     9
100
AcDbMText
 10
1405.009099794228
 20
1040.274915966759
 30
0.0
 40
18.0
 41
0.0
 71
     8
 72
     1
  1
1.5
 73
     1
 44
1.0
  0
ENDBLK
  5
54B
330
549
100
AcDbEntity
  8
0
100
AcDbBlockEnd
  0
BLOCK
  5
554
330
553
100
AcDbEntity
  8
0
100
AcDbBlockBegin
  2
Dim22
 70
     0
 71
     0
 10
0.0
 20
0.0
 30
0.0
  3
Dim22
  1

  0
LINE
  5
556
330
553
100
AcDbEntity
  8
6
  6
Continuous
 62
     7
370
     9
100
AcDbLine
 10
392.023548493683
 20
529.3667310990709
 30
0.0
 11
1391.023548493683
 21
529.3667310990709
 31
0.0
  0
LINE
  5
557
330
553
100
AcDbEntity
  8
6
  6
Continuous
 62
     7
370
     9
100
AcDbLine
 10
392.0235484936829
 20
523.3667310990709
 30
0.0
 11
392.0235484936837
 21
621.3667310990709
 31
0.0
  0
LINE
  5
558
330
553
100
AcDbEntity
  8
6
  6
Continuous
 62
     7
370
     9
100
AcDbLine
 10
1391.023548493683
 20
523.3667310990709
 30
0.0
 11
1391.023548493684
 21
621.3667310990709
 31
0.0
  0
LINE
  5
559
330
553
100
AcDbEntity
  8
6
  6
Continuous
 62
     7
370
     9
100
AcDbLine
 10
392.023548493683
 20
529.3667310990709
 30
0.0
 11
403.6146584091518
 21
532.4725596403011
 31
0.0
  0
LINE
  5
55A
330
553
100
AcDbEntity
  8
6
  6
Continuous
 62
     7
370
     9
100
AcDbLine
 10
392.023548493683
 20
529.3667310990709
 30
0.0
 11
403.6146584091518
 21
526.2609025578406
 31
0.0
  0
LINE
  5
55B
330
553
100
AcDbEntity
  8
6
  6
Continuous
 62
     7
370
     9
100
AcDbLine
 10
1391.023548493683
 20
529.3667310990709
 30
0.0
 11
1379.432438578214
 21
526.2609025578407
 31
0.0
  0
LINE
  5
55C
330
553
100
AcDbEntity
  8
6
  6
Continuous
 62
     7
370
     9
100
AcDbLine
 10
1391.023548493683
 20
529.3667310990709
 30
0.0
 11
1379.432438578214
 21
532.4725596403011
 31
0.0
  0
MTEXT
  5
55D
330
553
100
AcDbEntity
  8
6
  6
Continuous
 62
     7
370
     9
100
AcDbMText
 10
891.523548493683
 20
538.3667310990709
 30
0.0
 40
18.0
 41
0.0
 71
     8
 72
     1
  1
999
 73
     1
 44
1.0
  0
ENDBLK
  5
555
330
553
100
AcDbEntity
  8
0
100
AcDbBlockEnd
  0
BLOCK
  5
560
330
55F
100
AcDbEntity
  8
0
100
AcDbBlockBegin
  2
Dim23
 70
     0
 71
     0
 10
0.0
 20
0.0
 30
0.0
  3
Dim23
  1

  0
LINE
  5
562
330
55F
100
AcDbEntity
  8
6
  6
Continuous
 62
     7
370
     9
100
AcDbLine
 10
355.788994984558
 20
571.3667310990709
 30
0.0
 11
408.5235484936838
 21
571.3667310990709
 31
0.0
  0
LINE
  5
563
330
55F
100
AcDbEntity
  8
6
  6
Continuous
 62
     7
370
     9
100
AcDbLine
 10
408.5235484936838
 20
565.3667310990709
 30
0.0
 11
408.5235484936838
 21
616.4493378334766
 31
0.0
  0
LINE
  5
564
330
55F
100
AcDbEntity
  8
6
  6
Continuous
 62
     7
370
     9
100
AcDbLine
 10
392.0235484936838
 20
571.3667310990709
 30
0.0
 11
380.432438578215
 21
568.2609025578407
 31
0.0
  0
LINE
  5
565
330
55F
100
AcDbEntity
  8
6
  6
Continuous
 62
     7
370
     9
100
AcDbLine
 10
392.0235484936838
 20
571.3667310990709
 30
0.0
 11
380.4324385782151
 21
574.4725596403011
 31
0.0
  0
LINE
  5
566
330
55F
100
AcDbEntity
  8
6
  6
Continuous
 62
     7
370
     9
100
AcDbLine
 10
408.5235484936838
 20
571.3667310990709
 30
0.0
 11
420.1146584091526
 21
574.4725596403011
 31
0.0
  0
LINE
  5
567
330
55F
100
AcDbEntity
  8
6
  6
Continuous
 62
     7
370
     9
100
AcDbLine
 10
408.5235484936838
 20
571.3667310990709
 30
0.0
 11
420.1146584091526
 21
568.2609025578406
 31
0.0
  0
MTEXT
  5
568
330
55F
100
AcDbEntity
  8
6
  6
Continuous
 62
     7
370
     9
100
AcDbMText
 10
373.788994984558
 20
580.3667310990709
 30
0.0
 40
18.0
 41
0.0
 71
     8
 72
     1
  1
16.5
 73
     1
 44
1.0
  0
ENDBLK
  5
561
330
55F
100
AcDbEntity
  8
0
100
AcDbBlockEnd
  0
BLOCK
  5
56B
330
56A
100
AcDbEntity
  8
0
100
AcDbBlockBegin
  2
Dim24
 70
     0
 71
     0
 10
0.0
 20
0.0
 30
0.0
  3
Dim24
  1

  0
LINE
  5
56D
330
56A
100
AcDbEntity
  8
6
  6
Continuous
 62
     7
370
     9
100
AcDbLine
 10
408.5235484936838
 20
571.3667310990709
 30
0.0
 11
691.523548493684
 21
571.3667310990709
 31
0.0
  0
LINE
  5
56E
330
56A
100
AcDbEntity
  8
6
  6
Continuous
 62
     7
370
     9
100
AcDbLine
 10
691.523548493684
 20
565.3667310990709
 30
0.0
 11
691.523548493684
 21
616.4493378334766
 31
0.0
  0
LINE
  5
56F
330
56A
100
AcDbEntity
  8
6
  6
Continuous
 62
     7
370
     9
100
AcDbLine
 10
408.5235484936838
 20
571.3667310990709
 30
0.0
 11
396.932438578215
 21
568.2609025578407
 31
0.0
  0
LINE
  5
570
330
56A
100
AcDbEntity
  8
6
  6
Continuous
 62
     7
370
     9
100
AcDbLine
 10
408.5235484936838
 20
571.3667310990709
 30
0.0
 11
396.9324385782151
 21
574.4725596403011
 31
0.0
  0
LINE
  5
571
330
56A
100
AcDbEntity
  8
6
  6
Continuous
 62
     7
370
     9
100
AcDbLine
 10
691.523548493684
 20
571.3667310990709
 30
0.0
 11
703.1146584091528
 21
574.4725596403011
 31
0.0
  0
LINE
  5
572
330
56A
100
AcDbEntity
  8
6
  6
Continuous
 62
     7
370
     9
100
AcDbLine
 10
691.523548493684
 20
571.3667310990709
 30
0.0
 11
703.1146584091528
 21
568.2609025578406
 31
0.0
  0
MTEXT
  5
573
330
56A
100
AcDbEntity
  8
6
  6
Continuous
 62
     7
370
     9
100
AcDbMText
 10
550.0235484936841
 20
580.3667310990709
 30
0.0
 40
18.0
 41
0.0
 71
     8
 72
     1
  1
283
 73
     1
 44
1.0
  0
ENDBLK
  5
56C
330
56A
100
AcDbEntity
  8
0
100
AcDbBlockEnd
  0
BLOCK
  5
576
330
575
100
AcDbEntity
  8
0
100
AcDbBlockBegin
  2
Dim25
 70
     0
 71
     0
 10
0.0
 20
0.0
 30
0.0
  3
Dim25
  1

  0
LINE
  5
578
330
575
100
AcDbEntity
  8
6
  6
Continuous
 62
     7
370
     9
100
AcDbLine
 10
691.523548493684
 20
571.3667310990709
 30
0.0
 11
1091.523548493684
 21
571.3667310990709
 31
0.0
  0
LINE
  5
579
330
575
100
AcDbEntity
  8
6
  6
Continuous
 62
     7
370
     9
100
AcDbLine
 10
1091.523548493684
 20
565.3667310990709
 30
0.0
 11
1091.523548493684
 21
616.4493378334766
 31
0.0
  0
LINE
  5
57A
330
575
100
AcDbEntity
  8
6
  6
Continuous
 62
     7
370
     9
100
AcDbLine
 10
691.523548493684
 20
571.3667310990709
 30
0.0
 11
679.9324385782152
 21
568.2609025578407
 31
0.0
  0
LINE
  5
57B
330
575
100
AcDbEntity
  8
6
  6
Continuous
 62
     7
370
     9
100
AcDbLine
 10
691.523548493684
 20
571.3667310990709
 30
0.0
 11
679.9324385782152
 21
574.4725596403011
 31
0.0
  0
LINE
  5
57C
330
575
100
AcDbEntity
  8
6
  6
Continuous
 62
     7
370
     9
100
AcDbLine
 10
1091.523548493684
 20
571.3667310990709
 30
0.0
 11
1103.114658409153
 21
574.4725596403011
 31
0.0
  0
LINE
  5
57D
330
575
100
AcDbEntity
  8
6
  6
Continuous
 62
     7
370
     9
100
AcDbLine
 10
1091.523548493684
 20
571.3667310990709
 30
0.0
 11
1103.114658409153
 21
568.2609025578406
 31
0.0
  0
MTEXT
  5
57E
330
575
100
AcDbEntity
  8
6
  6
Continuous
 62
     7
370
     9
100
AcDbMText
 10
891.523548493684
 20
580.3667310990709
 30
0.0
 40
18.0
 41
0.0
 71
     8
 72
     1
  1
400
 73
     1
 44
1.0
  0
ENDBLK
  5
577
330
575
100
AcDbEntity
  8
0
100
AcDbBlockEnd
  0
BLOCK
  5
581
330
580
100
AcDbEntity
  8
0
100
AcDbBlockBegin
  2
Dim26
 70
     0
 71
     0
 10
0.0
 20
0.0
 30
0.0
  3
Dim26
  1

  0
LINE
  5
583
330
580
100
AcDbEntity
  8
6
  6
Continuous
 62
     7
370
     9
100
AcDbLine
 10
1091.523548493684
 20
571.3667310990709
 30
0.0
 11
1374.523548493684
 21
571.3667310990709
 31
0.0
  0
LINE
  5
584
330
580
100
AcDbEntity
  8
6
  6
Continuous
 62
     7
370
     9
100
AcDbLine
 10
1374.523548493684
 20
565.3667310990709
 30
0.0
 11
1374.523548493684
 21
616.4493378334766
 31
0.0
  0
LINE
  5
585
330
580
100
AcDbEntity
  8
6
  6
Continuous
 62
     7
370
     9
100
AcDbLine
 10
1091.523548493684
 20
571.3667310990709
 30
0.0
 11
1079.932438578215
 21
568.2609025578407
 31
0.0
  0
LINE
  5
586
330
580
100
AcDbEntity
  8
6
  6
Continuous
 62
     7
370
     9
100
AcDbLine
 10
1091.523548493684
 20
571.3667310990709
 30
0.0
 11
1079.932438578215
 21
574.4725596403011
 31
0.0
  0
LINE
  5
587
330
580
100
AcDbEntity
  8
6
  6
Continuous
 62
     7
370
     9
100
AcDbLine
 10
1374.523548493684
 20
571.3667310990709
 30
0.0
 11
1386.114658409153
 21
574.4725596403011
 31
0.0
  0
LINE
  5
588
330
580
100
AcDbEntity
  8
6
  6
Continuous
 62
     7
370
     9
100
AcDbLine
 10
1374.523548493684
 20
571.3667310990709
 30
0.0
 11
1386.114658409153
 21
568.2609025578406
 31
0.0
  0
MTEXT
  5
589
330
580
100
AcDbEntity
  8
6
  6
Continuous
 62
     7
370
     9
100
AcDbMText
 10
1233.023548493684
 20
580.3667310990709
 30
0.0
 40
18.0
 41
0.0
 71
     8
 72
     1
  1
283
 73
     1
 44
1.0
  0
ENDBLK
  5
582
330
580
100
AcDbEntity
  8
0
100
AcDbBlockEnd
  0
BLOCK
  5
58C
330
58B
100
AcDbEntity
  8
0
100
AcDbBlockBegin
  2
Dim27
 70
     0
 71
     0
 10
0.0
 20
0.0
 30
0.0
  3
Dim27
  1

  0
LINE
  5
58E
330
58B
100
AcDbEntity
  8
6
  6
Continuous
 62
     7
370
     9
100
AcDbLine
 10
1374.523548493684
 20
571.3667310990709
 30
0.0
 11
1426.600106095688
 21
571.3667310990709
 31
0.0
  0
LINE
  5
58F
330
58B
100
AcDbEntity
  8
6
  6
Continuous
 62
     7
370
     9
100
AcDbLine
 10
1374.523548493684
 20
571.3667310990709
 30
0.0
 11
1362.932438578215
 21
568.2609025578407
 31
0.0
  0
LINE
  5
590
330
58B
100
AcDbEntity
  8
6
  6
Continuous
 62
     7
370
     9
100
AcDbLine
 10
1374.523548493684
 20
571.3667310990709
 30
0.0
 11
1362.932438578215
 21
574.4725596403011
 31
0.0
  0
LINE
  5
591
330
58B
100
AcDbEntity
  8
6
  6
Continuous
 62
     7
370
     9
100
AcDbLine
 10
1391.023548493684
 20
571.3667310990709
 30
0.0
 11
1402.614658409153
 21
574.4725596403011
 31
0.0
  0
LINE
  5
592
330
58B
100
AcDbEntity
  8
6
  6
Continuous
 62
     7
370
     9
100
AcDbLine
 10
1391.023548493684
 20
571.3667310990709
 30
0.0
 11
1402.614658409153
 21
568.2609025578406
 31
0.0
  0
MTEXT
  5
593
330
58B
100
AcDbEntity
  8
6
  6
Continuous
 62
     7
370
     9
100
AcDbMText
 10
1408.600106095688
 20
580.3667310990709
 30
0.0
 40
18.0
 41
0.0
 71
     8
 72
     1
  1
16.5
 73
     1
 44
1.0
  0
ENDBLK
  5
58D
330
58B
100
AcDbEntity
  8
0
100
AcDbBlockEnd
  0
ENDSEC
  0
SECTION
  2
ENTITIES
  0
LINE
  5
87
330
1F
100
AcDbEntity
  8
11
  6
DASHDOT
 62
    16
370
     9
100
AcDbLine
 10
-7853.400379102917
 20
-2473.884999999997
 30
0.0
 11
-7853.400379102917
 21
-11616.000625
 31
0.0
  0
TEXT
  5
88
330
1F
100
AcDbEntity
  8
11
  6
Continuous
 62
    16
370
     9
100
AcDbText
 10
-8261.786186592604
 20
-11116.07658120515
 30
0.0
 40
119.0000143647194
  1
U-360-B
100
AcDbText
  0
LINE
  5
89
330
1F
100
AcDbEntity
  8
11
  6
Continuous
 62
    16
370
     9
100
AcDbLine
 10
-8313.400358390303
 20
-9655.719104515603
 30
0.0
 11
-8213.400345575305
 21
-9655.719104515603
 31
0.0
  0
LINE
  5
8A
330
1F
100
AcDbEntity
  8
11
  6
Continuous
 62
    16
370
     9
100
AcDbLine
 10
-7493.400324117632
 20
-9655.719104515603
 30
0.0
 11
-7393.400399815531
 21
-9655.719104515603
 31
0.0
  0
LINE
  5
8B
330
1F
100
AcDbEntity
  8
11
  6
Continuous
 62
    16
370
     9
100
AcDbLine
 10
-8313.400358390303
 20
-9655.719104515603
 30
0.0
 11
-8313.400358390303
 21
-10405.71915637164
 31
0.0
  0
LINE
  5
8C
330
1F
100
AcDbEntity
  8
11
  6
Continuous
 62
    16
370
     9
100
AcDbLine
 10
-8313.400358390303
 20
-10405.71915637164
 30
0.0
 11
-8213.400345575305
 21
-10505.71916918664
 31
0.0
  0
LINE
  5
8D
330
1F
100
AcDbEntity
  8
11
  6
Continuous
 62
    16
370
     9
100
AcDbLine
 10
-8213.400345575305
 20
-10505.71916918664
 30
0.0
 11
-7493.400324117632
 21
-10505.71916918664
 31
0.0
  0
LINE
  5
8E
330
1F
100
AcDbEntity
  8
11
  6
Continuous
 62
    16
370
     9
100
AcDbLine
 10
-7393.400399815531
 20
-9655.719104515603
 30
0.0
 11
-7393.400399815531
 21
-10406.7191750875
 31
0.0
  0
LINE
  5
8F
330
1F
100
AcDbEntity
  8
11
  6
Continuous
 62
    16
370
     9
100
AcDbLine
 10
-7493.400324117632
 20
-10505.71916918664
 30
0.0
 11
-7393.400399815531
 21
-10406.7191750875
 31
0.0
  0
ARC
  5
90
330
1F
100
AcDbEntity
  8
11
  6
Continuous
 62
    16
370
     9
100
AcDbCircle
 10
-8071.400343310328
 20
-10275.71911315828
 30
0.0
 40
100.0000128149986
100
AcDbArc
 50
185.1226640241716
 51
269.9777130352506
  0
LINE
  5
91
330
1F
100
AcDbEntity
  8
11
  6
Continuous
 62
    16
370
     9
100
AcDbLine
 10
-8213.400345575305
 20
-9655.719104515603
 30
0.0
 11
-8171.400356125327
 21
-10284.71919308811
 31
0.0
  0
ARC
  5
92
330
1F
100
AcDbEntity
  8
11
  6
Continuous
 62
    16
370
     9
100
AcDbCircle
 10
-7635.400326382609
 20
-10275.71911315828
 30
0.0
 40
100.0000128149986
100
AcDbArc
 50
269.9777130352506
 51
354.8327630463299
  0
LINE
  5
93
330
1F
100
AcDbEntity
  8
11
  6
Continuous
 62
    16
370
     9
100
AcDbLine
 10
-7493.400324117632
 20
-9655.719104515603
 30
0.0
 11
-7535.40031356761
 21
-10284.71919308811
 31
0.0
  0
LINE
  5
94
330
1F
100
AcDbEntity
  8
11
  6
Continuous
 62
    16
370
     9
100
AcDbLine
 10
-8071.400343310328
 20
-10375.71921448617
 30
0.0
 11
-7635.400326382609
 21
-10375.71921448617
 31
0.0
  0
TEXT
  5
95
330
1F
100
AcDbEntity
  8
11
  6
Continuous
 62
    16
370
     9
100
AcDbText
 10
-8155.786149995352
 20
-8616.223394693146
 30
0.0
 40
119.0000143647194
  1
U-300B
100
AcDbText
  0
LINE
  5
96
330
1F
100
AcDbEntity
  8
11
  6
Continuous
 62
    16
370
     9
100
AcDbLine
 10
-8253.400386106463
 20
-7338.865979515595
 30
0.0
 11
-8153.400461804362
 21
-7338.865979515595
 31
0.0
  0
LINE
  5
97
330
1F
100
AcDbEntity
  8
11
  6
Continuous
 62
    16
370
     9
100
AcDbLine
 10
-7553.40038491437
 20
-7338.865979515595
 30
0.0
 11
-7453.400372099371
 21
-7338.865979515595
 31
0.0
  0
ARC
  5
98
330
1F
100
AcDbEntity
  8
11
  6
Continuous
 62
    16
370
     9
100
AcDbCircle
 10
-8021.400381159277
 20
-7838.866043590589
 30
0.0
 40
100.0000128149986
100
AcDbArc
 50
185.1226640241711
 51
269.9777130352506
  0
LINE
  5
99
330
1F
100
AcDbEntity
  8
11
  6
Continuous
 62
    16
370
     9
100
AcDbLine
 10
-8153.400461804362
 20
-7338.865979515595
 30
0.0
 11
-8121.400305461379
 21
-7847.86603500752
 31
0.0
  0
ARC
  5
9A
330
1F
100
AcDbEntity
  8
11
  6
Continuous
 62
    16
370
     9
100
AcDbCircle
 10
-7685.400377046557
 20
-7838.866043590589
 30
0.0
 40
100.0000128149986
100
AcDbArc
 50
269.9777130352506
 51
354.8327630463305
  0
LINE
  5
9B
330
1F
100
AcDbEntity
  8
11
  6
Continuous
 62
    16
370
     9
100
AcDbLine
 10
-7553.40038491437
 20
-7338.865979515595
 30
0.0
 11
-7585.400364231558
 21
-7847.86603500752
 31
0.0
  0
LINE
  5
9C
330
1F
100
AcDbEntity
  8
11
  6
Continuous
 62
    16
370
     9
100
AcDbLine
 10
-8021.400381159277
 20
-7938.86596789269
 30
0.0
 11
-7685.400377046557
 21
-7938.86596789269
 31
0.0
  0
LINE
  5
9D
330
1F
100
AcDbEntity
  8
11
  6
Continuous
 62
    16
370
     9
100
AcDbLine
 10
-8253.400386106463
 20
-7338.865979515595
 30
0.0
 11
-8253.400386106463
 21
-7958.865988158269
 31
0.0
  0
LINE
  5
9E
330
1F
100
AcDbEntity
  8
11
  6
Continuous
 62
    16
370
     9
100
AcDbLine
 10
-8253.400386106463
 20
-7958.865988158269
 30
0.0
 11
-8153.400461804362
 21
-8058.866089486165
 31
0.0
  0
LINE
  5
9F
330
1F
100
AcDbEntity
  8
11
  6
Continuous
 62
    16
370
     9
100
AcDbLine
 10
-8153.400461804362
 20
-8058.866089486165
 30
0.0
 11
-7553.40038491437
 21
-8058.866089486165
 31
0.0
  0
LINE
  5
A0
330
1F
100
AcDbEntity
  8
11
  6
Continuous
 62
    16
370
     9
100
AcDbLine
 10
-7453.400372099371
 20
-7338.865979515595
 30
0.0
 11
-7453.400372099371
 21
-7959.866006874127
 31
0.0
  0
LINE
  5
A1
330
1F
100
AcDbEntity
  8
11
  6
Continuous
 62
    16
370
     9
100
AcDbLine
 10
-7553.40038491437
 20
-8058.866089486165
 30
0.0
 11
-7453.400372099371
 21
-7959.866006874127
 31
0.0
  0
TEXT
  5
A2
330
1F
100
AcDbEntity
  8
11
  6
Continuous
 62
    16
370
     9
100
AcDbText
 10
-8122.786107705857
 20
-6709.206245876543
 30
0.0
 40
119.0000143647194
  1
U-240
100
AcDbText
  0
LINE
  5
A3
330
1F
100
AcDbEntity
  8
11
  6
Continuous
 62
    16
370
     9
100
AcDbLine
 10
-8183.400359433384
 20
-5585.848792015579
 30
0.0
 11
-8093.400356751175
 21
-5585.848792015579
 31
0.0
  0
LINE
  5
A4
330
1F
100
AcDbEntity
  8
11
  6
Continuous
 62
    16
370
     9
100
AcDbLine
 10
-7613.400312941762
 20
-5585.848792015579
 30
0.0
 11
-7523.40039877245
 21
-5585.848792015579
 31
0.0
  0
ARC
  5
A5
330
1F
100
AcDbEntity
  8
11
  6
Continuous
 62
    16
370
     9
100
AcDbCircle
 10
-7977.400398534031
 20
-5965.848823009994
 30
0.0
 40
100.0000128149986
100
AcDbArc
 50
182.3724660238122
 51
269.9777130352506
  0
LINE
  5
A6
330
1F
100
AcDbEntity
  8
11
  6
Continuous
 62
    16
370
     9
100
AcDbLine
 10
-8093.400356751175
 20
-5585.848792015579
 30
0.0
 11
-8077.400322836133
 21
-5969.84880936053
 31
0.0
  0
ARC
  5
A7
330
1F
100
AcDbEntity
  8
11
  6
Continuous
 62
    16
370
     9
100
AcDbCircle
 10
-7729.400359671803
 20
-5965.848823009994
 30
0.0
 40
100.0000128149986
100
AcDbArc
 50
269.9777130352506
 51
357.6402560466982
  0
LINE
  5
A8
330
1F
100
AcDbEntity
  8
11
  6
Continuous
 62
    16
370
     9
100
AcDbLine
 10
-7613.400312941762
 20
-5585.848792015579
 30
0.0
 11
-7629.400346856804
 21
-5969.84880936053
 31
0.0
  0
LINE
  5
A9
330
1F
100
AcDbEntity
  8
11
  6
Continuous
 62
    16
370
     9
100
AcDbLine
 10
-7977.400398534031
 20
-6065.848835824992
 30
0.0
 11
-7729.400359671803
 21
-6065.848835824992
 31
0.0
  0
LINE
  5
AA
330
1F
100
AcDbEntity
  8
11
  6
Continuous
 62
    16
370
     9
100
AcDbLine
 10
-7523.40039877245
 20
-5585.848792015579
 30
0.0
 11
-7523.40039877245
 21
-6075.848845957782
 31
0.0
  0
LINE
  5
AB
330
1F
100
AcDbEntity
  8
11
  6
Continuous
 62
    16
370
     9
100
AcDbLine
 10
-7523.40039877245
 20
-6075.848845957782
 30
0.0
 11
-7613.400312941762
 21
-6165.848848639991
 31
0.0
  0
LINE
  5
AC
330
1F
100
AcDbEntity
  8
11
  6
Continuous
 62
    16
370
     9
100
AcDbLine
 10
-8183.400359433384
 20
-5585.848792015579
 30
0.0
 11
-8183.400359433384
 21
-6075.848845957782
 31
0.0
  0
LINE
  5
AD
330
1F
100
AcDbEntity
  8
11
  6
Continuous
 62
    16
370
     9
100
AcDbLine
 10
-7613.400312941762
 20
-6165.848848639991
 30
0.0
 11
-8093.400356751175
 21
-6165.848848639991
 31
0.0
  0
LINE
  5
AE
330
1F
100
AcDbEntity
  8
11
  6
Continuous
 62
    16
370
     9
100
AcDbLine
 10
-8183.400359433384
 20
-6075.848845957782
 30
0.0
 11
-8093.400356751175
 21
-6165.848848639991
 31
0.0
  0
TEXT
  5
AF
330
1F
100
AcDbEntity
  8
11
  6
Continuous
 62
    16
370
     9
100
AcDbText
 10
-8089.786109672808
 20
-5062.889086509926
 30
0.0
 40
119.0000143647194
  1
U-180
100
AcDbText
  0
LINE
  5
B0
330
1F
100
AcDbEntity
  8
11
  6
Continuous
 62
    16
370
     9
100
AcDbLine
 10
-8103.400366883965
 20
-4051.531604515568
 30
0.0
 11
-8033.400384467335
 21
-4051.531604515568
 31
0.0
  0
LINE
  5
B1
330
1F
100
AcDbEntity
  8
11
  6
Continuous
 62
    16
370
     9
100
AcDbLine
 10
-7673.400373738499
 20
-4051.531604515568
 30
0.0
 11
-7603.400391321869
 21
-4051.531604515568
 31
0.0
  0
LINE
  5
B2
330
1F
100
AcDbEntity
  8
11
  6
Continuous
 62
    16
370
     9
100
AcDbLine
 10
-8103.400366883965
 20
-4051.531604515568
 30
0.0
 11
-8103.400366883965
 21
-4431.531635509983
 31
0.0
  0
LINE
  5
B3
330
1F
100
AcDbEntity
  8
11
  6
Continuous
 62
    16
370
     9
100
AcDbLine
 10
-8103.400366883965
 20
-4431.531635509983
 30
0.0
 11
-8043.400394600125
 21
-4491.531607793823
 31
0.0
  0
LINE
  5
B4
330
1F
100
AcDbEntity
  8
11
  6
Continuous
 62
    16
370
     9
100
AcDbLine
 10
-8043.400394600125
 20
-4491.531607793823
 30
0.0
 11
-7663.40036360571
 21
-4491.531607793823
 31
0.0
  0
LINE
  5
B5
330
1F
100
AcDbEntity
  8
11
  6
Continuous
 62
    16
370
     9
100
AcDbLine
 10
-7603.400391321869
 20
-4051.531604515568
 30
0.0
 11
-7603.400391321869
 21
-4432.531654225842
 31
0.0
  0
LINE
  5
B6
330
1F
100
AcDbEntity
  8
11
  6
Continuous
 62
    16
370
     9
100
AcDbLine
 10
-7663.40036360571
 20
-4491.531607793823
 30
0.0
 11
-7603.400391321869
 21
-4432.531654225842
 31
0.0
  0
ARC
  5
B7
330
1F
100
AcDbEntity
  8
11
  6
Continuous
 62
    16
370
     9
100
AcDbCircle
 10
-7946.400349419804
 20
-4331.531711207882
 30
0.0
 40
79.9999925494194
100
AcDbArc
 50
181.4557340236922
 51
269.9777130352516
  0
LINE
  5
B8
330
1F
100
AcDbEntity
  8
11
  6
Continuous
 62
    16
370
     9
100
AcDbLine
 10
-8033.400384467335
 20
-4051.531604515568
 30
0.0
 11
-8026.400341969224
 21
-4333.531660126701
 31
0.0
  0
ARC
  5
B9
330
1F
100
AcDbEntity
  8
11
  6
Continuous
 62
    16
370
     9
100
AcDbCircle
 10
-7760.40040878603
 20
-4331.531711207882
 30
0.0
 40
79.9999925494194
100
AcDbArc
 50
269.9777130352516
 51
358.5569880468175
  0
LINE
  5
BA
330
1F
100
AcDbEntity
  8
11
  6
Continuous
 62
    16
370
     9
100
AcDbLine
 10
-7673.400373738499
 20
-4051.531604515568
 30
0.0
 11
-7680.400416236611
 21
-4333.531660126701
 31
0.0
  0
LINE
  5
BB
330
1F
100
AcDbEntity
  8
11
  6
Continuous
 62
    16
370
     9
100
AcDbLine
 10
-7946.400349419804
 20
-4411.531615244404
 30
0.0
 11
-7760.40040878603
 21
-4411.531615244404
 31
0.0
  0
TEXT
  5
BC
330
1F
100
AcDbEntity
  8
11
  6
Continuous
 62
    16
370
     9
100
AcDbText
 10
-8081.786225484633
 20
-3624.906283427445
 30
0.0
 40
119.0000143647194
  1
U-150
100
AcDbText
  0
LINE
  5
BD
330
1F
100
AcDbEntity
  8
11
  6
Continuous
 62
    16
370
     9
100
AcDbLine
 10
-8063.400414865704
 20
-2726.548792015555
 30
0.0
 11
-8003.400354068966
 21
-2726.548792015555
 31
0.0
  0
LINE
  5
BE
330
1F
100
AcDbEntity
  8
11
  6
Continuous
 62
    16
370
     9
100
AcDbLine
 10
-7703.400404136868
 20
-2726.548792015555
 30
0.0
 11
-7643.400431853028
 21
-2726.548792015555
 31
0.0
  0
ARC
  5
BF
330
1F
100
AcDbEntity
  8
11
  6
Continuous
 62
    16
370
     9
100
AcDbCircle
 10
-7935.400409084054
 20
-2966.54885817671
 30
0.0
 40
59.99997228384018
100
AcDbArc
 50
181.9141000237526
 51
269.9777130352525
  0
LINE
  5
C0
330
1F
100
AcDbEntity
  8
11
  6
Continuous
 62
    16
370
     9
100
AcDbLine
 10
-8003.400354068966
 20
-2726.548792015555
 30
0.0
 11
-7995.400381367894
 21
-2968.548895608427
 31
0.0
  0
ARC
  5
C1
330
1F
100
AcDbEntity
  8
11
  6
Continuous
 62
    16
370
     9
100
AcDbCircle
 10
-7771.400437634678
 20
-2966.54885817671
 30
0.0
 40
59.99997228384018
100
AcDbArc
 50
269.9777130352525
 51
358.0986220467584
  0
LINE
  5
C2
330
1F
100
AcDbEntity
  8
11
  6
Continuous
 62
    16
370
     9
100
AcDbLine
 10
-7703.400404136868
 20
-2726.548792015555
 30
0.0
 11
-7711.400465350838
 21
-2968.548895608427
 31
0.0
  0
LINE
  5
C3
330
1F
100
AcDbEntity
  8
11
  6
Continuous
 62
    16
370
     9
100
AcDbLine
 10
-7935.400409084054
 20
-3026.548830460551
 30
0.0
 11
-7771.400437634678
 21
-3026.548830460551
 31
0.0
  0
LINE
  5
C4
330
1F
100
AcDbEntity
  8
11
  6
Continuous
 62
    16
370
     9
100
AcDbLine
 10
-8063.400414865704
 20
-2726.548792015555
 30
0.0
 11
-8063.400414865704
 21
-3060.548847209456
 31
0.0
  0
LINE
  5
C5
330
1F
100
AcDbEntity
  8
11
  6
Continuous
 62
    16
370
     9
100
AcDbLine
 10
-8027.400360685082
 20
-3096.54881287718
 30
0.0
 11
-8063.400414865704
 21
-3060.548847209456
 31
0.0
  0
LINE
  5
C6
330
1F
100
AcDbEntity
  8
11
  6
Continuous
 62
    16
370
     9
100
AcDbLine
 10
-7643.400431853028
 20
-2726.548792015555
 30
0.0
 11
-7643.400431853028
 21
-3060.548847209456
 31
0.0
  0
LINE
  5
C7
330
1F
100
AcDbEntity
  8
11
  6
Continuous
 62
    16
370
     9
100
AcDbLine
 10
-8027.400360685082
 20
-3096.54881287718
 30
0.0
 11
-7679.400397520752
 21
-3096.54881287718
 31
0.0
  0
LINE
  5
C8
330
1F
100
AcDbEntity
  8
11
  6
Continuous
 62
    16
370
     9
100
AcDbLine
 10
-7643.400431853028
 20
-3060.548847209456
 30
0.0
 11
-7679.400397520752
 21
-3096.54881287718
 31
0.0
  0
INSERT
  5
D0
330
1F
100
AcDbEntity
  8
0
100
AcDbBlockReference
  2
*G12
 10
0.0
 20
0.0
 30
0.0
  0
LINE
  5
D1
330
1F
100
AcDbEntity
  8
8
  6
Continuous
 62
   171
370
    18
100
AcDbLine
 10
1710.0
 20
1131.0
 30
0.0
 11
1068.0
 21
1131.0
 31
0.0
  0
TEXT
  5
D2
330
1F
100
AcDbEntity
  8
8
  6
Continuous
 62
   171
370
     9
100
AcDbText
 10
1074.0
 20
1134.0
 30
0.0
 40
15.0
  1
記号
100
AcDbText
  0
TEXT
  5
D3
330
1F
100
AcDbEntity
  8
8
  6
Continuous
 62
   171
370
     9
100
AcDbText
 10
1196.25
 20
1134.0
 30
0.0
 40
15.0
  1
訂　 正　 記　 事
100
AcDbText
  0
TEXT
  5
D4
330
1F
100
AcDbEntity
  8
8
  6
Continuous
 62
   171
370
     9
100
AcDbText
 10
1417.5
 20
1134.0
 30
0.0
 40
15.0
  1
訂 正 年 月 日
100
AcDbText
  0
TEXT
  5
D5
330
1F
100
AcDbEntity
  8
8
  6
Continuous
 62
   171
370
     9
100
AcDbText
 10
1567.5
 20
1134.0
 30
0.0
 40
15.0
  1
備　　　　　考
100
AcDbText
  0
LINE
  5
D6
330
1F
100
AcDbEntity
  8
8
  6
Continuous
 62
   171
370
    18
100
AcDbLine
 10
1422.0
 20
216.0
 30
0.0
 11
1422.0
 21
120.0
 31
0.0
  0
TEXT
  5
D7
330
1F
100
AcDbEntity
  8
8
  6
Continuous
 62
   171
370
     9
100
AcDbText
 10
1125.0
 20
117.0
 30
0.0
 40
21.0
  1
備考
 50
-0.0000000000000891
  7
T_STANDARD
100
AcDbText
  0
TEXT
  5
D8
330
1F
100
AcDbEntity
  8
8
  6
Continuous
 62
   171
370
     9
100
AcDbText
 10
1125.0
 20
165.0
 30
0.0
 40
21.0
  1
品番
 50
-0.0000000000000891
  7
T_STANDARD
100
AcDbText
  0
TEXT
  5
D9
330
1F
100
AcDbEntity
  8
8
  6
Continuous
 62
   171
370
     9
100
AcDbText
 10
1125.0
 20
213.0
 30
0.0
 40
21.0
  1
品名
 50
-0.0000000000000891
  7
T_STANDARD
100
AcDbText
  0
LINE
  5
DA
330
1F
100
AcDbEntity
  8
8
  6
Continuous
 62
   171
370
    18
100
AcDbLine
 10
1422.0
 20
168.0
 30
0.0
 11
1110.0
 21
168.0
 31
0.0
  0
LINE
  5
DB
330
1F
100
AcDbEntity
  8
8
  6
Continuous
 62
   171
370
    18
100
AcDbLine
 10
1140.0
 20
216.0
 30
0.0
 11
1140.0
 21
72.0
 31
0.0
  0
LINE
  5
DC
330
1F
100
AcDbEntity
  8
9
  6
Continuous
 62
   170
370
    30
100
AcDbLine
 10
1710.0
 20
216.0
 30
0.0
 11
1110.0
 21
216.0
 31
0.0
  0
LINE
  5
DD
330
1F
100
AcDbEntity
  8
9
  6
Continuous
 62
   170
370
    30
100
AcDbLine
 10
1110.0
 20
216.0
 30
0.0
 11
1110.0
 21
72.0
 31
0.0
  0
LINE
  5
DE
330
1F
100
AcDbEntity
  8
8
  6
Continuous
 62
   171
370
    18
100
AcDbLine
 10
1494.0
 20
216.0
 30
0.0
 11
1494.0
 21
72.0
 31
0.0
  0
TEXT
  5
DF
330
1F
100
AcDbEntity
  8
8
  6
Continuous
 62
   171
370
     9
100
AcDbText
 10
1431.0
 20
192.0
 30
0.0
 40
18.0
  1
縮　尺
100
AcDbText
  0
LINE
  5
E0
330
1F
100
AcDbEntity
  8
8
  6
Continuous
 62
   171
370
    18
100
AcDbLine
 10
1422.0
 20
186.0
 30
0.0
 11
1494.0
 21
186.0
 31
0.0
  0
LINE
  5
E1
330
1F
100
AcDbEntity
  8
8
  6
Continuous
 62
   171
370
    18
100
AcDbLine
 10
1494.0
 20
120.0
 30
0.0
 11
1110.0
 21
120.0
 31
0.0
  0
LINE
  5
E2
330
1F
100
AcDbEntity
  8
8
  6
Continuous
 62
   171
370
    18
100
AcDbLine
 10
1710.0
 20
108.0
 30
0.0
 11
1494.0
 21
108.0
 31
0.0
  0
LINE
  5
E3
330
1F
100
AcDbEntity
  8
8
  6
Continuous
 62
   171
370
    18
100
AcDbLine
 10
1494.0
 20
144.0
 30
0.0
 11
1710.0
 21
144.0
 31
0.0
  0
LINE
  5
E4
330
1F
100
AcDbEntity
  8
8
  6
Continuous
 62
   171
370
    18
100
AcDbLine
 10
1710.0
 20
168.0
 30
0.0
 11
1494.0
 21
168.0
 31
0.0
  0
TEXT
  5
E5
330
1F
100
AcDbEntity
  8
8
  6
Continuous
 62
   171
370
     9
100
AcDbText
 10
1506.0
 20
177.0
 30
0.0
 40
30.0
  1
株式会社シマブン
 41
0.8
100
AcDbText
  0
TEXT
  5
E6
330
1F
100
AcDbEntity
  8
8
  6
Continuous
 62
   171
370
     9
100
AcDbText
 10
1503.0
 20
72.0
 30
0.0
 40
18.0
  1
年月日
100
AcDbText
  0
TEXT
  5
E7
330
1F
100
AcDbEntity
  8
8
  6
Continuous
 62
   171
370
     9
100
AcDbText
 10
1503.0
 20
90.0
 30
0.0
 40
18.0
  1
作　成
100
AcDbText
  0
TEXT
  5
E8
330
1F
100
AcDbEntity
  8
8
  6
Continuous
 62
   171
370
     9
100
AcDbText
 10
1507.5
 20
147.0
 30
0.0
 40
18.0
  1
承 認
100
AcDbText
  0
LINE
  5
E9
330
1F
100
AcDbEntity
  8
8
  6
Continuous
 62
   171
370
    18
100
AcDbLine
 10
1566.0
 20
168.0
 30
0.0
 11
1566.0
 21
72.0
 31
0.0
  0
TEXT
  5
EA
330
1F
100
AcDbEntity
  8
8
  6
Continuous
 62
   171
370
     9
100
AcDbText
 10
1579.5
 20
147.0
 30
0.0
 40
18.0
  1
検 図
100
AcDbText
  0
LINE
  5
EB
330
1F
100
AcDbEntity
  8
8
  6
Continuous
 62
   171
370
    18
100
AcDbLine
 10
1638.0
 20
168.0
 30
0.0
 11
1638.0
 21
108.0
 31
0.0
  0
TEXT
  5
EC
330
1F
100
AcDbEntity
  8
8
  6
Continuous
 62
   171
370
     9
100
AcDbText
 10
1650.0
 20
114.0
 30
0.0
 40
24.0
  1
藤戸
100
AcDbText
  0
TEXT
  5
ED
330
1F
100
AcDbEntity
  8
8
  6
Continuous
 62
   171
370
     9
100
AcDbText
 10
1651.5
 20
147.0
 30
0.0
 40
18.0
  1
設 計
100
AcDbText
  0
TEXT
  5
EE
330
1F
100
AcDbEntity
  8
8
  6
Continuous
 62
   171
370
     9
100
AcDbText
 10
1432.8
 20
141.0
 30
0.0
 40
24.0
  1
１：６
 41
0.7000000000000001
100
AcDbText
  0
TEXT
  5
EF
330
1F
100
AcDbEntity
  8
8
  6
Continuous
 62
   171
370
     9
100
AcDbText
 10
1158.6
 20
180.0
 30
0.0
 40
24.0
  1
Ｕ字溝用樹脂グレーチング（歩道用）
 41
0.6
100
AcDbText
  0
TEXT
  5
F0
330
1F
100
AcDbEntity
  8
8
  6
Continuous
 62
   171
370
     9
100
AcDbText
 10
1572.0
 20
81.0
 30
0.0
 40
18.0
  1
２００９年０４月１０日
 41
0.6666666666666666
100
AcDbText
  0
LINE
  5
F1
330
1F
100
AcDbEntity
  8
3
  6
Continuous
 62
     6
370
    18
100
AcDbLine
 10
392.0235484936838
 20
661.3667310990709
 30
0.0
 11
1391.023548493684
 21
661.3667310990709
 31
0.0
  0
LINE
  5
F2
330
1F
100
AcDbEntity
  8
1
  6
DASHDOT
 62
    45
370
     9
100
AcDbLine
 10
408.5235484936838
 20
658.6978975042593
 30
0.0
 11
408.5235484936838
 21
628.4493378334766
 31
0.0
  0
LINE
  5
F3
330
1F
100
AcDbEntity
  8
1
  6
DASHDOT
 62
    45
370
     9
100
AcDbLine
 10
441.5235484936838
 20
664.1234119075523
 30
0.0
 11
441.5235484936838
 21
633.4271156112545
 31
0.0
  0
LINE
  5
F4
330
1F
100
AcDbEntity
  8
1
  6
DASHDOT
 62
    45
370
     9
100
AcDbLine
 10
1341.523548493684
 20
664.1234119075523
 30
0.0
 11
1341.523548493684
 21
633.4271156112545
 31
0.0
  0
LINE
  5
F5
330
1F
100
AcDbEntity
  8
1
  6
DASHDOT
 62
    45
370
     9
100
AcDbLine
 10
541.5235484936841
 20
664.1234119075523
 30
0.0
 11
541.5235484936841
 21
633.4271156112545
 31
0.0
  0
LINE
  5
F6
330
1F
100
AcDbEntity
  8
1
  6
DASHDOT
 62
    45
370
     9
100
AcDbLine
 10
641.5235484936841
 20
664.1234119075523
 30
0.0
 11
641.5235484936841
 21
633.4271156112545
 31
0.0
  0
LINE
  5
F7
330
1F
100
AcDbEntity
  8
1
  6
DASHDOT
 62
    45
370
     9
100
AcDbLine
 10
741.5235484936841
 20
664.1234119075523
 30
0.0
 11
741.5235484936841
 21
633.4271156112545
 31
0.0
  0
LINE
  5
F8
330
1F
100
AcDbEntity
  8
1
  6
DASHDOT
 62
    45
370
     9
100
AcDbLine
 10
841.5235484936841
 20
664.1234119075523
 30
0.0
 11
841.5235484936841
 21
633.4271156112545
 31
0.0
  0
LINE
  5
F9
330
1F
100
AcDbEntity
  8
1
  6
DASHDOT
 62
    45
370
     9
100
AcDbLine
 10
941.5235484936841
 20
664.1234119075523
 30
0.0
 11
941.5235484936841
 21
633.4271156112545
 31
0.0
  0
LINE
  5
FA
330
1F
100
AcDbEntity
  8
1
  6
DASHDOT
 62
    45
370
     9
100
AcDbLine
 10
1041.523548493684
 20
664.1234119075523
 30
0.0
 11
1041.523548493684
 21
633.4271156112545
 31
0.0
  0
LINE
  5
FB
330
1F
100
AcDbEntity
  8
1
  6
DASHDOT
 62
    45
370
     9
100
AcDbLine
 10
1141.523548493684
 20
664.1234119075523
 30
0.0
 11
1141.523548493684
 21
633.4271156112545
 31
0.0
  0
LINE
  5
FC
330
1F
100
AcDbEntity
  8
1
  6
DASHDOT
 62
    45
370
     9
100
AcDbLine
 10
1241.523548493684
 20
664.1234119075523
 30
0.0
 11
1241.523548493684
 21
633.4271156112545
 31
0.0
  0
DIMENSION
  5
108
330
1F
100
AcDbEntity
  8
6
  6
Continuous
 62
     7
370
     9
100
AcDbDimension
  2
Dim1
 10
392.0235484936843
 20
721.3667310990709
 30
0.0
 11
416.7735484936843
 21
730.3667310990709
 31
0.0
 70
   160
  1
<>
 71
     5
 42
-1.0
  3
Standard
100
AcDbAlignedDimension
 13
392.0235484936838
 23
661.3667310990709
 33
0.0
 14
441.5235484936838
 24
664.1234119075523
 34
0.0
100
AcDbRotatedDimension
1001
ACAD
1000
DSTYLE
1002
{
1070
   344
1005
3C
1070
   343
1005
3C
1070
   173
1070
     1
1070
   289
1070
     2
1070
   279
1070
     2
1070
   288
1070
     1
1070
    77
1070
     3
1070
   172
1070
     1
1070
   174
1070
     0
1070
    74
1070
     0
1070
    73
1070
     0
1070
   284
1070
     8
1070
    78
1070
     8
1070
   140
1040
3.0
1070
    40
1040
6.0
1070
    42
1040
2.0
1070
    44
1040
1.0
1070
    43
1040
10.0
1070
   271
1070
     2
1070
    41
1040
2.0
1002
}
  0
DIMENSION
  5
113
330
1F
100
AcDbEntity
  8
6
  6
Continuous
 62
     7
370
     9
100
AcDbDimension
  2
Dim2
 10
441.5235484936843
 20
721.3667310990709
 30
0.0
 11
891.5235484936841
 21
730.3667310990709
 31
0.0
 70
   160
  1
9@100=900
 71
     5
 42
-1.0
  3
Standard
100
AcDbAlignedDimension
 13
441.5235484936838
 23
664.1234119075523
 33
0.0
 14
1341.523548493684
 24
664.1234119075523
 34
0.0
100
AcDbRotatedDimension
1001
ACAD
1000
DSTYLE
1002
{
1070
   344
1005
3C
1070
   343
1005
3C
1070
   173
1070
     1
1070
   289
1070
     2
1070
   279
1070
     2
1070
   288
1070
     1
1070
    77
1070
     3
1070
   172
1070
     1
1070
   174
1070
     0
1070
    74
1070
     0
1070
    73
1070
     0
1070
   284
1070
     8
1070
    78
1070
     8
1070
   140
1040
3.0
1070
    40
1040
6.0
1070
    42
1040
2.0
1070
    44
1040
1.0
1070
    43
1040
10.0
1070
   271
1070
     2
1070
    41
1040
2.0
1002
}
  0
DIMENSION
  5
11E
330
1F
100
AcDbEntity
  8
6
  6
Continuous
 62
     7
370
     9
100
AcDbDimension
  2
Dim3
 10
1341.523548493684
 20
721.3667310990709
 30
0.0
 11
1366.273548493684
 21
730.3667310990709
 31
0.0
 70
   160
  1
<>
 71
     5
 42
-1.0
  3
Standard
100
AcDbAlignedDimension
 13
1341.523548493684
 23
664.1234119075523
 33
0.0
 14
1391.023548493684
 24
661.3667310990709
 34
0.0
100
AcDbRotatedDimension
1001
ACAD
1000
DSTYLE
1002
{
1070
   344
1005
3C
1070
   343
1005
3C
1070
   173
1070
     1
1070
   289
1070
     2
1070
   279
1070
     2
1070
   288
1070
     1
1070
    77
1070
     3
1070
   172
1070
     1
1070
   174
1070
     0
1070
    74
1070
     0
1070
    73
1070
     0
1070
   284
1070
     8
1070
    78
1070
     8
1070
   140
1040
3.0
1070
    40
1040
6.0
1070
    42
1040
2.0
1070
    44
1040
1.0
1070
    43
1040
10.0
1070
   271
1070
     2
1070
    41
1040
2.0
1002
}
  0
LINE
  5
11F
330
1F
100
AcDbEntity
  8
2
  6
Continuous
 62
    90
370
    18
100
AcDbLine
 10
392.0235484936838
 20
659.3667310990709
 30
0.0
 11
1391.023548493684
 21
659.3667310990709
 31
0.0
  0
DIMENSION
  5
12B
330
1F
100
AcDbEntity
  8
6
  6
Continuous
 62
     7
370
     9
100
AcDbDimension
  2
Dim4
 10
332.0235484936838
 20
661.3667310990711
 30
0.0
 11
323.0235484936838
 21
646.3667310990711
 31
0.0
 70
   160
  1
<>
 71
     5
 42
-1.0
  3
Standard
100
AcDbAlignedDimension
 13
392.0235484936838
 23
661.3667310990709
 33
0.0
 14
392.0235484936838
 24
631.3667310990709
 34
0.0
 50
89.99999999999991
100
AcDbRotatedDimension
1001
ACAD
1000
DSTYLE
1002
{
1070
   344
1005
3C
1070
   343
1005
3C
1070
   173
1070
     1
1070
   289
1070
     2
1070
   279
1070
     2
1070
   288
1070
     1
1070
    77
1070
     3
1070
   172
1070
     1
1070
   174
1070
     0
1070
    74
1070
     0
1070
    73
1070
     0
1070
   284
1070
     8
1070
    78
1070
     8
1070
   140
1040
3.0
1070
    40
1040
6.0
1070
    42
1040
2.0
1070
    44
1040
1.0
1070
    43
1040
10.0
1070
   271
1070
     2
1070
    41
1040
2.0
1002
}
  0
LINE
  5
12C
330
1F
100
AcDbEntity
  8
8
  6
Continuous
 62
   171
370
    18
100
AcDbLine
 10
1290.0
 20
342.0000000000001
 30
0.0
 11
1290.0
 21
438.0000000000001
 31
0.0
  0
TEXT
  5
12D
330
1F
100
AcDbEntity
  8
8
  6
Continuous
 62
   171
370
     9
100
AcDbText
 10
1317.0
 20
411.0000000000001
 30
0.0
 40
18.0
  1
耐荷重
100
AcDbText
  0
TEXT
  5
12E
330
1F
100
AcDbEntity
  8
8
  6
Continuous
 62
   171
370
     9
100
AcDbText
 10
1299.0
 20
351.0000000000001
 30
0.0
 40
18.0
  1
（歩道用）
100
AcDbText
  0
LINE
  5
12F
330
1F
100
AcDbEntity
  8
8
  6
Continuous
 62
   171
370
    18
100
AcDbLine
 10
1398.0
 20
342.0000000000001
 30
0.0
 11
1398.0
 21
438.0000000000001
 31
0.0
  0
LINE
  5
130
330
1F
100
AcDbEntity
  8
8
  6
Continuous
 62
   171
370
    18
100
AcDbLine
 10
1506.0
 20
342.0000000000001
 30
0.0
 11
1506.0
 21
438.0000000000001
 31
0.0
  0
LINE
  5
131
330
1F
100
AcDbEntity
  8
8
  6
Continuous
 62
   171
370
    18
100
AcDbLine
 10
1290.0
 20
342.0000000000001
 30
0.0
 11
1506.0
 21
342.0000000000001
 31
0.0
  0
LINE
  5
132
330
1F
100
AcDbEntity
  8
8
  6
Continuous
 62
   171
370
    18
100
AcDbLine
 10
1290.0
 20
438.0000000000001
 30
0.0
 11
1506.0
 21
438.0000000000001
 31
0.0
  0
LINE
  5
133
330
1F
100
AcDbEntity
  8
8
  6
Continuous
 62
   171
370
    18
100
AcDbLine
 10
1290.0
 20
402.0000000000001
 30
0.0
 11
1506.0
 21
402.0000000000001
 31
0.0
  0
TEXT
  5
134
330
1F
100
AcDbEntity
  8
8
  6
Continuous
 62
   171
370
     9
100
AcDbText
 10
1425.0
 20
411.0000000000001
 30
0.0
 40
18.0
  1
重　量
100
AcDbText
  0
TEXT
  5
135
330
1F
100
AcDbEntity
  8
8
  6
Continuous
 62
   171
370
     9
100
AcDbText
 10
1308.0
 20
375.0000000000001
 30
0.0
 40
18.0
  1
5.0kN/㎡
100
AcDbText
  0
INSERT
  5
13F
330
1F
100
AcDbEntity
  8
0
100
AcDbBlockReference
  2
*G17
 10
0.0
 20
0.0
 30
0.0
  0
CIRCLE
  5
140
330
1F
100
AcDbEntity
  8
2
  6
Continuous
 62
    90
370
    18
100
AcDbCircle
 10
441.5235484936838
 20
649.9667088402712
 30
0.0
 40
6.499999999999999
  0
CIRCLE
  5
141
330
1F
100
AcDbEntity
  8
1
  6
Continuous
 62
    45
370
     9
100
AcDbCircle
 10
441.5235484936838
 20
649.9667088402712
 30
0.0
 40
2.0
  0
INSERT
  5
14B
330
1F
100
AcDbEntity
  8
0
100
AcDbBlockReference
  2
*G18
 10
0.0
 20
0.0
 30
0.0
  0
CIRCLE
  5
14C
330
1F
100
AcDbEntity
  8
2
  6
Continuous
 62
    90
370
    18
100
AcDbCircle
 10
541.5235484936838
 20
649.9667088402712
 30
0.0
 40
6.499999999999999
  0
CIRCLE
  5
14D
330
1F
100
AcDbEntity
  8
1
  6
Continuous
 62
    45
370
     9
100
AcDbCircle
 10
541.5235484936838
 20
649.9667088402712
 30
0.0
 40
2.0
  0
INSERT
  5
157
330
1F
100
AcDbEntity
  8
0
100
AcDbBlockReference
  2
*G19
 10
0.0
 20
0.0
 30
0.0
  0
CIRCLE
  5
158
330
1F
100
AcDbEntity
  8
2
  6
Continuous
 62
    90
370
    18
100
AcDbCircle
 10
641.5235484936838
 20
649.9667088402712
 30
0.0
 40
6.499999999999999
  0
CIRCLE
  5
159
330
1F
100
AcDbEntity
  8
1
  6
Continuous
 62
    45
370
     9
100
AcDbCircle
 10
641.5235484936838
 20
649.9667088402712
 30
0.0
 40
2.0
  0
INSERT
  5
163
330
1F
100
AcDbEntity
  8
0
100
AcDbBlockReference
  2
*G20
 10
0.0
 20
0.0
 30
0.0
  0
CIRCLE
  5
164
330
1F
100
AcDbEntity
  8
2
  6
Continuous
 62
    90
370
    18
100
AcDbCircle
 10
741.5235484936838
 20
649.9667088402712
 30
0.0
 40
6.499999999999999
  0
CIRCLE
  5
165
330
1F
100
AcDbEntity
  8
1
  6
Continuous
 62
    45
370
     9
100
AcDbCircle
 10
741.5235484936838
 20
649.9667088402712
 30
0.0
 40
2.0
  0
INSERT
  5
16F
330
1F
100
AcDbEntity
  8
0
100
AcDbBlockReference
  2
*G21
 10
0.0
 20
0.0
 30
0.0
  0
CIRCLE
  5
170
330
1F
100
AcDbEntity
  8
2
  6
Continuous
 62
    90
370
    18
100
AcDbCircle
 10
841.5235484936838
 20
649.9667088402712
 30
0.0
 40
6.499999999999999
  0
CIRCLE
  5
171
330
1F
100
AcDbEntity
  8
1
  6
Continuous
 62
    45
370
     9
100
AcDbCircle
 10
841.5235484936838
 20
649.9667088402712
 30
0.0
 40
2.0
  0
INSERT
  5
17B
330
1F
100
AcDbEntity
  8
0
100
AcDbBlockReference
  2
*G22
 10
0.0
 20
0.0
 30
0.0
  0
CIRCLE
  5
17C
330
1F
100
AcDbEntity
  8
2
  6
Continuous
 62
    90
370
    18
100
AcDbCircle
 10
941.5235484936838
 20
649.9667088402712
 30
0.0
 40
6.499999999999999
  0
CIRCLE
  5
17D
330
1F
100
AcDbEntity
  8
1
  6
Continuous
 62
    45
370
     9
100
AcDbCircle
 10
941.5235484936838
 20
649.9667088402712
 30
0.0
 40
2.0
  0
INSERT
  5
187
330
1F
100
AcDbEntity
  8
0
100
AcDbBlockReference
  2
*G23
 10
0.0
 20
0.0
 30
0.0
  0
CIRCLE
  5
188
330
1F
100
AcDbEntity
  8
2
  6
Continuous
 62
    90
370
    18
100
AcDbCircle
 10
1041.523548493684
 20
649.9667088402712
 30
0.0
 40
6.499999999999999
  0
CIRCLE
  5
189
330
1F
100
AcDbEntity
  8
1
  6
Continuous
 62
    45
370
     9
100
AcDbCircle
 10
1041.523548493684
 20
649.9667088402712
 30
0.0
 40
2.0
  0
INSERT
  5
193
330
1F
100
AcDbEntity
  8
0
100
AcDbBlockReference
  2
*G24
 10
0.0
 20
0.0
 30
0.0
  0
CIRCLE
  5
194
330
1F
100
AcDbEntity
  8
2
  6
Continuous
 62
    90
370
    18
100
AcDbCircle
 10
1141.523548493684
 20
649.9667088402712
 30
0.0
 40
6.499999999999999
  0
CIRCLE
  5
195
330
1F
100
AcDbEntity
  8
1
  6
Continuous
 62
    45
370
     9
100
AcDbCircle
 10
1141.523548493684
 20
649.9667088402712
 30
0.0
 40
2.0
  0
INSERT
  5
19F
330
1F
100
AcDbEntity
  8
0
100
AcDbBlockReference
  2
*G25
 10
0.0
 20
0.0
 30
0.0
  0
CIRCLE
  5
1A0
330
1F
100
AcDbEntity
  8
2
  6
Continuous
 62
    90
370
    18
100
AcDbCircle
 10
1241.523548493684
 20
649.9667088402712
 30
0.0
 40
6.499999999999999
  0
CIRCLE
  5
1A1
330
1F
100
AcDbEntity
  8
1
  6
Continuous
 62
    45
370
     9
100
AcDbCircle
 10
1241.523548493684
 20
649.9667088402712
 30
0.0
 40
2.0
  0
INSERT
  5
1AB
330
1F
100
AcDbEntity
  8
0
100
AcDbBlockReference
  2
*G26
 10
0.0
 20
0.0
 30
0.0
  0
CIRCLE
  5
1AC
330
1F
100
AcDbEntity
  8
2
  6
Continuous
 62
    90
370
    18
100
AcDbCircle
 10
1341.523548493684
 20
649.9667088402712
 30
0.0
 40
6.499999999999999
  0
CIRCLE
  5
1AD
330
1F
100
AcDbEntity
  8
1
  6
Continuous
 62
    45
370
     9
100
AcDbCircle
 10
1341.523548493684
 20
649.9667088402712
 30
0.0
 40
2.0
  0
CIRCLE
  5
1AE
330
1F
100
AcDbEntity
  8
2
  6
Continuous
 62
    90
370
    18
100
AcDbCircle
 10
408.5235484936838
 20
646.3667310990709
 30
0.0
 40
9.0
  0
CIRCLE
  5
1AF
330
1F
100
AcDbEntity
  8
2
  6
Continuous
 62
    90
370
    18
100
AcDbCircle
 10
408.5235484936838
 20
646.3667310990709
 30
0.0
 40
7.0
  0
INSERT
  5
1B9
330
1F
100
AcDbEntity
  8
0
100
AcDbBlockReference
  2
*G27
 10
0.0
 20
0.0
 30
0.0
  0
LINE
  5
1BA
330
1F
100
AcDbEntity
  8
1
  6
DASHDOT
 62
    45
370
     9
100
AcDbLine
 10
691.5235484936838
 20
658.6978975042593
 30
0.0
 11
691.5235484936838
 21
628.4493378334766
 31
0.0
  0
CIRCLE
  5
1BB
330
1F
100
AcDbEntity
  8
2
  6
Continuous
 62
    90
370
    18
100
AcDbCircle
 10
691.5235484936838
 20
646.3667310990709
 30
0.0
 40
9.0
  0
CIRCLE
  5
1BC
330
1F
100
AcDbEntity
  8
2
  6
Continuous
 62
    90
370
    18
100
AcDbCircle
 10
691.5235484936838
 20
646.3667310990709
 30
0.0
 40
7.0
  0
INSERT
  5
1C6
330
1F
100
AcDbEntity
  8
0
100
AcDbBlockReference
  2
*G28
 10
0.0
 20
0.0
 30
0.0
  0
LINE
  5
1C7
330
1F
100
AcDbEntity
  8
1
  6
DASHDOT
 62
    45
370
     9
100
AcDbLine
 10
1091.523548493684
 20
658.6978975042593
 30
0.0
 11
1091.523548493684
 21
628.4493378334766
 31
0.0
  0
CIRCLE
  5
1C8
330
1F
100
AcDbEntity
  8
2
  6
Continuous
 62
    90
370
    18
100
AcDbCircle
 10
1091.523548493684
 20
646.3667310990709
 30
0.0
 40
9.0
  0
CIRCLE
  5
1C9
330
1F
100
AcDbEntity
  8
2
  6
Continuous
 62
    90
370
    18
100
AcDbCircle
 10
1091.523548493684
 20
646.3667310990709
 30
0.0
 40
7.0
  0
INSERT
  5
1D3
330
1F
100
AcDbEntity
  8
0
100
AcDbBlockReference
  2
*G29
 10
0.0
 20
0.0
 30
0.0
  0
LINE
  5
1D4
330
1F
100
AcDbEntity
  8
1
  6
DASHDOT
 62
    45
370
     9
100
AcDbLine
 10
1374.523548493684
 20
658.6978975042593
 30
0.0
 11
1374.523548493684
 21
628.4493378334766
 31
0.0
  0
CIRCLE
  5
1D5
330
1F
100
AcDbEntity
  8
2
  6
Continuous
 62
    90
370
    18
100
AcDbCircle
 10
1374.523548493684
 20
646.3667310990709
 30
0.0
 40
9.0
  0
CIRCLE
  5
1D6
330
1F
100
AcDbEntity
  8
2
  6
Continuous
 62
    90
370
    18
100
AcDbCircle
 10
1374.523548493684
 20
646.3667310990709
 30
0.0
 40
7.0
  0
INSERT
  5
1E0
330
1F
100
AcDbEntity
  8
0
100
AcDbBlockReference
  2
*G30
 10
0.0
 20
0.0
 30
0.0
  0
TEXT
  5
1E1
330
1F
100
AcDbEntity
  8
8
  6
Continuous
 62
   171
370
     9
100
AcDbText
 10
1506.0
 20
114.0
 30
0.0
 40
24.0
  1
隠塚
100
AcDbText
  0
TEXT
  5
1E2
330
1F
100
AcDbEntity
  8
8
  6
Continuous
 62
   171
370
     9
100
AcDbText
 10
1578.0
 20
114.0
 30
0.0
 40
24.0
  1
渋田
100
AcDbText
  0
TEXT
  5
1E3
330
1F
100
AcDbEntity
  8
8
  6
Continuous
 62
   171
370
     9
100
AcDbText
 10
1423.2
 20
364.5000000000001
 30
0.0
 40
18.0
  1
4.1kg/枚
 41
0.7999999999999999
100
AcDbText
  0
LINE
  5
1E4
330
1F
100
AcDbEntity
  8
3
  6
Continuous
 62
     6
370
    18
100
AcDbLine
 10
392.0235484936838
 20
941.2749159667592
 30
0.0
 11
1391.023548493684
 21
941.2749159667592
 31
0.0
  0
LINE
  5
1E5
330
1F
100
AcDbEntity
  8
1
  6
Continuous
 62
    45
370
     9
100
AcDbLine
 10
1389.523548493684
 20
938.2749159667592
 30
0.0
 11
1359.523548493684
 21
938.2749159667592
 31
0.0
  0
LINE
  5
1E6
330
1F
100
AcDbEntity
  8
1
  6
Continuous
 62
    45
370
     9
100
AcDbLine
 10
423.5235484936838
 20
938.2749159667592
 30
0.0
 11
393.5235484936838
 21
938.2749159667592
 31
0.0
  0
LINE
  5
1E7
330
1F
100
AcDbEntity
  8
3
  6
Continuous
 62
     6
370
    18
100
AcDbLine
 10
392.0235484936838
 20
816.2749159667592
 30
0.0
 11
1391.023548493684
 21
816.2749159667592
 31
0.0
  0
LINE
  5
1E8
330
1F
100
AcDbEntity
  8
1
  6
Continuous
 62
    45
370
     9
100
AcDbLine
 10
1389.523548493684
 20
819.2749159667592
 30
0.0
 11
1359.523548493684
 21
819.2749159667592
 31
0.0
  0
LINE
  5
1E9
330
1F
100
AcDbEntity
  8
1
  6
Continuous
 62
    45
370
     9
100
AcDbLine
 10
423.5235484936838
 20
819.2749159667592
 30
0.0
 11
393.5235484936838
 21
819.2749159667592
 31
0.0
  0
LINE
  5
1EA
330
1F
100
AcDbEntity
  8
1
  6
Continuous
 62
    45
370
     9
100
AcDbLine
 10
1359.523548493684
 20
941.2749159667592
 30
0.0
 11
1359.523548493684
 21
816.2749159667592
 31
0.0
  0
LINE
  5
1EB
330
1F
100
AcDbEntity
  8
1
  6
Continuous
 62
    45
370
     9
100
AcDbLine
 10
1389.523548493684
 20
816.2749159667592
 30
0.0
 11
1389.523548493684
 21
941.2749159667592
 31
0.0
  0
LINE
  5
1EC
330
1F
100
AcDbEntity
  8
1
  6
Continuous
 62
    45
370
     9
100
AcDbLine
 10
393.5235484936838
 20
941.2749159667592
 30
0.0
 11
393.5235484936838
 21
816.2749159667592
 31
0.0
  0
LINE
  5
1ED
330
1F
100
AcDbEntity
  8
1
  6
Continuous
 62
    45
370
     9
100
AcDbLine
 10
423.5235484936838
 20
816.2749159667592
 30
0.0
 11
423.5235484936838
 21
941.2749159667592
 31
0.0
  0
LINE
  5
1EE
330
1F
100
AcDbEntity
  8
1
  6
DASHDOT
 62
    45
370
     9
100
AcDbLine
 10
408.5235484936838
 20
975.0378489952996
 30
0.0
 11
408.5235484936838
 21
782.6912559429718
 31
0.0
  0
LINE
  5
1EF
330
1F
100
AcDbEntity
  8
1
  6
DASHDOT
 62
    45
370
     9
100
AcDbLine
 10
1374.523548493684
 20
975.0378489952996
 30
0.0
 11
1374.523548493684
 21
782.6912559429718
 31
0.0
  0
LINE
  5
1F0
330
1F
100
AcDbEntity
  8
1
  6
DASHDOT
 62
    45
370
     9
100
AcDbLine
 10
441.5235484936838
 20
975.0378489952996
 30
0.0
 11
441.5235484936838
 21
782.6912559429718
 31
0.0
  0
LINE
  5
1F1
330
1F
100
AcDbEntity
  8
1
  6
DASHDOT
 62
    45
370
     9
100
AcDbLine
 10
1341.523548493684
 20
975.0378489952996
 30
0.0
 11
1341.523548493684
 21
782.6912559429718
 31
0.0
  0
LINE
  5
1F2
330
1F
100
AcDbEntity
  8
1
  6
Continuous
 62
    45
370
     9
100
AcDbLine
 10
706.523548493684
 20
938.2749159667592
 30
0.0
 11
676.523548493684
 21
938.2749159667592
 31
0.0
  0
LINE
  5
1F3
330
1F
100
AcDbEntity
  8
1
  6
Continuous
 62
    45
370
     9
100
AcDbLine
 10
706.523548493684
 20
819.2749159667592
 30
0.0
 11
676.523548493684
 21
819.2749159667592
 31
0.0
  0
LINE
  5
1F4
330
1F
100
AcDbEntity
  8
1
  6
Continuous
 62
    45
370
     9
100
AcDbLine
 10
676.523548493684
 20
941.2749159667592
 30
0.0
 11
676.523548493684
 21
816.2749159667592
 31
0.0
  0
LINE
  5
1F5
330
1F
100
AcDbEntity
  8
1
  6
Continuous
 62
    45
370
     9
100
AcDbLine
 10
706.523548493684
 20
816.2749159667592
 30
0.0
 11
706.523548493684
 21
941.2749159667592
 31
0.0
  0
LINE
  5
1F6
330
1F
100
AcDbEntity
  8
1
  6
DASHDOT
 62
    45
370
     9
100
AcDbLine
 10
691.523548493684
 20
975.0378489952996
 30
0.0
 11
691.523548493684
 21
782.6912559429718
 31
0.0
  0
LINE
  5
1F7
330
1F
100
AcDbEntity
  8
1
  6
Continuous
 62
    45
370
     9
100
AcDbLine
 10
1106.523548493684
 20
938.2749159667592
 30
0.0
 11
1076.523548493684
 21
938.2749159667592
 31
0.0
  0
LINE
  5
1F8
330
1F
100
AcDbEntity
  8
1
  6
Continuous
 62
    45
370
     9
100
AcDbLine
 10
1106.523548493684
 20
819.2749159667592
 30
0.0
 11
1076.523548493684
 21
819.2749159667592
 31
0.0
  0
LINE
  5
1F9
330
1F
100
AcDbEntity
  8
1
  6
Continuous
 62
    45
370
     9
100
AcDbLine
 10
1076.523548493684
 20
941.2749159667592
 30
0.0
 11
1076.523548493684
 21
816.2749159667592
 31
0.0
  0
LINE
  5
1FA
330
1F
100
AcDbEntity
  8
1
  6
Continuous
 62
    45
370
     9
100
AcDbLine
 10
1106.523548493684
 20
816.2749159667592
 30
0.0
 11
1106.523548493684
 21
941.2749159667592
 31
0.0
  0
LINE
  5
1FB
330
1F
100
AcDbEntity
  8
1
  6
DASHDOT
 62
    45
370
     9
100
AcDbLine
 10
1091.523548493684
 20
975.0378489952996
 30
0.0
 11
1091.523548493684
 21
782.6912559429718
 31
0.0
  0
LINE
  5
1FC
330
1F
100
AcDbEntity
  8
1
  6
DASHDOT
 62
    45
370
     9
100
AcDbLine
 10
541.5235484936841
 20
975.0378489952996
 30
0.0
 11
541.5235484936841
 21
782.6912559429718
 31
0.0
  0
LINE
  5
1FD
330
1F
100
AcDbEntity
  8
1
  6
DASHDOT
 62
    45
370
     9
100
AcDbLine
 10
641.5235484936841
 20
975.0378489952996
 30
0.0
 11
641.5235484936841
 21
782.6912559429718
 31
0.0
  0
LINE
  5
1FE
330
1F
100
AcDbEntity
  8
1
  6
DASHDOT
 62
    45
370
     9
100
AcDbLine
 10
741.5235484936841
 20
975.0378489952996
 30
0.0
 11
741.5235484936841
 21
782.6912559429718
 31
0.0
  0
LINE
  5
1FF
330
1F
100
AcDbEntity
  8
1
  6
DASHDOT
 62
    45
370
     9
100
AcDbLine
 10
841.5235484936841
 20
975.0378489952996
 30
0.0
 11
841.5235484936841
 21
782.6912559429718
 31
0.0
  0
LINE
  5
200
330
1F
100
AcDbEntity
  8
1
  6
DASHDOT
 62
    45
370
     9
100
AcDbLine
 10
941.5235484936841
 20
975.0378489952996
 30
0.0
 11
941.5235484936841
 21
782.6912559429718
 31
0.0
  0
LINE
  5
201
330
1F
100
AcDbEntity
  8
1
  6
DASHDOT
 62
    45
370
     9
100
AcDbLine
 10
1041.523548493684
 20
975.0378489952996
 30
0.0
 11
1041.523548493684
 21
782.6912559429718
 31
0.0
  0
LINE
  5
202
330
1F
100
AcDbEntity
  8
1
  6
DASHDOT
 62
    45
370
     9
100
AcDbLine
 10
1141.523548493684
 20
975.0378489952996
 30
0.0
 11
1141.523548493684
 21
782.6912559429718
 31
0.0
  0
LINE
  5
203
330
1F
100
AcDbEntity
  8
1
  6
DASHDOT
 62
    45
370
     9
100
AcDbLine
 10
1241.523548493684
 20
975.0378489952996
 30
0.0
 11
1241.523548493684
 21
782.6912559429718
 31
0.0
  0
LINE
  5
204
330
1F
100
AcDbEntity
  8
3
  6
Continuous
 62
     6
370
    18
100
AcDbLine
 10
392.0235484936838
 20
941.2749159667592
 30
0.0
 11
392.0235484936838
 21
969.2749159667592
 31
0.0
  0
LINE
  5
205
330
1F
100
AcDbEntity
  8
3
  6
Continuous
 62
     6
370
    18
100
AcDbLine
 10
392.0235484936838
 20
969.2749159667592
 30
0.0
 11
394.0235484936838
 21
971.2749159667592
 31
0.0
  0
LINE
  5
206
330
1F
100
AcDbEntity
  8
3
  6
Continuous
 62
     6
370
    18
100
AcDbLine
 10
392.0235484936838
 20
816.2749159667592
 30
0.0
 11
392.0235484936838
 21
788.2749159667592
 31
0.0
  0
LINE
  5
207
330
1F
100
AcDbEntity
  8
3
  6
Continuous
 62
     6
370
    18
100
AcDbLine
 10
392.0235484936838
 20
788.2749159667592
 30
0.0
 11
394.0235484936838
 21
786.2749159667592
 31
0.0
  0
LINE
  5
208
330
1F
100
AcDbEntity
  8
3
  6
Continuous
 62
     6
370
    18
100
AcDbLine
 10
394.0235484936838
 20
786.2749159667592
 30
0.0
 11
1389.023548493684
 21
786.2749159667592
 31
0.0
  0
LINE
  5
209
330
1F
100
AcDbEntity
  8
3
  6
Continuous
 62
     6
370
    18
100
AcDbLine
 10
1391.023548493684
 20
816.2749159667592
 30
0.0
 11
1391.023548493684
 21
788.2749159667592
 31
0.0
  0
LINE
  5
20A
330
1F
100
AcDbEntity
  8
3
  6
Continuous
 62
     6
370
    18
100
AcDbLine
 10
1389.023548493684
 20
786.2749159667592
 30
0.0
 11
1391.023548493684
 21
788.2749159667592
 31
0.0
  0
LINE
  5
20B
330
1F
100
AcDbEntity
  8
3
  6
Continuous
 62
     6
370
    18
100
AcDbLine
 10
394.0235484936838
 20
971.2749159667592
 30
0.0
 11
1389.023548493684
 21
971.2749159667592
 31
0.0
  0
LINE
  5
20C
330
1F
100
AcDbEntity
  8
3
  6
Continuous
 62
     6
370
    18
100
AcDbLine
 10
1391.023548493684
 20
941.2749159667592
 30
0.0
 11
1391.023548493684
 21
969.2749159667592
 31
0.0
  0
LINE
  5
20D
330
1F
100
AcDbEntity
  8
3
  6
Continuous
 62
     6
370
    18
100
AcDbLine
 10
1389.023548493684
 20
971.2749159667592
 30
0.0
 11
1391.023548493684
 21
969.2749159667592
 31
0.0
  0
LINE
  5
20E
330
1F
100
AcDbEntity
  8
1
  6
Continuous
 62
    45
370
     9
100
AcDbLine
 10
393.5235484936838
 20
847.2749343710709
 30
0.0
 11
1389.523548493684
 21
847.2749343710709
 31
0.0
  0
LINE
  5
20F
330
1F
100
AcDbEntity
  8
1
  6
Continuous
 62
    45
370
     9
100
AcDbLine
 10
393.5235484936838
 20
842.2749343710709
 30
0.0
 11
1389.523548493684
 21
842.2749343710709
 31
0.0
  0
LINE
  5
210
330
1F
100
AcDbEntity
  8
1
  6
Continuous
 62
    45
370
     9
100
AcDbLine
 10
393.5235484936838
 20
859.2749343710718
 30
0.0
 11
1389.523548493684
 21
859.2749343710718
 31
0.0
  0
LINE
  5
211
330
1F
100
AcDbEntity
  8
1
  6
Continuous
 62
    45
370
     9
100
AcDbLine
 10
393.5235484936838
 20
864.2749343710718
 30
0.0
 11
1389.523548493684
 21
864.2749343710718
 31
0.0
  0
LINE
  5
212
330
1F
100
AcDbEntity
  8
1
  6
Continuous
 62
    45
370
     9
100
AcDbLine
 10
393.5235484936838
 20
876.2749343710677
 30
0.0
 11
1389.523548493684
 21
876.2749343710677
 31
0.0
  0
LINE
  5
213
330
1F
100
AcDbEntity
  8
1
  6
Continuous
 62
    45
370
     9
100
AcDbLine
 10
393.5235484936838
 20
881.2749343710677
 30
0.0
 11
1389.523548493684
 21
881.2749343710677
 31
0.0
  0
LINE
  5
214
330
1F
100
AcDbEntity
  8
1
  6
Continuous
 62
    45
370
     9
100
AcDbLine
 10
393.5235484936838
 20
864.2748607567289
 30
0.0
 11
1389.523548493684
 21
864.2748607567289
 31
0.0
  0
LINE
  5
215
330
1F
100
AcDbEntity
  8
1
  6
Continuous
 62
    45
370
     9
100
AcDbLine
 10
393.5235484936838
 20
893.2749343710686
 30
0.0
 11
1389.523548493684
 21
893.2749343710686
 31
0.0
  0
LINE
  5
216
330
1F
100
AcDbEntity
  8
1
  6
Continuous
 62
    45
370
     9
100
AcDbLine
 10
393.5235484936838
 20
881.2748607567294
 30
0.0
 11
1389.523548493684
 21
881.2748607567294
 31
0.0
  0
LINE
  5
217
330
1F
100
AcDbEntity
  8
1
  6
Continuous
 62
    45
370
     9
100
AcDbLine
 10
393.5235484936838
 20
876.2748607567294
 30
0.0
 11
1389.523548493684
 21
876.2748607567294
 31
0.0
  0
LINE
  5
218
330
1F
100
AcDbEntity
  8
1
  6
Continuous
 62
    45
370
     9
100
AcDbLine
 10
393.5235484936838
 20
898.2748607567303
 30
0.0
 11
1389.523548493684
 21
898.2748607567303
 31
0.0
  0
LINE
  5
219
330
1F
100
AcDbEntity
  8
1
  6
Continuous
 62
    45
370
     9
100
AcDbLine
 10
393.5235484936838
 20
893.2748607567303
 30
0.0
 11
1389.523548493684
 21
893.2748607567303
 31
0.0
  0
LINE
  5
21A
330
1F
100
AcDbEntity
  8
1
  6
Continuous
 62
    45
370
     9
100
AcDbLine
 10
393.5235484936838
 20
910.2748607567294
 30
0.0
 11
1389.523548493684
 21
910.2748607567294
 31
0.0
  0
LINE
  5
21B
330
1F
100
AcDbEntity
  8
1
  6
Continuous
 62
    45
370
     9
100
AcDbLine
 10
393.5235484936838
 20
915.2748607567294
 30
0.0
 11
1389.523548493684
 21
915.2748607567294
 31
0.0
  0
LINE
  5
21C
330
1F
100
AcDbEntity
  8
1
  6
Continuous
 62
    45
370
     9
100
AcDbLine
 10
393.5235484936838
 20
927.0748607567284
 30
0.0
 11
1389.523548493684
 21
927.0748607567284
 31
0.0
  0
LINE
  5
21D
330
1F
100
AcDbEntity
  8
1
  6
Continuous
 62
    45
370
     9
100
AcDbLine
 10
393.5235484936838
 20
932.0748607567284
 30
0.0
 11
1389.523548493684
 21
932.0748607567284
 31
0.0
  0
LINE
  5
21E
330
1F
100
AcDbEntity
  8
1
  6
Continuous
 62
    45
370
     9
100
AcDbLine
 10
393.5235484936838
 20
825.4749343710705
 30
0.0
 11
1389.523548493684
 21
825.4749343710705
 31
0.0
  0
LINE
  5
21F
330
1F
100
AcDbEntity
  8
1
  6
Continuous
 62
    45
370
     9
100
AcDbLine
 10
393.5235484936838
 20
830.4749343710705
 30
0.0
 11
1389.523548493684
 21
830.4749343710705
 31
0.0
  0
LINE
  5
220
330
1F
100
AcDbEntity
  8
1
  6
Continuous
 62
    45
370
     9
100
AcDbLine
 10
435.0235484936838
 20
850.4749343710716
 30
0.0
 11
435.0235484936838
 21
856.0749343710715
 31
0.0
  0
LINE
  5
221
330
1F
100
AcDbEntity
  8
1
  6
Continuous
 62
    45
370
     9
100
AcDbLine
 10
448.0235484936838
 20
850.4749343710716
 30
0.0
 11
448.0235484936838
 21
856.0749343710715
 31
0.0
  0
LINE
  5
222
330
1F
100
AcDbEntity
  8
1
  6
Continuous
 62
    45
370
     9
100
AcDbLine
 10
435.0235484936838
 20
873.0749343710675
 30
0.0
 11
435.0235484936838
 21
867.4749343710675
 31
0.0
  0
LINE
  5
223
330
1F
100
AcDbEntity
  8
1
  6
Continuous
 62
    45
370
     9
100
AcDbLine
 10
448.0235484936838
 20
873.0749343710675
 30
0.0
 11
448.0235484936838
 21
867.4749343710675
 31
0.0
  0
LINE
  5
224
330
1F
100
AcDbEntity
  8
1
  6
Continuous
 62
    45
370
     9
100
AcDbLine
 10
435.0235484936838
 20
890.0749343710684
 30
0.0
 11
435.0235484936838
 21
884.474934371068
 31
0.0
  0
LINE
  5
225
330
1F
100
AcDbEntity
  8
1
  6
Continuous
 62
    45
370
     9
100
AcDbLine
 10
435.0235484936838
 20
873.0748607567291
 30
0.0
 11
435.0235484936838
 21
867.4748607567292
 31
0.0
  0
LINE
  5
226
330
1F
100
AcDbEntity
  8
1
  6
Continuous
 62
    45
370
     9
100
AcDbLine
 10
448.0235484936838
 20
873.0748607567291
 30
0.0
 11
448.0235484936838
 21
867.4748607567292
 31
0.0
  0
LINE
  5
227
330
1F
100
AcDbEntity
  8
1
  6
Continuous
 62
    45
370
     9
100
AcDbLine
 10
435.0235484936838
 20
890.07486075673
 30
0.0
 11
435.0235484936838
 21
884.4748607567296
 31
0.0
  0
LINE
  5
228
330
1F
100
AcDbEntity
  8
1
  6
Continuous
 62
    45
370
     9
100
AcDbLine
 10
448.0235484936838
 20
890.07486075673
 30
0.0
 11
448.0235484936838
 21
884.4748607567296
 31
0.0
  0
LINE
  5
229
330
1F
100
AcDbEntity
  8
1
  6
Continuous
 62
    45
370
     9
100
AcDbLine
 10
435.0235484936838
 20
907.0748607567305
 30
0.0
 11
435.0235484936838
 21
901.4748607567305
 31
0.0
  0
LINE
  5
22A
330
1F
100
AcDbEntity
  8
1
  6
Continuous
 62
    45
370
     9
100
AcDbLine
 10
448.0235484936838
 20
907.0748607567305
 30
0.0
 11
448.0235484936838
 21
901.4748607567305
 31
0.0
  0
LINE
  5
22B
330
1F
100
AcDbEntity
  8
1
  6
Continuous
 62
    45
370
     9
100
AcDbLine
 10
448.0235484936838
 20
890.0749343710684
 30
0.0
 11
448.0235484936838
 21
887.2749343710705
 31
0.0
  0
LINE
  5
22C
330
1F
100
AcDbEntity
  8
1
  6
Continuous
 62
    45
370
     9
100
AcDbLine
 10
448.0235484936838
 20
887.2749343710705
 30
0.0
 11
448.0235484936838
 21
884.474934371068
 31
0.0
  0
LINE
  5
22D
330
1F
100
AcDbEntity
  8
1
  6
Continuous
 62
    45
370
     9
100
AcDbLine
 10
435.0235484936838
 20
923.8748607567295
 30
0.0
 11
435.0235484936838
 21
918.4748607567296
 31
0.0
  0
LINE
  5
22E
330
1F
100
AcDbEntity
  8
1
  6
Continuous
 62
    45
370
     9
100
AcDbLine
 10
448.0235484936838
 20
923.8748607567295
 30
0.0
 11
448.0235484936838
 21
918.4748607567296
 31
0.0
  0
LINE
  5
22F
330
1F
100
AcDbEntity
  8
1
  6
Continuous
 62
    45
370
     9
100
AcDbLine
 10
448.0235484936838
 20
941.2749159667592
 30
0.0
 11
448.0235484936838
 21
935.2748607560393
 31
0.0
  0
LINE
  5
230
330
1F
100
AcDbEntity
  8
1
  6
Continuous
 62
    45
370
     9
100
AcDbLine
 10
435.0235484936838
 20
941.2749159667592
 30
0.0
 11
435.0235484936838
 21
935.2748607560393
 31
0.0
  0
LINE
  5
231
330
1F
100
AcDbEntity
  8
1
  6
Continuous
 62
    45
370
     9
100
AcDbLine
 10
435.0235484936838
 20
833.6749343710708
 30
0.0
 11
435.0235484936838
 21
839.0749343710711
 31
0.0
  0
LINE
  5
232
330
1F
100
AcDbEntity
  8
1
  6
Continuous
 62
    45
370
     9
100
AcDbLine
 10
448.0235484936838
 20
833.6749343710708
 30
0.0
 11
448.0235484936838
 21
839.0749343710711
 31
0.0
  0
LINE
  5
233
330
1F
100
AcDbEntity
  8
1
  6
Continuous
 62
    45
370
     9
100
AcDbLine
 10
448.0235484936838
 20
816.2749159667592
 30
0.0
 11
448.0235484936838
 21
822.2749343710707
 31
0.0
  0
LINE
  5
234
330
1F
100
AcDbEntity
  8
1
  6
Continuous
 62
    45
370
     9
100
AcDbLine
 10
435.0235484936838
 20
816.2749159667592
 30
0.0
 11
435.0235484936838
 21
822.2749343710707
 31
0.0
  0
LINE
  5
235
330
1F
100
AcDbEntity
  8
1
  6
Continuous
 62
    45
370
     9
100
AcDbLine
 10
1348.023548493684
 20
850.4749343710716
 30
0.0
 11
1348.023548493684
 21
856.0749343710715
 31
0.0
  0
LINE
  5
236
330
1F
100
AcDbEntity
  8
1
  6
Continuous
 62
    45
370
     9
100
AcDbLine
 10
1335.023548493684
 20
850.4749343710716
 30
0.0
 11
1335.023548493684
 21
856.0749343710715
 31
0.0
  0
LINE
  5
237
330
1F
100
AcDbEntity
  8
1
  6
Continuous
 62
    45
370
     9
100
AcDbLine
 10
1348.023548493684
 20
873.0749343710675
 30
0.0
 11
1348.023548493684
 21
867.4749343710675
 31
0.0
  0
LINE
  5
238
330
1F
100
AcDbEntity
  8
1
  6
Continuous
 62
    45
370
     9
100
AcDbLine
 10
1335.023548493684
 20
873.0749343710675
 30
0.0
 11
1335.023548493684
 21
867.4749343710675
 31
0.0
  0
LINE
  5
239
330
1F
100
AcDbEntity
  8
1
  6
Continuous
 62
    45
370
     9
100
AcDbLine
 10
1348.023548493684
 20
890.0749343710684
 30
0.0
 11
1348.023548493684
 21
884.474934371068
 31
0.0
  0
LINE
  5
23A
330
1F
100
AcDbEntity
  8
1
  6
Continuous
 62
    45
370
     9
100
AcDbLine
 10
1348.023548493684
 20
873.0748607567291
 30
0.0
 11
1348.023548493684
 21
867.4748607567292
 31
0.0
  0
LINE
  5
23B
330
1F
100
AcDbEntity
  8
1
  6
Continuous
 62
    45
370
     9
100
AcDbLine
 10
1335.023548493684
 20
873.0748607567291
 30
0.0
 11
1335.023548493684
 21
867.4748607567292
 31
0.0
  0
LINE
  5
23C
330
1F
100
AcDbEntity
  8
1
  6
Continuous
 62
    45
370
     9
100
AcDbLine
 10
1348.023548493684
 20
890.07486075673
 30
0.0
 11
1348.023548493684
 21
884.4748607567296
 31
0.0
  0
LINE
  5
23D
330
1F
100
AcDbEntity
  8
1
  6
Continuous
 62
    45
370
     9
100
AcDbLine
 10
1335.023548493684
 20
890.07486075673
 30
0.0
 11
1335.023548493684
 21
884.4748607567296
 31
0.0
  0
LINE
  5
23E
330
1F
100
AcDbEntity
  8
1
  6
Continuous
 62
    45
370
     9
100
AcDbLine
 10
1348.023548493684
 20
907.0748607567305
 30
0.0
 11
1348.023548493684
 21
901.4748607567305
 31
0.0
  0
LINE
  5
23F
330
1F
100
AcDbEntity
  8
1
  6
Continuous
 62
    45
370
     9
100
AcDbLine
 10
1335.023548493684
 20
907.0748607567305
 30
0.0
 11
1335.023548493684
 21
901.4748607567305
 31
0.0
  0
LINE
  5
240
330
1F
100
AcDbEntity
  8
1
  6
Continuous
 62
    45
370
     9
100
AcDbLine
 10
1335.023548493684
 20
890.0749343710684
 30
0.0
 11
1335.023548493684
 21
887.2749343710705
 31
0.0
  0
LINE
  5
241
330
1F
100
AcDbEntity
  8
1
  6
Continuous
 62
    45
370
     9
100
AcDbLine
 10
1335.023548493684
 20
887.2749343710705
 30
0.0
 11
1335.023548493684
 21
884.474934371068
 31
0.0
  0
LINE
  5
242
330
1F
100
AcDbEntity
  8
1
  6
Continuous
 62
    45
370
     9
100
AcDbLine
 10
1348.023548493684
 20
923.8748607567295
 30
0.0
 11
1348.023548493684
 21
918.4748607567296
 31
0.0
  0
LINE
  5
243
330
1F
100
AcDbEntity
  8
1
  6
Continuous
 62
    45
370
     9
100
AcDbLine
 10
1335.023548493684
 20
923.8748607567295
 30
0.0
 11
1335.023548493684
 21
918.4748607567296
 31
0.0
  0
LINE
  5
244
330
1F
100
AcDbEntity
  8
1
  6
Continuous
 62
    45
370
     9
100
AcDbLine
 10
1335.023548493684
 20
941.2749159667592
 30
0.0
 11
1335.023548493684
 21
935.2748607560393
 31
0.0
  0
LINE
  5
245
330
1F
100
AcDbEntity
  8
1
  6
Continuous
 62
    45
370
     9
100
AcDbLine
 10
1348.023548493684
 20
941.2749159667592
 30
0.0
 11
1348.023548493684
 21
935.2748607560393
 31
0.0
  0
LINE
  5
246
330
1F
100
AcDbEntity
  8
1
  6
Continuous
 62
    45
370
     9
100
AcDbLine
 10
1348.023548493684
 20
833.6749343710708
 30
0.0
 11
1348.023548493684
 21
839.0749343710711
 31
0.0
  0
LINE
  5
247
330
1F
100
AcDbEntity
  8
1
  6
Continuous
 62
    45
370
     9
100
AcDbLine
 10
1335.023548493684
 20
833.6749343710708
 30
0.0
 11
1335.023548493684
 21
839.0749343710711
 31
0.0
  0
LINE
  5
248
330
1F
100
AcDbEntity
  8
1
  6
Continuous
 62
    45
370
     9
100
AcDbLine
 10
1335.023548493684
 20
816.2749159667592
 30
0.0
 11
1335.023548493684
 21
822.2749343710707
 31
0.0
  0
LINE
  5
249
330
1F
100
AcDbEntity
  8
1
  6
Continuous
 62
    45
370
     9
100
AcDbLine
 10
1348.023548493684
 20
816.2749159667592
 30
0.0
 11
1348.023548493684
 21
822.2749343710707
 31
0.0
  0
LINE
  5
24A
330
1F
100
AcDbEntity
  8
1
  6
Continuous
 62
    45
370
     9
100
AcDbLine
 10
535.0235484936841
 20
850.4749343710716
 30
0.0
 11
535.0235484936841
 21
856.0749343710715
 31
0.0
  0
LINE
  5
24B
330
1F
100
AcDbEntity
  8
1
  6
Continuous
 62
    45
370
     9
100
AcDbLine
 10
548.0235484936841
 20
850.4749343710716
 30
0.0
 11
548.0235484936841
 21
856.0749343710715
 31
0.0
  0
LINE
  5
24C
330
1F
100
AcDbEntity
  8
1
  6
Continuous
 62
    45
370
     9
100
AcDbLine
 10
535.0235484936841
 20
873.0749343710675
 30
0.0
 11
535.0235484936841
 21
867.4749343710675
 31
0.0
  0
LINE
  5
24D
330
1F
100
AcDbEntity
  8
1
  6
Continuous
 62
    45
370
     9
100
AcDbLine
 10
548.0235484936841
 20
873.0749343710675
 30
0.0
 11
548.0235484936841
 21
867.4749343710675
 31
0.0
  0
LINE
  5
24E
330
1F
100
AcDbEntity
  8
1
  6
Continuous
 62
    45
370
     9
100
AcDbLine
 10
535.0235484936841
 20
890.0749343710684
 30
0.0
 11
535.0235484936841
 21
884.474934371068
 31
0.0
  0
LINE
  5
24F
330
1F
100
AcDbEntity
  8
1
  6
Continuous
 62
    45
370
     9
100
AcDbLine
 10
535.0235484936841
 20
873.0748607567291
 30
0.0
 11
535.0235484936841
 21
867.4748607567292
 31
0.0
  0
LINE
  5
250
330
1F
100
AcDbEntity
  8
1
  6
Continuous
 62
    45
370
     9
100
AcDbLine
 10
548.0235484936841
 20
873.0748607567291
 30
0.0
 11
548.0235484936841
 21
867.4748607567292
 31
0.0
  0
LINE
  5
251
330
1F
100
AcDbEntity
  8
1
  6
Continuous
 62
    45
370
     9
100
AcDbLine
 10
535.0235484936841
 20
890.07486075673
 30
0.0
 11
535.0235484936841
 21
884.4748607567296
 31
0.0
  0
LINE
  5
252
330
1F
100
AcDbEntity
  8
1
  6
Continuous
 62
    45
370
     9
100
AcDbLine
 10
548.0235484936841
 20
890.07486075673
 30
0.0
 11
548.0235484936841
 21
884.4748607567296
 31
0.0
  0
LINE
  5
253
330
1F
100
AcDbEntity
  8
1
  6
Continuous
 62
    45
370
     9
100
AcDbLine
 10
535.0235484936841
 20
907.0748607567305
 30
0.0
 11
535.0235484936841
 21
901.4748607567305
 31
0.0
  0
LINE
  5
254
330
1F
100
AcDbEntity
  8
1
  6
Continuous
 62
    45
370
     9
100
AcDbLine
 10
548.0235484936841
 20
907.0748607567305
 30
0.0
 11
548.0235484936841
 21
901.4748607567305
 31
0.0
  0
LINE
  5
255
330
1F
100
AcDbEntity
  8
1
  6
Continuous
 62
    45
370
     9
100
AcDbLine
 10
548.0235484936841
 20
890.0749343710684
 30
0.0
 11
548.0235484936841
 21
887.2749343710705
 31
0.0
  0
LINE
  5
256
330
1F
100
AcDbEntity
  8
1
  6
Continuous
 62
    45
370
     9
100
AcDbLine
 10
548.0235484936841
 20
887.2749343710705
 30
0.0
 11
548.0235484936841
 21
884.474934371068
 31
0.0
  0
LINE
  5
257
330
1F
100
AcDbEntity
  8
1
  6
Continuous
 62
    45
370
     9
100
AcDbLine
 10
535.0235484936841
 20
923.8748607567295
 30
0.0
 11
535.0235484936841
 21
918.4748607567296
 31
0.0
  0
LINE
  5
258
330
1F
100
AcDbEntity
  8
1
  6
Continuous
 62
    45
370
     9
100
AcDbLine
 10
548.0235484936841
 20
923.8748607567295
 30
0.0
 11
548.0235484936841
 21
918.4748607567296
 31
0.0
  0
LINE
  5
259
330
1F
100
AcDbEntity
  8
1
  6
Continuous
 62
    45
370
     9
100
AcDbLine
 10
548.0235484936841
 20
941.2749159667592
 30
0.0
 11
548.0235484936841
 21
935.2748607560393
 31
0.0
  0
LINE
  5
25A
330
1F
100
AcDbEntity
  8
1
  6
Continuous
 62
    45
370
     9
100
AcDbLine
 10
535.0235484936841
 20
941.2749159667592
 30
0.0
 11
535.0235484936841
 21
935.2748607560393
 31
0.0
  0
LINE
  5
25B
330
1F
100
AcDbEntity
  8
1
  6
Continuous
 62
    45
370
     9
100
AcDbLine
 10
535.0235484936841
 20
833.6749343710708
 30
0.0
 11
535.0235484936841
 21
839.0749343710711
 31
0.0
  0
LINE
  5
25C
330
1F
100
AcDbEntity
  8
1
  6
Continuous
 62
    45
370
     9
100
AcDbLine
 10
548.0235484936841
 20
833.6749343710708
 30
0.0
 11
548.0235484936841
 21
839.0749343710711
 31
0.0
  0
LINE
  5
25D
330
1F
100
AcDbEntity
  8
1
  6
Continuous
 62
    45
370
     9
100
AcDbLine
 10
548.0235484936841
 20
816.2749159667592
 30
0.0
 11
548.0235484936841
 21
822.2749343710707
 31
0.0
  0
LINE
  5
25E
330
1F
100
AcDbEntity
  8
1
  6
Continuous
 62
    45
370
     9
100
AcDbLine
 10
535.0235484936841
 20
816.2749159667592
 30
0.0
 11
535.0235484936841
 21
822.2749343710707
 31
0.0
  0
LINE
  5
25F
330
1F
100
AcDbEntity
  8
1
  6
Continuous
 62
    45
370
     9
100
AcDbLine
 10
635.0235484936841
 20
850.4749343710716
 30
0.0
 11
635.0235484936841
 21
856.0749343710715
 31
0.0
  0
LINE
  5
260
330
1F
100
AcDbEntity
  8
1
  6
Continuous
 62
    45
370
     9
100
AcDbLine
 10
648.0235484936841
 20
850.4749343710716
 30
0.0
 11
648.0235484936841
 21
856.0749343710715
 31
0.0
  0
LINE
  5
261
330
1F
100
AcDbEntity
  8
1
  6
Continuous
 62
    45
370
     9
100
AcDbLine
 10
635.0235484936841
 20
873.0749343710675
 30
0.0
 11
635.0235484936841
 21
867.4749343710675
 31
0.0
  0
LINE
  5
262
330
1F
100
AcDbEntity
  8
1
  6
Continuous
 62
    45
370
     9
100
AcDbLine
 10
648.0235484936841
 20
873.0749343710675
 30
0.0
 11
648.0235484936841
 21
867.4749343710675
 31
0.0
  0
LINE
  5
263
330
1F
100
AcDbEntity
  8
1
  6
Continuous
 62
    45
370
     9
100
AcDbLine
 10
635.0235484936841
 20
890.0749343710684
 30
0.0
 11
635.0235484936841
 21
884.474934371068
 31
0.0
  0
LINE
  5
264
330
1F
100
AcDbEntity
  8
1
  6
Continuous
 62
    45
370
     9
100
AcDbLine
 10
635.0235484936841
 20
873.0748607567291
 30
0.0
 11
635.0235484936841
 21
867.4748607567292
 31
0.0
  0
LINE
  5
265
330
1F
100
AcDbEntity
  8
1
  6
Continuous
 62
    45
370
     9
100
AcDbLine
 10
648.0235484936841
 20
873.0748607567291
 30
0.0
 11
648.0235484936841
 21
867.4748607567292
 31
0.0
  0
LINE
  5
266
330
1F
100
AcDbEntity
  8
1
  6
Continuous
 62
    45
370
     9
100
AcDbLine
 10
635.0235484936841
 20
890.07486075673
 30
0.0
 11
635.0235484936841
 21
884.4748607567296
 31
0.0
  0
LINE
  5
267
330
1F
100
AcDbEntity
  8
1
  6
Continuous
 62
    45
370
     9
100
AcDbLine
 10
648.0235484936841
 20
890.07486075673
 30
0.0
 11
648.0235484936841
 21
884.4748607567296
 31
0.0
  0
LINE
  5
268
330
1F
100
AcDbEntity
  8
1
  6
Continuous
 62
    45
370
     9
100
AcDbLine
 10
635.0235484936841
 20
907.0748607567305
 30
0.0
 11
635.0235484936841
 21
901.4748607567305
 31
0.0
  0
LINE
  5
269
330
1F
100
AcDbEntity
  8
1
  6
Continuous
 62
    45
370
     9
100
AcDbLine
 10
648.0235484936841
 20
907.0748607567305
 30
0.0
 11
648.0235484936841
 21
901.4748607567305
 31
0.0
  0
LINE
  5
26A
330
1F
100
AcDbEntity
  8
1
  6
Continuous
 62
    45
370
     9
100
AcDbLine
 10
648.0235484936841
 20
890.0749343710684
 30
0.0
 11
648.0235484936841
 21
887.2749343710705
 31
0.0
  0
LINE
  5
26B
330
1F
100
AcDbEntity
  8
1
  6
Continuous
 62
    45
370
     9
100
AcDbLine
 10
648.0235484936841
 20
887.2749343710705
 30
0.0
 11
648.0235484936841
 21
884.474934371068
 31
0.0
  0
LINE
  5
26C
330
1F
100
AcDbEntity
  8
1
  6
Continuous
 62
    45
370
     9
100
AcDbLine
 10
635.0235484936841
 20
923.8748607567295
 30
0.0
 11
635.0235484936841
 21
918.4748607567296
 31
0.0
  0
LINE
  5
26D
330
1F
100
AcDbEntity
  8
1
  6
Continuous
 62
    45
370
     9
100
AcDbLine
 10
648.0235484936841
 20
923.8748607567295
 30
0.0
 11
648.0235484936841
 21
918.4748607567296
 31
0.0
  0
LINE
  5
26E
330
1F
100
AcDbEntity
  8
1
  6
Continuous
 62
    45
370
     9
100
AcDbLine
 10
648.0235484936841
 20
941.2749159667592
 30
0.0
 11
648.0235484936841
 21
935.2748607560393
 31
0.0
  0
LINE
  5
26F
330
1F
100
AcDbEntity
  8
1
  6
Continuous
 62
    45
370
     9
100
AcDbLine
 10
635.0235484936841
 20
941.2749159667592
 30
0.0
 11
635.0235484936841
 21
935.2748607560393
 31
0.0
  0
LINE
  5
270
330
1F
100
AcDbEntity
  8
1
  6
Continuous
 62
    45
370
     9
100
AcDbLine
 10
635.0235484936841
 20
833.6749343710708
 30
0.0
 11
635.0235484936841
 21
839.0749343710711
 31
0.0
  0
LINE
  5
271
330
1F
100
AcDbEntity
  8
1
  6
Continuous
 62
    45
370
     9
100
AcDbLine
 10
648.0235484936841
 20
833.6749343710708
 30
0.0
 11
648.0235484936841
 21
839.0749343710711
 31
0.0
  0
LINE
  5
272
330
1F
100
AcDbEntity
  8
1
  6
Continuous
 62
    45
370
     9
100
AcDbLine
 10
648.0235484936841
 20
816.2749159667592
 30
0.0
 11
648.0235484936841
 21
822.2749343710707
 31
0.0
  0
LINE
  5
273
330
1F
100
AcDbEntity
  8
1
  6
Continuous
 62
    45
370
     9
100
AcDbLine
 10
635.0235484936841
 20
816.2749159667592
 30
0.0
 11
635.0235484936841
 21
822.2749343710707
 31
0.0
  0
LINE
  5
274
330
1F
100
AcDbEntity
  8
1
  6
Continuous
 62
    45
370
     9
100
AcDbLine
 10
735.0235484936841
 20
850.4749343710716
 30
0.0
 11
735.0235484936841
 21
856.0749343710715
 31
0.0
  0
LINE
  5
275
330
1F
100
AcDbEntity
  8
1
  6
Continuous
 62
    45
370
     9
100
AcDbLine
 10
748.0235484936841
 20
850.4749343710716
 30
0.0
 11
748.0235484936841
 21
856.0749343710715
 31
0.0
  0
LINE
  5
276
330
1F
100
AcDbEntity
  8
1
  6
Continuous
 62
    45
370
     9
100
AcDbLine
 10
735.0235484936841
 20
873.0749343710675
 30
0.0
 11
735.0235484936841
 21
867.4749343710675
 31
0.0
  0
LINE
  5
277
330
1F
100
AcDbEntity
  8
1
  6
Continuous
 62
    45
370
     9
100
AcDbLine
 10
748.0235484936841
 20
873.0749343710675
 30
0.0
 11
748.0235484936841
 21
867.4749343710675
 31
0.0
  0
LINE
  5
278
330
1F
100
AcDbEntity
  8
1
  6
Continuous
 62
    45
370
     9
100
AcDbLine
 10
735.0235484936841
 20
890.0749343710684
 30
0.0
 11
735.0235484936841
 21
884.474934371068
 31
0.0
  0
LINE
  5
279
330
1F
100
AcDbEntity
  8
1
  6
Continuous
 62
    45
370
     9
100
AcDbLine
 10
735.0235484936841
 20
873.0748607567291
 30
0.0
 11
735.0235484936841
 21
867.4748607567292
 31
0.0
  0
LINE
  5
27A
330
1F
100
AcDbEntity
  8
1
  6
Continuous
 62
    45
370
     9
100
AcDbLine
 10
748.0235484936841
 20
873.0748607567291
 30
0.0
 11
748.0235484936841
 21
867.4748607567292
 31
0.0
  0
LINE
  5
27B
330
1F
100
AcDbEntity
  8
1
  6
Continuous
 62
    45
370
     9
100
AcDbLine
 10
735.0235484936841
 20
890.07486075673
 30
0.0
 11
735.0235484936841
 21
884.4748607567296
 31
0.0
  0
LINE
  5
27C
330
1F
100
AcDbEntity
  8
1
  6
Continuous
 62
    45
370
     9
100
AcDbLine
 10
748.0235484936841
 20
890.07486075673
 30
0.0
 11
748.0235484936841
 21
884.4748607567296
 31
0.0
  0
LINE
  5
27D
330
1F
100
AcDbEntity
  8
1
  6
Continuous
 62
    45
370
     9
100
AcDbLine
 10
735.0235484936841
 20
907.0748607567305
 30
0.0
 11
735.0235484936841
 21
901.4748607567305
 31
0.0
  0
LINE
  5
27E
330
1F
100
AcDbEntity
  8
1
  6
Continuous
 62
    45
370
     9
100
AcDbLine
 10
748.0235484936841
 20
907.0748607567305
 30
0.0
 11
748.0235484936841
 21
901.4748607567305
 31
0.0
  0
LINE
  5
27F
330
1F
100
AcDbEntity
  8
1
  6
Continuous
 62
    45
370
     9
100
AcDbLine
 10
748.0235484936841
 20
890.0749343710684
 30
0.0
 11
748.0235484936841
 21
887.2749343710705
 31
0.0
  0
LINE
  5
280
330
1F
100
AcDbEntity
  8
1
  6
Continuous
 62
    45
370
     9
100
AcDbLine
 10
748.0235484936841
 20
887.2749343710705
 30
0.0
 11
748.0235484936841
 21
884.474934371068
 31
0.0
  0
LINE
  5
281
330
1F
100
AcDbEntity
  8
1
  6
Continuous
 62
    45
370
     9
100
AcDbLine
 10
735.0235484936841
 20
923.8748607567295
 30
0.0
 11
735.0235484936841
 21
918.4748607567296
 31
0.0
  0
LINE
  5
282
330
1F
100
AcDbEntity
  8
1
  6
Continuous
 62
    45
370
     9
100
AcDbLine
 10
748.0235484936841
 20
923.8748607567295
 30
0.0
 11
748.0235484936841
 21
918.4748607567296
 31
0.0
  0
LINE
  5
283
330
1F
100
AcDbEntity
  8
1
  6
Continuous
 62
    45
370
     9
100
AcDbLine
 10
748.0235484936841
 20
941.2749159667592
 30
0.0
 11
748.0235484936841
 21
935.2748607560393
 31
0.0
  0
LINE
  5
284
330
1F
100
AcDbEntity
  8
1
  6
Continuous
 62
    45
370
     9
100
AcDbLine
 10
735.0235484936841
 20
941.2749159667592
 30
0.0
 11
735.0235484936841
 21
935.2748607560393
 31
0.0
  0
LINE
  5
285
330
1F
100
AcDbEntity
  8
1
  6
Continuous
 62
    45
370
     9
100
AcDbLine
 10
735.0235484936841
 20
833.6749343710708
 30
0.0
 11
735.0235484936841
 21
839.0749343710711
 31
0.0
  0
LINE
  5
286
330
1F
100
AcDbEntity
  8
1
  6
Continuous
 62
    45
370
     9
100
AcDbLine
 10
748.0235484936841
 20
833.6749343710708
 30
0.0
 11
748.0235484936841
 21
839.0749343710711
 31
0.0
  0
LINE
  5
287
330
1F
100
AcDbEntity
  8
1
  6
Continuous
 62
    45
370
     9
100
AcDbLine
 10
748.0235484936841
 20
816.2749159667592
 30
0.0
 11
748.0235484936841
 21
822.2749343710707
 31
0.0
  0
LINE
  5
288
330
1F
100
AcDbEntity
  8
1
  6
Continuous
 62
    45
370
     9
100
AcDbLine
 10
735.0235484936841
 20
816.2749159667592
 30
0.0
 11
735.0235484936841
 21
822.2749343710707
 31
0.0
  0
LINE
  5
289
330
1F
100
AcDbEntity
  8
1
  6
Continuous
 62
    45
370
     9
100
AcDbLine
 10
835.0235484936841
 20
850.4749343710716
 30
0.0
 11
835.0235484936841
 21
856.0749343710715
 31
0.0
  0
LINE
  5
28A
330
1F
100
AcDbEntity
  8
1
  6
Continuous
 62
    45
370
     9
100
AcDbLine
 10
848.0235484936841
 20
850.4749343710716
 30
0.0
 11
848.0235484936841
 21
856.0749343710715
 31
0.0
  0
LINE
  5
28B
330
1F
100
AcDbEntity
  8
1
  6
Continuous
 62
    45
370
     9
100
AcDbLine
 10
835.0235484936841
 20
873.0749343710675
 30
0.0
 11
835.0235484936841
 21
867.4749343710675
 31
0.0
  0
LINE
  5
28C
330
1F
100
AcDbEntity
  8
1
  6
Continuous
 62
    45
370
     9
100
AcDbLine
 10
848.0235484936841
 20
873.0749343710675
 30
0.0
 11
848.0235484936841
 21
867.4749343710675
 31
0.0
  0
LINE
  5
28D
330
1F
100
AcDbEntity
  8
1
  6
Continuous
 62
    45
370
     9
100
AcDbLine
 10
835.0235484936841
 20
890.0749343710684
 30
0.0
 11
835.0235484936841
 21
884.474934371068
 31
0.0
  0
LINE
  5
28E
330
1F
100
AcDbEntity
  8
1
  6
Continuous
 62
    45
370
     9
100
AcDbLine
 10
835.0235484936841
 20
873.0748607567291
 30
0.0
 11
835.0235484936841
 21
867.4748607567292
 31
0.0
  0
LINE
  5
28F
330
1F
100
AcDbEntity
  8
1
  6
Continuous
 62
    45
370
     9
100
AcDbLine
 10
848.0235484936841
 20
873.0748607567291
 30
0.0
 11
848.0235484936841
 21
867.4748607567292
 31
0.0
  0
LINE
  5
290
330
1F
100
AcDbEntity
  8
1
  6
Continuous
 62
    45
370
     9
100
AcDbLine
 10
835.0235484936841
 20
890.07486075673
 30
0.0
 11
835.0235484936841
 21
884.4748607567296
 31
0.0
  0
LINE
  5
291
330
1F
100
AcDbEntity
  8
1
  6
Continuous
 62
    45
370
     9
100
AcDbLine
 10
848.0235484936841
 20
890.07486075673
 30
0.0
 11
848.0235484936841
 21
884.4748607567296
 31
0.0
  0
LINE
  5
292
330
1F
100
AcDbEntity
  8
1
  6
Continuous
 62
    45
370
     9
100
AcDbLine
 10
835.0235484936841
 20
907.0748607567305
 30
0.0
 11
835.0235484936841
 21
901.4748607567305
 31
0.0
  0
LINE
  5
293
330
1F
100
AcDbEntity
  8
1
  6
Continuous
 62
    45
370
     9
100
AcDbLine
 10
848.0235484936841
 20
907.0748607567305
 30
0.0
 11
848.0235484936841
 21
901.4748607567305
 31
0.0
  0
LINE
  5
294
330
1F
100
AcDbEntity
  8
1
  6
Continuous
 62
    45
370
     9
100
AcDbLine
 10
848.0235484936841
 20
890.0749343710684
 30
0.0
 11
848.0235484936841
 21
887.2749343710705
 31
0.0
  0
LINE
  5
295
330
1F
100
AcDbEntity
  8
1
  6
Continuous
 62
    45
370
     9
100
AcDbLine
 10
848.0235484936841
 20
887.2749343710705
 30
0.0
 11
848.0235484936841
 21
884.474934371068
 31
0.0
  0
LINE
  5
296
330
1F
100
AcDbEntity
  8
1
  6
Continuous
 62
    45
370
     9
100
AcDbLine
 10
835.0235484936841
 20
923.8748607567295
 30
0.0
 11
835.0235484936841
 21
918.4748607567296
 31
0.0
  0
LINE
  5
297
330
1F
100
AcDbEntity
  8
1
  6
Continuous
 62
    45
370
     9
100
AcDbLine
 10
848.0235484936841
 20
923.8748607567295
 30
0.0
 11
848.0235484936841
 21
918.4748607567296
 31
0.0
  0
LINE
  5
298
330
1F
100
AcDbEntity
  8
1
  6
Continuous
 62
    45
370
     9
100
AcDbLine
 10
848.0235484936841
 20
941.2749159667592
 30
0.0
 11
848.0235484936841
 21
935.2748607560393
 31
0.0
  0
LINE
  5
299
330
1F
100
AcDbEntity
  8
1
  6
Continuous
 62
    45
370
     9
100
AcDbLine
 10
835.0235484936841
 20
941.2749159667592
 30
0.0
 11
835.0235484936841
 21
935.2748607560393
 31
0.0
  0
LINE
  5
29A
330
1F
100
AcDbEntity
  8
1
  6
Continuous
 62
    45
370
     9
100
AcDbLine
 10
835.0235484936841
 20
833.6749343710708
 30
0.0
 11
835.0235484936841
 21
839.0749343710711
 31
0.0
  0
LINE
  5
29B
330
1F
100
AcDbEntity
  8
1
  6
Continuous
 62
    45
370
     9
100
AcDbLine
 10
848.0235484936841
 20
833.6749343710708
 30
0.0
 11
848.0235484936841
 21
839.0749343710711
 31
0.0
  0
LINE
  5
29C
330
1F
100
AcDbEntity
  8
1
  6
Continuous
 62
    45
370
     9
100
AcDbLine
 10
848.0235484936841
 20
816.2749159667592
 30
0.0
 11
848.0235484936841
 21
822.2749343710707
 31
0.0
  0
LINE
  5
29D
330
1F
100
AcDbEntity
  8
1
  6
Continuous
 62
    45
370
     9
100
AcDbLine
 10
835.0235484936841
 20
816.2749159667592
 30
0.0
 11
835.0235484936841
 21
822.2749343710707
 31
0.0
  0
LINE
  5
29E
330
1F
100
AcDbEntity
  8
1
  6
Continuous
 62
    45
370
     9
100
AcDbLine
 10
935.0235484936841
 20
850.4749343710716
 30
0.0
 11
935.0235484936841
 21
856.0749343710715
 31
0.0
  0
LINE
  5
29F
330
1F
100
AcDbEntity
  8
1
  6
Continuous
 62
    45
370
     9
100
AcDbLine
 10
948.0235484936841
 20
850.4749343710716
 30
0.0
 11
948.0235484936841
 21
856.0749343710715
 31
0.0
  0
LINE
  5
2A0
330
1F
100
AcDbEntity
  8
1
  6
Continuous
 62
    45
370
     9
100
AcDbLine
 10
935.0235484936841
 20
873.0749343710675
 30
0.0
 11
935.0235484936841
 21
867.4749343710675
 31
0.0
  0
LINE
  5
2A1
330
1F
100
AcDbEntity
  8
1
  6
Continuous
 62
    45
370
     9
100
AcDbLine
 10
948.0235484936841
 20
873.0749343710675
 30
0.0
 11
948.0235484936841
 21
867.4749343710675
 31
0.0
  0
LINE
  5
2A2
330
1F
100
AcDbEntity
  8
1
  6
Continuous
 62
    45
370
     9
100
AcDbLine
 10
935.0235484936841
 20
890.0749343710684
 30
0.0
 11
935.0235484936841
 21
884.474934371068
 31
0.0
  0
LINE
  5
2A3
330
1F
100
AcDbEntity
  8
1
  6
Continuous
 62
    45
370
     9
100
AcDbLine
 10
935.0235484936841
 20
873.0748607567291
 30
0.0
 11
935.0235484936841
 21
867.4748607567292
 31
0.0
  0
LINE
  5
2A4
330
1F
100
AcDbEntity
  8
1
  6
Continuous
 62
    45
370
     9
100
AcDbLine
 10
948.0235484936841
 20
873.0748607567291
 30
0.0
 11
948.0235484936841
 21
867.4748607567292
 31
0.0
  0
LINE
  5
2A5
330
1F
100
AcDbEntity
  8
1
  6
Continuous
 62
    45
370
     9
100
AcDbLine
 10
935.0235484936841
 20
890.07486075673
 30
0.0
 11
935.0235484936841
 21
884.4748607567296
 31
0.0
  0
LINE
  5
2A6
330
1F
100
AcDbEntity
  8
1
  6
Continuous
 62
    45
370
     9
100
AcDbLine
 10
948.0235484936841
 20
890.07486075673
 30
0.0
 11
948.0235484936841
 21
884.4748607567296
 31
0.0
  0
LINE
  5
2A7
330
1F
100
AcDbEntity
  8
1
  6
Continuous
 62
    45
370
     9
100
AcDbLine
 10
935.0235484936841
 20
907.0748607567305
 30
0.0
 11
935.0235484936841
 21
901.4748607567305
 31
0.0
  0
LINE
  5
2A8
330
1F
100
AcDbEntity
  8
1
  6
Continuous
 62
    45
370
     9
100
AcDbLine
 10
948.0235484936841
 20
907.0748607567305
 30
0.0
 11
948.0235484936841
 21
901.4748607567305
 31
0.0
  0
LINE
  5
2A9
330
1F
100
AcDbEntity
  8
1
  6
Continuous
 62
    45
370
     9
100
AcDbLine
 10
948.0235484936841
 20
890.0749343710684
 30
0.0
 11
948.0235484936841
 21
887.2749343710705
 31
0.0
  0
LINE
  5
2AA
330
1F
100
AcDbEntity
  8
1
  6
Continuous
 62
    45
370
     9
100
AcDbLine
 10
948.0235484936841
 20
887.2749343710705
 30
0.0
 11
948.0235484936841
 21
884.474934371068
 31
0.0
  0
LINE
  5
2AB
330
1F
100
AcDbEntity
  8
1
  6
Continuous
 62
    45
370
     9
100
AcDbLine
 10
935.0235484936841
 20
923.8748607567295
 30
0.0
 11
935.0235484936841
 21
918.4748607567296
 31
0.0
  0
LINE
  5
2AC
330
1F
100
AcDbEntity
  8
1
  6
Continuous
 62
    45
370
     9
100
AcDbLine
 10
948.0235484936841
 20
923.8748607567295
 30
0.0
 11
948.0235484936841
 21
918.4748607567296
 31
0.0
  0
LINE
  5
2AD
330
1F
100
AcDbEntity
  8
1
  6
Continuous
 62
    45
370
     9
100
AcDbLine
 10
948.0235484936841
 20
941.2749159667592
 30
0.0
 11
948.0235484936841
 21
935.2748607560393
 31
0.0
  0
LINE
  5
2AE
330
1F
100
AcDbEntity
  8
1
  6
Continuous
 62
    45
370
     9
100
AcDbLine
 10
935.0235484936841
 20
941.2749159667592
 30
0.0
 11
935.0235484936841
 21
935.2748607560393
 31
0.0
  0
LINE
  5
2AF
330
1F
100
AcDbEntity
  8
1
  6
Continuous
 62
    45
370
     9
100
AcDbLine
 10
935.0235484936841
 20
833.6749343710708
 30
0.0
 11
935.0235484936841
 21
839.0749343710711
 31
0.0
  0
LINE
  5
2B0
330
1F
100
AcDbEntity
  8
1
  6
Continuous
 62
    45
370
     9
100
AcDbLine
 10
948.0235484936841
 20
833.6749343710708
 30
0.0
 11
948.0235484936841
 21
839.0749343710711
 31
0.0
  0
LINE
  5
2B1
330
1F
100
AcDbEntity
  8
1
  6
Continuous
 62
    45
370
     9
100
AcDbLine
 10
948.0235484936841
 20
816.2749159667592
 30
0.0
 11
948.0235484936841
 21
822.2749343710707
 31
0.0
  0
LINE
  5
2B2
330
1F
100
AcDbEntity
  8
1
  6
Continuous
 62
    45
370
     9
100
AcDbLine
 10
935.0235484936841
 20
816.2749159667592
 30
0.0
 11
935.0235484936841
 21
822.2749343710707
 31
0.0
  0
LINE
  5
2B3
330
1F
100
AcDbEntity
  8
1
  6
Continuous
 62
    45
370
     9
100
AcDbLine
 10
1035.023548493684
 20
850.4749343710716
 30
0.0
 11
1035.023548493684
 21
856.0749343710715
 31
0.0
  0
LINE
  5
2B4
330
1F
100
AcDbEntity
  8
1
  6
Continuous
 62
    45
370
     9
100
AcDbLine
 10
1048.023548493684
 20
850.4749343710716
 30
0.0
 11
1048.023548493684
 21
856.0749343710715
 31
0.0
  0
LINE
  5
2B5
330
1F
100
AcDbEntity
  8
1
  6
Continuous
 62
    45
370
     9
100
AcDbLine
 10
1035.023548493684
 20
873.0749343710675
 30
0.0
 11
1035.023548493684
 21
867.4749343710675
 31
0.0
  0
LINE
  5
2B6
330
1F
100
AcDbEntity
  8
1
  6
Continuous
 62
    45
370
     9
100
AcDbLine
 10
1048.023548493684
 20
873.0749343710675
 30
0.0
 11
1048.023548493684
 21
867.4749343710675
 31
0.0
  0
LINE
  5
2B7
330
1F
100
AcDbEntity
  8
1
  6
Continuous
 62
    45
370
     9
100
AcDbLine
 10
1035.023548493684
 20
890.0749343710684
 30
0.0
 11
1035.023548493684
 21
884.474934371068
 31
0.0
  0
LINE
  5
2B8
330
1F
100
AcDbEntity
  8
1
  6
Continuous
 62
    45
370
     9
100
AcDbLine
 10
1035.023548493684
 20
873.0748607567291
 30
0.0
 11
1035.023548493684
 21
867.4748607567292
 31
0.0
  0
LINE
  5
2B9
330
1F
100
AcDbEntity
  8
1
  6
Continuous
 62
    45
370
     9
100
AcDbLine
 10
1048.023548493684
 20
873.0748607567291
 30
0.0
 11
1048.023548493684
 21
867.4748607567292
 31
0.0
  0
LINE
  5
2BA
330
1F
100
AcDbEntity
  8
1
  6
Continuous
 62
    45
370
     9
100
AcDbLine
 10
1035.023548493684
 20
890.07486075673
 30
0.0
 11
1035.023548493684
 21
884.4748607567296
 31
0.0
  0
LINE
  5
2BB
330
1F
100
AcDbEntity
  8
1
  6
Continuous
 62
    45
370
     9
100
AcDbLine
 10
1048.023548493684
 20
890.07486075673
 30
0.0
 11
1048.023548493684
 21
884.4748607567296
 31
0.0
  0
LINE
  5
2BC
330
1F
100
AcDbEntity
  8
1
  6
Continuous
 62
    45
370
     9
100
AcDbLine
 10
1035.023548493684
 20
907.0748607567305
 30
0.0
 11
1035.023548493684
 21
901.4748607567305
 31
0.0
  0
LINE
  5
2BD
330
1F
100
AcDbEntity
  8
1
  6
Continuous
 62
    45
370
     9
100
AcDbLine
 10
1048.023548493684
 20
907.0748607567305
 30
0.0
 11
1048.023548493684
 21
901.4748607567305
 31
0.0
  0
LINE
  5
2BE
330
1F
100
AcDbEntity
  8
1
  6
Continuous
 62
    45
370
     9
100
AcDbLine
 10
1048.023548493684
 20
890.0749343710684
 30
0.0
 11
1048.023548493684
 21
887.2749343710705
 31
0.0
  0
LINE
  5
2BF
330
1F
100
AcDbEntity
  8
1
  6
Continuous
 62
    45
370
     9
100
AcDbLine
 10
1048.023548493684
 20
887.2749343710705
 30
0.0
 11
1048.023548493684
 21
884.474934371068
 31
0.0
  0
LINE
  5
2C0
330
1F
100
AcDbEntity
  8
1
  6
Continuous
 62
    45
370
     9
100
AcDbLine
 10
1035.023548493684
 20
923.8748607567295
 30
0.0
 11
1035.023548493684
 21
918.4748607567296
 31
0.0
  0
LINE
  5
2C1
330
1F
100
AcDbEntity
  8
1
  6
Continuous
 62
    45
370
     9
100
AcDbLine
 10
1048.023548493684
 20
923.8748607567295
 30
0.0
 11
1048.023548493684
 21
918.4748607567296
 31
0.0
  0
LINE
  5
2C2
330
1F
100
AcDbEntity
  8
1
  6
Continuous
 62
    45
370
     9
100
AcDbLine
 10
1048.023548493684
 20
941.2749159667592
 30
0.0
 11
1048.023548493684
 21
935.2748607560393
 31
0.0
  0
LINE
  5
2C3
330
1F
100
AcDbEntity
  8
1
  6
Continuous
 62
    45
370
     9
100
AcDbLine
 10
1035.023548493684
 20
941.2749159667592
 30
0.0
 11
1035.023548493684
 21
935.2748607560393
 31
0.0
  0
LINE
  5
2C4
330
1F
100
AcDbEntity
  8
1
  6
Continuous
 62
    45
370
     9
100
AcDbLine
 10
1035.023548493684
 20
833.6749343710708
 30
0.0
 11
1035.023548493684
 21
839.0749343710711
 31
0.0
  0
LINE
  5
2C5
330
1F
100
AcDbEntity
  8
1
  6
Continuous
 62
    45
370
     9
100
AcDbLine
 10
1048.023548493684
 20
833.6749343710708
 30
0.0
 11
1048.023548493684
 21
839.0749343710711
 31
0.0
  0
LINE
  5
2C6
330
1F
100
AcDbEntity
  8
1
  6
Continuous
 62
    45
370
     9
100
AcDbLine
 10
1048.023548493684
 20
816.2749159667592
 30
0.0
 11
1048.023548493684
 21
822.2749343710707
 31
0.0
  0
LINE
  5
2C7
330
1F
100
AcDbEntity
  8
1
  6
Continuous
 62
    45
370
     9
100
AcDbLine
 10
1035.023548493684
 20
816.2749159667592
 30
0.0
 11
1035.023548493684
 21
822.2749343710707
 31
0.0
  0
LINE
  5
2C8
330
1F
100
AcDbEntity
  8
1
  6
Continuous
 62
    45
370
     9
100
AcDbLine
 10
1135.023548493684
 20
850.4749343710716
 30
0.0
 11
1135.023548493684
 21
856.0749343710715
 31
0.0
  0
LINE
  5
2C9
330
1F
100
AcDbEntity
  8
1
  6
Continuous
 62
    45
370
     9
100
AcDbLine
 10
1148.023548493684
 20
850.4749343710716
 30
0.0
 11
1148.023548493684
 21
856.0749343710715
 31
0.0
  0
LINE
  5
2CA
330
1F
100
AcDbEntity
  8
1
  6
Continuous
 62
    45
370
     9
100
AcDbLine
 10
1135.023548493684
 20
873.0749343710675
 30
0.0
 11
1135.023548493684
 21
867.4749343710675
 31
0.0
  0
LINE
  5
2CB
330
1F
100
AcDbEntity
  8
1
  6
Continuous
 62
    45
370
     9
100
AcDbLine
 10
1148.023548493684
 20
873.0749343710675
 30
0.0
 11
1148.023548493684
 21
867.4749343710675
 31
0.0
  0
LINE
  5
2CC
330
1F
100
AcDbEntity
  8
1
  6
Continuous
 62
    45
370
     9
100
AcDbLine
 10
1135.023548493684
 20
890.0749343710684
 30
0.0
 11
1135.023548493684
 21
884.474934371068
 31
0.0
  0
LINE
  5
2CD
330
1F
100
AcDbEntity
  8
1
  6
Continuous
 62
    45
370
     9
100
AcDbLine
 10
1135.023548493684
 20
873.0748607567291
 30
0.0
 11
1135.023548493684
 21
867.4748607567292
 31
0.0
  0
LINE
  5
2CE
330
1F
100
AcDbEntity
  8
1
  6
Continuous
 62
    45
370
     9
100
AcDbLine
 10
1148.023548493684
 20
873.0748607567291
 30
0.0
 11
1148.023548493684
 21
867.4748607567292
 31
0.0
  0
LINE
  5
2CF
330
1F
100
AcDbEntity
  8
1
  6
Continuous
 62
    45
370
     9
100
AcDbLine
 10
1135.023548493684
 20
890.07486075673
 30
0.0
 11
1135.023548493684
 21
884.4748607567296
 31
0.0
  0
LINE
  5
2D0
330
1F
100
AcDbEntity
  8
1
  6
Continuous
 62
    45
370
     9
100
AcDbLine
 10
1148.023548493684
 20
890.07486075673
 30
0.0
 11
1148.023548493684
 21
884.4748607567296
 31
0.0
  0
LINE
  5
2D1
330
1F
100
AcDbEntity
  8
1
  6
Continuous
 62
    45
370
     9
100
AcDbLine
 10
1135.023548493684
 20
907.0748607567305
 30
0.0
 11
1135.023548493684
 21
901.4748607567305
 31
0.0
  0
LINE
  5
2D2
330
1F
100
AcDbEntity
  8
1
  6
Continuous
 62
    45
370
     9
100
AcDbLine
 10
1148.023548493684
 20
907.0748607567305
 30
0.0
 11
1148.023548493684
 21
901.4748607567305
 31
0.0
  0
LINE
  5
2D3
330
1F
100
AcDbEntity
  8
1
  6
Continuous
 62
    45
370
     9
100
AcDbLine
 10
1148.023548493684
 20
890.0749343710684
 30
0.0
 11
1148.023548493684
 21
887.2749343710705
 31
0.0
  0
LINE
  5
2D4
330
1F
100
AcDbEntity
  8
1
  6
Continuous
 62
    45
370
     9
100
AcDbLine
 10
1148.023548493684
 20
887.2749343710705
 30
0.0
 11
1148.023548493684
 21
884.474934371068
 31
0.0
  0
LINE
  5
2D5
330
1F
100
AcDbEntity
  8
1
  6
Continuous
 62
    45
370
     9
100
AcDbLine
 10
1135.023548493684
 20
923.8748607567295
 30
0.0
 11
1135.023548493684
 21
918.4748607567296
 31
0.0
  0
LINE
  5
2D6
330
1F
100
AcDbEntity
  8
1
  6
Continuous
 62
    45
370
     9
100
AcDbLine
 10
1148.023548493684
 20
923.8748607567295
 30
0.0
 11
1148.023548493684
 21
918.4748607567296
 31
0.0
  0
LINE
  5
2D7
330
1F
100
AcDbEntity
  8
1
  6
Continuous
 62
    45
370
     9
100
AcDbLine
 10
1148.023548493684
 20
941.2749159667592
 30
0.0
 11
1148.023548493684
 21
935.2748607560393
 31
0.0
  0
LINE
  5
2D8
330
1F
100
AcDbEntity
  8
1
  6
Continuous
 62
    45
370
     9
100
AcDbLine
 10
1135.023548493684
 20
941.2749159667592
 30
0.0
 11
1135.023548493684
 21
935.2748607560393
 31
0.0
  0
LINE
  5
2D9
330
1F
100
AcDbEntity
  8
1
  6
Continuous
 62
    45
370
     9
100
AcDbLine
 10
1135.023548493684
 20
833.6749343710708
 30
0.0
 11
1135.023548493684
 21
839.0749343710711
 31
0.0
  0
LINE
  5
2DA
330
1F
100
AcDbEntity
  8
1
  6
Continuous
 62
    45
370
     9
100
AcDbLine
 10
1148.023548493684
 20
833.6749343710708
 30
0.0
 11
1148.023548493684
 21
839.0749343710711
 31
0.0
  0
LINE
  5
2DB
330
1F
100
AcDbEntity
  8
1
  6
Continuous
 62
    45
370
     9
100
AcDbLine
 10
1148.023548493684
 20
816.2749159667592
 30
0.0
 11
1148.023548493684
 21
822.2749343710707
 31
0.0
  0
LINE
  5
2DC
330
1F
100
AcDbEntity
  8
1
  6
Continuous
 62
    45
370
     9
100
AcDbLine
 10
1135.023548493684
 20
816.2749159667592
 30
0.0
 11
1135.023548493684
 21
822.2749343710707
 31
0.0
  0
LINE
  5
2DD
330
1F
100
AcDbEntity
  8
1
  6
Continuous
 62
    45
370
     9
100
AcDbLine
 10
1235.023548493684
 20
850.4749343710716
 30
0.0
 11
1235.023548493684
 21
856.0749343710715
 31
0.0
  0
LINE
  5
2DE
330
1F
100
AcDbEntity
  8
1
  6
Continuous
 62
    45
370
     9
100
AcDbLine
 10
1248.023548493684
 20
850.4749343710716
 30
0.0
 11
1248.023548493684
 21
856.0749343710715
 31
0.0
  0
LINE
  5
2DF
330
1F
100
AcDbEntity
  8
1
  6
Continuous
 62
    45
370
     9
100
AcDbLine
 10
1235.023548493684
 20
873.0749343710675
 30
0.0
 11
1235.023548493684
 21
867.4749343710675
 31
0.0
  0
LINE
  5
2E0
330
1F
100
AcDbEntity
  8
1
  6
Continuous
 62
    45
370
     9
100
AcDbLine
 10
1248.023548493684
 20
873.0749343710675
 30
0.0
 11
1248.023548493684
 21
867.4749343710675
 31
0.0
  0
LINE
  5
2E1
330
1F
100
AcDbEntity
  8
1
  6
Continuous
 62
    45
370
     9
100
AcDbLine
 10
1235.023548493684
 20
890.0749343710684
 30
0.0
 11
1235.023548493684
 21
884.474934371068
 31
0.0
  0
LINE
  5
2E2
330
1F
100
AcDbEntity
  8
1
  6
Continuous
 62
    45
370
     9
100
AcDbLine
 10
1235.023548493684
 20
873.0748607567291
 30
0.0
 11
1235.023548493684
 21
867.4748607567292
 31
0.0
  0
LINE
  5
2E3
330
1F
100
AcDbEntity
  8
1
  6
Continuous
 62
    45
370
     9
100
AcDbLine
 10
1248.023548493684
 20
873.0748607567291
 30
0.0
 11
1248.023548493684
 21
867.4748607567292
 31
0.0
  0
LINE
  5
2E4
330
1F
100
AcDbEntity
  8
1
  6
Continuous
 62
    45
370
     9
100
AcDbLine
 10
1235.023548493684
 20
890.07486075673
 30
0.0
 11
1235.023548493684
 21
884.4748607567296
 31
0.0
  0
LINE
  5
2E5
330
1F
100
AcDbEntity
  8
1
  6
Continuous
 62
    45
370
     9
100
AcDbLine
 10
1248.023548493684
 20
890.07486075673
 30
0.0
 11
1248.023548493684
 21
884.4748607567296
 31
0.0
  0
LINE
  5
2E6
330
1F
100
AcDbEntity
  8
1
  6
Continuous
 62
    45
370
     9
100
AcDbLine
 10
1235.023548493684
 20
907.0748607567305
 30
0.0
 11
1235.023548493684
 21
901.4748607567305
 31
0.0
  0
LINE
  5
2E7
330
1F
100
AcDbEntity
  8
1
  6
Continuous
 62
    45
370
     9
100
AcDbLine
 10
1248.023548493684
 20
907.0748607567305
 30
0.0
 11
1248.023548493684
 21
901.4748607567305
 31
0.0
  0
LINE
  5
2E8
330
1F
100
AcDbEntity
  8
1
  6
Continuous
 62
    45
370
     9
100
AcDbLine
 10
1248.023548493684
 20
890.0749343710684
 30
0.0
 11
1248.023548493684
 21
887.2749343710705
 31
0.0
  0
LINE
  5
2E9
330
1F
100
AcDbEntity
  8
1
  6
Continuous
 62
    45
370
     9
100
AcDbLine
 10
1248.023548493684
 20
887.2749343710705
 30
0.0
 11
1248.023548493684
 21
884.474934371068
 31
0.0
  0
LINE
  5
2EA
330
1F
100
AcDbEntity
  8
1
  6
Continuous
 62
    45
370
     9
100
AcDbLine
 10
1235.023548493684
 20
923.8748607567295
 30
0.0
 11
1235.023548493684
 21
918.4748607567296
 31
0.0
  0
LINE
  5
2EB
330
1F
100
AcDbEntity
  8
1
  6
Continuous
 62
    45
370
     9
100
AcDbLine
 10
1248.023548493684
 20
923.8748607567295
 30
0.0
 11
1248.023548493684
 21
918.4748607567296
 31
0.0
  0
LINE
  5
2EC
330
1F
100
AcDbEntity
  8
1
  6
Continuous
 62
    45
370
     9
100
AcDbLine
 10
1248.023548493684
 20
941.2749159667592
 30
0.0
 11
1248.023548493684
 21
935.2748607560393
 31
0.0
  0
LINE
  5
2ED
330
1F
100
AcDbEntity
  8
1
  6
Continuous
 62
    45
370
     9
100
AcDbLine
 10
1235.023548493684
 20
941.2749159667592
 30
0.0
 11
1235.023548493684
 21
935.2748607560393
 31
0.0
  0
LINE
  5
2EE
330
1F
100
AcDbEntity
  8
1
  6
Continuous
 62
    45
370
     9
100
AcDbLine
 10
1235.023548493684
 20
833.6749343710708
 30
0.0
 11
1235.023548493684
 21
839.0749343710711
 31
0.0
  0
LINE
  5
2EF
330
1F
100
AcDbEntity
  8
1
  6
Continuous
 62
    45
370
     9
100
AcDbLine
 10
1248.023548493684
 20
833.6749343710708
 30
0.0
 11
1248.023548493684
 21
839.0749343710711
 31
0.0
  0
LINE
  5
2F0
330
1F
100
AcDbEntity
  8
1
  6
Continuous
 62
    45
370
     9
100
AcDbLine
 10
1248.023548493684
 20
816.2749159667592
 30
0.0
 11
1248.023548493684
 21
822.2749343710707
 31
0.0
  0
LINE
  5
2F1
330
1F
100
AcDbEntity
  8
1
  6
Continuous
 62
    45
370
     9
100
AcDbLine
 10
1235.023548493684
 20
816.2749159667592
 30
0.0
 11
1235.023548493684
 21
822.2749343710707
 31
0.0
  0
LINE
  5
2F2
330
1F
100
AcDbEntity
  8
2
  6
Continuous
 62
    90
370
    18
100
AcDbLine
 10
393.5235484936838
 20
822.2749343710702
 30
0.0
 11
393.5235484936838
 21
833.6749343710708
 31
0.0
  0
LINE
  5
2F3
330
1F
100
AcDbEntity
  8
2
  6
Continuous
 62
    90
370
    18
100
AcDbLine
 10
1389.523548493684
 20
822.2749343710702
 30
0.0
 11
1389.523548493684
 21
833.6749343710708
 31
0.0
  0
LINE
  5
2F4
330
1F
100
AcDbEntity
  8
2
  6
Continuous
 62
    90
370
    18
100
AcDbLine
 10
393.5235484936838
 20
822.2749343710702
 30
0.0
 11
1389.523548493684
 21
822.2749343710702
 31
0.0
  0
LINE
  5
2F5
330
1F
100
AcDbEntity
  8
2
  6
Continuous
 62
    90
370
    18
100
AcDbLine
 10
393.5235484936838
 20
833.6749343710708
 30
0.0
 11
1389.523548493684
 21
833.6749343710708
 31
0.0
  0
LINE
  5
2F6
330
1F
100
AcDbEntity
  8
2
  6
Continuous
 62
    90
370
    18
100
AcDbLine
 10
393.5235484936838
 20
935.2748607567287
 30
0.0
 11
393.5235484936838
 21
923.8748607567281
 31
0.0
  0
LINE
  5
2F7
330
1F
100
AcDbEntity
  8
2
  6
Continuous
 62
    90
370
    18
100
AcDbLine
 10
1389.523548493684
 20
935.2748607567287
 30
0.0
 11
1389.523548493684
 21
923.8748607567281
 31
0.0
  0
LINE
  5
2F8
330
1F
100
AcDbEntity
  8
2
  6
Continuous
 62
    90
370
    18
100
AcDbLine
 10
393.5235484936838
 20
935.2748607567287
 30
0.0
 11
1389.523548493684
 21
935.2748607567287
 31
0.0
  0
LINE
  5
2F9
330
1F
100
AcDbEntity
  8
2
  6
Continuous
 62
    90
370
    18
100
AcDbLine
 10
393.5235484936838
 20
923.8748607567281
 30
0.0
 11
1389.523548493684
 21
923.8748607567281
 31
0.0
  0
LINE
  5
2FA
330
1F
100
AcDbEntity
  8
2
  6
Continuous
 62
    90
370
    18
100
AcDbLine
 10
393.5235484936838
 20
918.4748607567296
 30
0.0
 11
393.5235484936838
 21
907.0748607567291
 31
0.0
  0
LINE
  5
2FB
330
1F
100
AcDbEntity
  8
2
  6
Continuous
 62
    90
370
    18
100
AcDbLine
 10
393.5235484936838
 20
901.4748607567305
 30
0.0
 11
393.5235484936838
 21
890.07486075673
 31
0.0
  0
LINE
  5
2FC
330
1F
100
AcDbEntity
  8
2
  6
Continuous
 62
    90
370
    18
100
AcDbLine
 10
393.5235484936838
 20
884.4748607567296
 30
0.0
 11
393.5235484936838
 21
873.0748607567291
 31
0.0
  0
LINE
  5
2FD
330
1F
100
AcDbEntity
  8
2
  6
Continuous
 62
    90
370
    18
100
AcDbLine
 10
393.5235484936838
 20
867.4748607567292
 30
0.0
 11
393.5235484936838
 21
890.0749343710684
 31
0.0
  0
LINE
  5
2FE
330
1F
100
AcDbEntity
  8
2
  6
Continuous
 62
    90
370
    18
100
AcDbLine
 10
393.5235484936838
 20
884.474934371068
 30
0.0
 11
393.5235484936838
 21
873.0749343710675
 31
0.0
  0
LINE
  5
2FF
330
1F
100
AcDbEntity
  8
2
  6
Continuous
 62
    90
370
    18
100
AcDbLine
 10
393.5235484936838
 20
856.0749343710715
 30
0.0
 11
393.5235484936838
 21
867.4749343710721
 31
0.0
  0
LINE
  5
300
330
1F
100
AcDbEntity
  8
2
  6
Continuous
 62
    90
370
    18
100
AcDbLine
 10
393.5235484936838
 20
839.0749343710711
 30
0.0
 11
393.5235484936838
 21
850.4749343710716
 31
0.0
  0
LINE
  5
301
330
1F
100
AcDbEntity
  8
2
  6
Continuous
 62
    90
370
    18
100
AcDbLine
 10
1389.523548493684
 20
918.4748607567296
 30
0.0
 11
1389.523548493684
 21
907.0748607567291
 31
0.0
  0
LINE
  5
302
330
1F
100
AcDbEntity
  8
2
  6
Continuous
 62
    90
370
    18
100
AcDbLine
 10
1389.523548493684
 20
901.4748607567305
 30
0.0
 11
1389.523548493684
 21
890.07486075673
 31
0.0
  0
LINE
  5
303
330
1F
100
AcDbEntity
  8
2
  6
Continuous
 62
    90
370
    18
100
AcDbLine
 10
1389.523548493684
 20
884.4748607567296
 30
0.0
 11
1389.523548493684
 21
873.0748607567291
 31
0.0
  0
LINE
  5
304
330
1F
100
AcDbEntity
  8
2
  6
Continuous
 62
    90
370
    18
100
AcDbLine
 10
1389.523548493684
 20
867.4748607567292
 30
0.0
 11
1389.523548493684
 21
890.0749343710684
 31
0.0
  0
LINE
  5
305
330
1F
100
AcDbEntity
  8
2
  6
Continuous
 62
    90
370
    18
100
AcDbLine
 10
1389.523548493684
 20
884.474934371068
 30
0.0
 11
1389.523548493684
 21
873.0749343710675
 31
0.0
  0
LINE
  5
306
330
1F
100
AcDbEntity
  8
2
  6
Continuous
 62
    90
370
    18
100
AcDbLine
 10
1389.523548493684
 20
856.0749343710715
 30
0.0
 11
1389.523548493684
 21
867.4749343710721
 31
0.0
  0
LINE
  5
307
330
1F
100
AcDbEntity
  8
2
  6
Continuous
 62
    90
370
    18
100
AcDbLine
 10
1389.523548493684
 20
839.0749343710711
 30
0.0
 11
1389.523548493684
 21
850.4749343710716
 31
0.0
  0
LINE
  5
308
330
1F
100
AcDbEntity
  8
2
  6
Continuous
 62
    90
370
    18
100
AcDbLine
 10
393.5235484936838
 20
839.0749343710711
 30
0.0
 11
1389.523548493684
 21
839.0749343710711
 31
0.0
  0
LINE
  5
309
330
1F
100
AcDbEntity
  8
2
  6
Continuous
 62
    90
370
    18
100
AcDbLine
 10
393.5235484936838
 20
850.4749343710716
 30
0.0
 11
1389.523548493684
 21
850.4749343710716
 31
0.0
  0
LINE
  5
30A
330
1F
100
AcDbEntity
  8
2
  6
Continuous
 62
    90
370
    18
100
AcDbLine
 10
393.5235484936838
 20
856.0749343710715
 30
0.0
 11
1389.523548493684
 21
856.0749343710715
 31
0.0
  0
LINE
  5
30B
330
1F
100
AcDbEntity
  8
2
  6
Continuous
 62
    90
370
    18
100
AcDbLine
 10
393.5235484936838
 20
867.4749343710721
 30
0.0
 11
1389.523548493684
 21
867.4749343710721
 31
0.0
  0
LINE
  5
30C
330
1F
100
AcDbEntity
  8
2
  6
Continuous
 62
    90
370
    18
100
AcDbLine
 10
393.5235484936838
 20
873.0749343710675
 30
0.0
 11
1389.523548493684
 21
873.0749343710675
 31
0.0
  0
LINE
  5
30D
330
1F
100
AcDbEntity
  8
2
  6
Continuous
 62
    90
370
    18
100
AcDbLine
 10
393.5235484936838
 20
884.474934371068
 30
0.0
 11
1389.523548493684
 21
884.474934371068
 31
0.0
  0
LINE
  5
30E
330
1F
100
AcDbEntity
  8
2
  6
Continuous
 62
    90
370
    18
100
AcDbLine
 10
393.5235484936838
 20
890.0749343710684
 30
0.0
 11
1389.523548493684
 21
890.0749343710684
 31
0.0
  0
LINE
  5
30F
330
1F
100
AcDbEntity
  8
2
  6
Continuous
 62
    90
370
    18
100
AcDbLine
 10
393.5235484936838
 20
867.4748607567292
 30
0.0
 11
1389.523548493684
 21
867.4748607567292
 31
0.0
  0
LINE
  5
310
330
1F
100
AcDbEntity
  8
2
  6
Continuous
 62
    90
370
    18
100
AcDbLine
 10
393.5235484936838
 20
873.0748607567291
 30
0.0
 11
1389.523548493684
 21
873.0748607567291
 31
0.0
  0
LINE
  5
311
330
1F
100
AcDbEntity
  8
2
  6
Continuous
 62
    90
370
    18
100
AcDbLine
 10
393.5235484936838
 20
884.4748607567296
 30
0.0
 11
1389.523548493684
 21
884.4748607567296
 31
0.0
  0
LINE
  5
312
330
1F
100
AcDbEntity
  8
2
  6
Continuous
 62
    90
370
    18
100
AcDbLine
 10
393.5235484936838
 20
890.07486075673
 30
0.0
 11
1389.523548493684
 21
890.07486075673
 31
0.0
  0
LINE
  5
313
330
1F
100
AcDbEntity
  8
2
  6
Continuous
 62
    90
370
    18
100
AcDbLine
 10
393.5235484936838
 20
901.4748607567305
 30
0.0
 11
1389.523548493684
 21
901.4748607567305
 31
0.0
  0
LINE
  5
314
330
1F
100
AcDbEntity
  8
2
  6
Continuous
 62
    90
370
    18
100
AcDbLine
 10
393.5235484936838
 20
907.0748607567291
 30
0.0
 11
1389.523548493684
 21
907.0748607567291
 31
0.0
  0
LINE
  5
315
330
1F
100
AcDbEntity
  8
2
  6
Continuous
 62
    90
370
    18
100
AcDbLine
 10
393.5235484936838
 20
918.4748607567296
 30
0.0
 11
1389.523548493684
 21
918.4748607567296
 31
0.0
  0
DIMENSION
  5
320
330
1F
100
AcDbEntity
  8
6
  6
Continuous
 62
     7
370
     9
100
AcDbDimension
  2
Dim5
 10
332.0235484936834
 20
971.2749159667592
 30
0.0
 11
323.0235484936834
 21
956.2749159667592
 31
0.0
 70
   160
  1
<>
 71
     5
 42
-1.0
  3
Standard
100
AcDbAlignedDimension
 13
402.0235484936838
 23
971.2749159667592
 33
0.0
 14
392.0235484936838
 24
941.2749159667592
 34
0.0
 50
89.99999999999991
100
AcDbRotatedDimension
1001
ACAD
1000
DSTYLE
1002
{
1070
   344
1005
3C
1070
   343
1005
3C
1070
   173
1070
     1
1070
   289
1070
     2
1070
   279
1070
     2
1070
   288
1070
     1
1070
    77
1070
     3
1070
   172
1070
     1
1070
   174
1070
     0
1070
    74
1070
     0
1070
    73
1070
     0
1070
   284
1070
     8
1070
    78
1070
     8
1070
   140
1040
3.0
1070
    40
1040
6.0
1070
    42
1040
2.0
1070
    44
1040
1.0
1070
    43
1040
10.0
1070
   271
1070
     2
1070
    41
1040
2.0
1002
}
  0
DIMENSION
  5
32B
330
1F
100
AcDbEntity
  8
6
  6
Continuous
 62
     7
370
     9
100
AcDbDimension
  2
Dim6
 10
332.0235484936834
 20
941.2749159667592
 30
0.0
 11
323.0235484936834
 21
878.7749159667592
 31
0.0
 70
   160
  1
<>
 71
     5
 42
-1.0
  3
Standard
100
AcDbAlignedDimension
 13
392.0235484936838
 23
941.2749159667592
 33
0.0
 14
392.0235484936838
 24
816.2749159667592
 34
0.0
 50
89.99999999999989
100
AcDbRotatedDimension
1001
ACAD
1000
DSTYLE
1002
{
1070
   344
1005
3C
1070
   343
1005
3C
1070
   173
1070
     1
1070
   289
1070
     2
1070
   279
1070
     2
1070
   288
1070
     1
1070
    77
1070
     3
1070
   172
1070
     1
1070
   174
1070
     0
1070
    74
1070
     0
1070
    73
1070
     0
1070
   284
1070
     8
1070
    78
1070
     8
1070
   140
1040
3.0
1070
    40
1040
6.0
1070
    42
1040
2.0
1070
    44
1040
1.0
1070
    43
1040
10.0
1070
   271
1070
     2
1070
    41
1040
2.0
1002
}
  0
DIMENSION
  5
335
330
1F
100
AcDbEntity
  8
6
  6
Continuous
 62
     7
370
     9
100
AcDbDimension
  2
Dim7
 10
332.0235484936834
 20
816.2749159667592
 30
0.0
 11
323.0235484936834
 21
801.2749159667592
 31
0.0
 70
   160
  1
<>
 71
     5
 42
-1.0
  3
Standard
100
AcDbAlignedDimension
 13
392.0235484936838
 23
816.2749159667592
 33
0.0
 14
402.0235484936838
 24
786.2749159667592
 34
0.0
 50
89.99999999999991
100
AcDbRotatedDimension
1001
ACAD
1000
DSTYLE
1002
{
1070
   344
1005
3C
1070
   343
1005
3C
1070
   173
1070
     1
1070
   289
1070
     2
1070
   279
1070
     2
1070
   288
1070
     1
1070
    77
1070
     3
1070
   172
1070
     1
1070
   174
1070
     0
1070
    74
1070
     0
1070
    73
1070
     0
1070
   284
1070
     8
1070
    78
1070
     8
1070
   140
1040
3.0
1070
    40
1040
6.0
1070
    42
1040
2.0
1070
    44
1040
1.0
1070
    43
1040
10.0
1070
   271
1070
     2
1070
    41
1040
2.0
1002
}
  0
DIMENSION
  5
341
330
1F
100
AcDbEntity
  8
6
  6
Continuous
 62
     7
370
     9
100
AcDbDimension
  2
Dim8
 10
290.0235484936833
 20
971.2749159667592
 30
0.0
 11
281.0235484936833
 21
878.7749159667592
 31
0.0
 70
   160
  1
<>
 71
     5
 42
-1.0
  3
Standard
100
AcDbAlignedDimension
 13
402.0235484936838
 23
971.2749159667592
 33
0.0
 14
402.0235484936838
 24
786.2749159667592
 34
0.0
 50
89.9999999999999
100
AcDbRotatedDimension
1001
ACAD
1000
DSTYLE
1002
{
1070
   344
1005
3C
1070
   343
1005
3C
1070
   173
1070
     1
1070
   289
1070
     2
1070
   279
1070
     2
1070
   288
1070
     1
1070
    77
1070
     3
1070
   172
1070
     1
1070
   174
1070
     0
1070
    74
1070
     0
1070
    73
1070
     0
1070
   284
1070
     8
1070
    78
1070
     8
1070
   140
1040
3.0
1070
    40
1040
6.0
1070
    42
1040
2.0
1070
    44
1040
1.0
1070
    43
1040
10.0
1070
   271
1070
     2
1070
    41
1040
2.0
1002
}
  0
INSERT
  5
359
330
1F
100
AcDbEntity
  8
0
100
AcDbBlockReference
  2
*G35
 10
0.0
 20
0.0
 30
0.0
  0
INSERT
  5
371
330
1F
100
AcDbEntity
  8
0
100
AcDbBlockReference
  2
*G36
 10
0.0
 20
0.0
 30
0.0
  0
INSERT
  5
389
330
1F
100
AcDbEntity
  8
0
100
AcDbBlockReference
  2
*G37
 10
0.0
 20
0.0
 30
0.0
  0
INSERT
  5
3A1
330
1F
100
AcDbEntity
  8
0
100
AcDbBlockReference
  2
*G38
 10
0.0
 20
0.0
 30
0.0
  0
LINE
  5
3A2
330
1F
100
AcDbEntity
  8
12
  6
Continuous
 62
   136
370
    18
100
AcDbLine
 10
560.3999263878667
 20
303.9589434213516
 30
0.0
 11
587.599926385279
 21
303.9589434213516
 31
0.0
  0
LINE
  5
3A3
330
1F
100
AcDbEntity
  8
12
  6
Continuous
 62
   136
370
    18
100
AcDbLine
 10
560.3999263878667
 20
277.9589434213513
 30
0.0
 11
587.599926385279
 21
277.9589434213513
 31
0.0
  0
LINE
  5
3A4
330
1F
100
AcDbEntity
  8
12
  6
Continuous
 62
   136
370
    18
100
AcDbLine
 10
594.3999263878108
 20
303.9589434213516
 30
0.0
 11
621.599926385223
 21
303.9589434213516
 31
0.0
  0
LINE
  5
3A5
330
1F
100
AcDbEntity
  8
12
  6
Continuous
 62
   136
370
    18
100
AcDbLine
 10
594.3999263878108
 20
277.9589434213513
 30
0.0
 11
621.599926385223
 21
277.9589434213513
 31
0.0
  0
LINE
  5
3A6
330
1F
100
AcDbEntity
  8
12
  6
Continuous
 62
   136
370
    18
100
AcDbLine
 10
628.3999263885352
 20
303.9589434213516
 30
0.0
 11
655.5999263859472
 21
303.9589434213516
 31
0.0
  0
LINE
  5
3A7
330
1F
100
AcDbEntity
  8
12
  6
Continuous
 62
   136
370
    18
100
AcDbLine
 10
628.3999263885352
 20
277.9589434213513
 30
0.0
 11
655.5999263859472
 21
277.9589434213513
 31
0.0
  0
LINE
  5
3A8
330
1F
100
AcDbEntity
  8
12
  6
Continuous
 62
   136
370
    18
100
AcDbLine
 10
594.4000736150425
 20
303.9589434213516
 30
0.0
 11
621.6000736124546
 21
303.9589434213516
 31
0.0
  0
LINE
  5
3A9
330
1F
100
AcDbEntity
  8
12
  6
Continuous
 62
   136
370
    18
100
AcDbLine
 10
594.4000736150425
 20
277.9589434213513
 30
0.0
 11
621.6000736124546
 21
277.9589434213513
 31
0.0
  0
LINE
  5
3AA
330
1F
100
AcDbEntity
  8
12
  6
Continuous
 62
   136
370
    18
100
AcDbLine
 10
560.4000736143213
 20
303.9589434213516
 30
0.0
 11
587.6000736117336
 21
303.9589434213516
 31
0.0
  0
LINE
  5
3AB
330
1F
100
AcDbEntity
  8
12
  6
Continuous
 62
   136
370
    18
100
AcDbLine
 10
560.4000736143213
 20
277.9589434213513
 30
0.0
 11
587.6000736117336
 21
277.9589434213513
 31
0.0
  0
LINE
  5
3AC
330
1F
100
AcDbEntity
  8
12
  6
Continuous
 62
   136
370
    18
100
AcDbLine
 10
526.4000736135982
 20
303.9589434213516
 30
0.0
 11
553.6000736110103
 21
303.9589434213516
 31
0.0
  0
LINE
  5
3AD
330
1F
100
AcDbEntity
  8
12
  6
Continuous
 62
   136
370
    18
100
AcDbLine
 10
526.4000736135982
 20
277.9589434213513
 30
0.0
 11
553.6000736110103
 21
277.9589434213513
 31
0.0
  0
LINE
  5
3AE
330
1F
100
AcDbEntity
  8
11
  6
DASHDOT
 62
    16
370
     9
100
AcDbLine
 10
591.0
 20
240.1929368816745
 30
0.0
 11
591.0
 21
337.6329368816744
 31
0.0
  0
INSERT
  5
3BA
330
1F
100
AcDbEntity
  8
0
100
AcDbBlockReference
  2
*G39
 10
0.0
 20
0.0
 30
0.0
  0
INSERT
  5
3C4
330
1F
100
AcDbEntity
  8
0
100
AcDbBlockReference
  2
*G40
 10
0.0
 20
0.0
 30
0.0
  0
INSERT
  5
3DC
330
1F
100
AcDbEntity
  8
0
100
AcDbBlockReference
  2
*G41
 10
0.0
 20
0.0
 30
0.0
  0
ARC
  5
3DD
330
1F
100
AcDbEntity
  8
12
  6
Continuous
 62
   136
370
    18
100
AcDbCircle
 10
461.9999999999999
 20
309.7589434213513
 30
0.0
 40
4.0
100
AcDbArc
 50
0.0
 51
89.99999999999991
  0
LINE
  5
3DE
330
1F
100
AcDbEntity
  8
12
  6
Continuous
 62
   136
370
    18
100
AcDbLine
 10
461.9999999999999
 20
313.7589434213514
 30
0.0
 11
406.6
 21
313.7589434213514
 31
0.0
  0
LINE
  5
3DF
330
1F
100
AcDbEntity
  8
12
  6
Continuous
 62
   136
370
    18
100
AcDbLine
 10
406.6
 20
313.7589434213514
 30
0.0
 11
405.9999999999999
 21
313.1589434213515
 31
0.0
  0
LINE
  5
3E0
330
1F
100
AcDbEntity
  8
12
  6
Continuous
 62
   136
370
    18
100
AcDbLine
 10
405.9999999999999
 20
313.1589434213515
 30
0.0
 11
405.9999999999999
 21
310.3589434213513
 31
0.0
  0
LINE
  5
3E1
330
1F
100
AcDbEntity
  8
12
  6
Continuous
 62
   136
370
    18
100
AcDbLine
 10
462.0000000000003
 20
309.7589434213513
 30
0.0
 11
406.6
 21
309.7589434213513
 31
0.0
  0
LINE
  5
3E2
330
1F
100
AcDbEntity
  8
12
  6
Continuous
 62
   136
370
    18
100
AcDbLine
 10
405.9999999999999
 20
310.3589434213513
 30
0.0
 11
406.6
 21
309.7589434213513
 31
0.0
  0
LINE
  5
3E3
330
1F
100
AcDbEntity
  8
12
  6
Continuous
 62
   136
370
    18
100
AcDbLine
 10
462.0000000000003
 20
309.7589434213513
 30
0.0
 11
462.0000000000003
 21
254.3589434213515
 31
0.0
  0
LINE
  5
3E4
330
1F
100
AcDbEntity
  8
12
  6
Continuous
 62
   136
370
    18
100
AcDbLine
 10
462.0000000000003
 20
254.3589434213515
 30
0.0
 11
462.6000000000003
 21
253.7589434213514
 31
0.0
  0
LINE
  5
3E5
330
1F
100
AcDbEntity
  8
12
  6
Continuous
 62
   136
370
    18
100
AcDbLine
 10
462.6000000000003
 20
253.7589434213514
 30
0.0
 11
465.4
 21
253.7589434213514
 31
0.0
  0
LINE
  5
3E6
330
1F
100
AcDbEntity
  8
12
  6
Continuous
 62
   136
370
    18
100
AcDbLine
 10
465.9999999999999
 20
309.7589434213513
 30
0.0
 11
465.9999999999999
 21
254.3589434213515
 31
0.0
  0
LINE
  5
3E7
330
1F
100
AcDbEntity
  8
12
  6
Continuous
 62
   136
370
    18
100
AcDbLine
 10
465.4
 20
253.7589434213514
 30
0.0
 11
465.9999999999999
 21
254.3589434213515
 31
0.0
  0
LINE
  5
3E8
330
1F
100
AcDbEntity
  8
11
  6
HIDDEN
 62
    16
370
     9
100
AcDbLine
 10
466.000073611442
 20
297.7589879389515
 30
0.0
 11
472.000073611442
 21
297.7589879389515
 31
0.0
  0
LINE
  5
3E9
330
1F
100
AcDbEntity
  8
11
  6
HIDDEN
 62
    16
370
     9
100
AcDbLine
 10
472.000073611442
 20
297.7589879389515
 30
0.0
 11
472.000073611442
 21
263.7589879389518
 31
0.0
  0
ARC
  5
3EA
330
1F
100
AcDbEntity
  8
11
  6
HIDDEN
 62
    16
370
     9
100
AcDbCircle
 10
472.000073611442
 20
263.7589879389518
 30
0.0
 40
6.0
100
AcDbArc
 50
179.9999999999998
 51
269.9999999999998
  0
LINE
  5
3EB
330
1F
100
AcDbEntity
  8
12
  6
Continuous
 62
   136
370
    18
100
AcDbLine
 10
465.9999999999999
 20
303.9589434213516
 30
0.0
 11
486.0000736087821
 21
303.9589434213516
 31
0.0
  0
LINE
  5
3EC
330
1F
100
AcDbEntity
  8
12
  6
Continuous
 62
   136
370
    18
100
AcDbLine
 10
465.9999999999999
 20
277.9589434213513
 30
0.0
 11
486.0000736087821
 21
277.9589434213513
 31
0.0
  0
LINE
  5
3ED
330
1F
100
AcDbEntity
  8
12
  6
Continuous
 62
   136
370
    18
100
AcDbLine
 10
719.9999999999997
 20
277.958943421353
 30
0.0
 11
722.5934960000006
 21
277.958943421353
 31
0.0
  0
LINE
  5
3EE
330
1F
100
AcDbEntity
  8
12
  6
Continuous
 62
   136
370
    18
100
AcDbLine
 10
719.9999999999997
 20
303.9589434213533
 30
0.0
 11
722.5934960000006
 21
303.9589434213533
 31
0.0
  0
LINE
  5
3EF
330
1F
100
AcDbEntity
  8
12
  6
Continuous
 62
   136
370
    18
100
AcDbLine
 10
722.993495999999
 20
303.5589434213515
 30
0.0
 11
722.993495999999
 21
289.958943421353
 31
0.0
  0
LINE
  5
3F0
330
1F
100
AcDbEntity
  8
12
  6
Continuous
 62
   136
370
    18
100
AcDbLine
 10
722.993495999999
 20
289.958943421353
 30
0.0
 11
722.993495999999
 21
278.3589434213526
 31
0.0
  0
ARC
  5
3F1
330
1F
100
AcDbEntity
  8
12
  6
Continuous
 62
   136
370
    18
100
AcDbCircle
 10
722.5934960000006
 20
303.5589434213515
 30
0.0
 40
0.4000000000000002
100
AcDbArc
 50
0.0
 51
89.99999999999991
  0
ARC
  5
3F2
330
1F
100
AcDbEntity
  8
12
  6
Continuous
 62
   136
370
    18
100
AcDbCircle
 10
722.5934960000006
 20
278.3589434213526
 30
0.0
 40
0.4000000000000002
100
AcDbArc
 50
269.9999999999998
 51
0.0
  0
INSERT
  5
3FE
330
1F
100
AcDbEntity
  8
0
100
AcDbBlockReference
  2
*G42
 10
0.0
 20
0.0
 30
0.0
  0
INSERT
  5
416
330
1F
100
AcDbEntity
  8
0
100
AcDbBlockReference
  2
*G43
 10
0.0
 20
0.0
 30
0.0
  0
ARC
  5
417
330
1F
100
AcDbEntity
  8
12
  6
Continuous
 62
   136
370
    18
100
AcDbCircle
 10
720.0000000000002
 20
309.7589434213513
 30
0.0
 40
4.0
100
AcDbArc
 50
89.99999999999991
 51
179.9999999999998
  0
LINE
  5
418
330
1F
100
AcDbEntity
  8
12
  6
Continuous
 62
   136
370
    18
100
AcDbLine
 10
720.0000000000002
 20
313.7589434213514
 30
0.0
 11
775.4
 21
313.7589434213514
 31
0.0
  0
LINE
  5
419
330
1F
100
AcDbEntity
  8
12
  6
Continuous
 62
   136
370
    18
100
AcDbLine
 10
775.4
 20
313.7589434213514
 30
0.0
 11
775.9999999999999
 21
313.1589434213515
 31
0.0
  0
LINE
  5
41A
330
1F
100
AcDbEntity
  8
12
  6
Continuous
 62
   136
370
    18
100
AcDbLine
 10
719.9999999999997
 20
309.7589434213513
 30
0.0
 11
775.4
 21
309.7589434213513
 31
0.0
  0
LINE
  5
41B
330
1F
100
AcDbEntity
  8
12
  6
Continuous
 62
   136
370
    18
100
AcDbLine
 10
775.9999999999999
 20
313.1589434213515
 30
0.0
 11
775.9999999999999
 21
310.3589434213513
 31
0.0
  0
LINE
  5
41C
330
1F
100
AcDbEntity
  8
12
  6
Continuous
 62
   136
370
    18
100
AcDbLine
 10
775.4
 20
309.7589434213513
 30
0.0
 11
775.9999999999999
 21
310.3589434213513
 31
0.0
  0
LINE
  5
41D
330
1F
100
AcDbEntity
  8
12
  6
Continuous
 62
   136
370
    18
100
AcDbLine
 10
715.9999999999999
 20
309.7589434213513
 30
0.0
 11
715.9999999999999
 21
254.3589434213515
 31
0.0
  0
LINE
  5
41E
330
1F
100
AcDbEntity
  8
12
  6
Continuous
 62
   136
370
    18
100
AcDbLine
 10
715.9999999999999
 20
254.3589434213515
 30
0.0
 11
716.6
 21
253.7589434213514
 31
0.0
  0
LINE
  5
41F
330
1F
100
AcDbEntity
  8
12
  6
Continuous
 62
   136
370
    18
100
AcDbLine
 10
716.6
 20
253.7589434213514
 30
0.0
 11
719.3999999999995
 21
253.7589434213514
 31
0.0
  0
LINE
  5
420
330
1F
100
AcDbEntity
  8
12
  6
Continuous
 62
   136
370
    18
100
AcDbLine
 10
719.9999999999997
 20
309.7589434213513
 30
0.0
 11
719.9999999999997
 21
254.3589434213515
 31
0.0
  0
LINE
  5
421
330
1F
100
AcDbEntity
  8
12
  6
Continuous
 62
   136
370
    18
100
AcDbLine
 10
719.3999999999995
 20
253.7589434213514
 30
0.0
 11
719.9999999999997
 21
254.3589434213515
 31
0.0
  0
LINE
  5
422
330
1F
100
AcDbEntity
  8
11
  6
HIDDEN
 62
    16
370
     9
100
AcDbLine
 10
715.9999999999999
 20
297.7589879389536
 30
0.0
 11
709.9999999999999
 21
297.7589879389536
 31
0.0
  0
LINE
  5
423
330
1F
100
AcDbEntity
  8
11
  6
HIDDEN
 62
    16
370
     9
100
AcDbLine
 10
709.9999999999999
 20
297.7589879389536
 30
0.0
 11
709.9999999999999
 21
263.7589879389518
 31
0.0
  0
ARC
  5
424
330
1F
100
AcDbEntity
  8
11
  6
HIDDEN
 62
    16
370
     9
100
AcDbCircle
 10
709.9999999999999
 20
263.7589879389534
 30
0.0
 40
6.0
100
AcDbArc
 50
269.9999999999998
 51
0.0
  0
LINE
  5
425
330
1F
100
AcDbEntity
  8
12
  6
Continuous
 62
   136
370
    18
100
AcDbLine
 10
716.0000003673821
 20
303.9589434213516
 30
0.0
 11
695.9999267586002
 21
303.9589434213516
 31
0.0
  0
LINE
  5
426
330
1F
100
AcDbEntity
  8
12
  6
Continuous
 62
   136
370
    18
100
AcDbLine
 10
716.0000003673821
 20
277.9589434213513
 30
0.0
 11
695.9999267586002
 21
277.9589434213513
 31
0.0
  0
LINE
  5
427
330
1F
100
AcDbEntity
  8
11
  6
HIDDEN
 62
    16
370
     9
100
AcDbLine
 10
709.9999999999999
 20
263.7589879389518
 30
0.0
 11
472.000073611442
 21
263.7589879389518
 31
0.0
  0
LINE
  5
428
330
1F
100
AcDbEntity
  8
11
  6
HIDDEN
 62
    16
370
     9
100
AcDbLine
 10
709.9999999999999
 20
257.7589879389518
 30
0.0
 11
472.000073611442
 21
257.7589879389518
 31
0.0
  0
LINE
  5
429
330
1F
100
AcDbEntity
  8
11
  6
DASHDOT
 62
    16
370
     9
100
AcDbLine
 10
448.4007651810927
 20
290.9589434213515
 30
0.0
 11
731.7072846045481
 21
290.9589434213515
 31
0.0
  0
LINE
  5
42A
330
1F
100
AcDbEntity
  8
11
  6
HIDDEN
 62
    16
370
     9
100
AcDbLine
 10
459.9999999891155
 20
301.7589434213498
 30
0.0
 11
459.9999999891155
 21
265.7589434213498
 31
0.0
  0
LINE
  5
42B
330
1F
100
AcDbEntity
  8
11
  6
HIDDEN
 62
    16
370
     9
100
AcDbLine
 10
450.9999999891155
 20
291.2589434213477
 30
0.0
 11
450.9999999891155
 21
276.2589434213514
 31
0.0
  0
ARC
  5
42C
330
1F
100
AcDbEntity
  8
11
  6
HIDDEN
 62
    16
370
     9
100
AcDbCircle
 10
462.3314219605198
 20
286.0751043752246
 30
0.0
 40
12.46087120349593
100
AcDbArc
 50
110.3407039499493
 51
155.4171032567533
  0
ARC
  5
42D
330
1F
100
AcDbEntity
  8
11
  6
HIDDEN
 62
    16
370
     9
100
AcDbCircle
 10
462.3314219605198
 20
281.4427824674751
 30
0.0
 40
12.46087120349593
100
AcDbArc
 50
204.5828967432487
 51
249.6592960500512
  0
LINE
  5
42E
330
1F
100
AcDbEntity
  8
11
  6
HIDDEN
 62
    16
370
     9
100
AcDbLine
 10
459.9999999891155
 20
297.7589434213496
 30
0.0
 11
457.9999999891151
 21
297.7589434213496
 31
0.0
  0
LINE
  5
42F
330
1F
100
AcDbEntity
  8
11
  6
HIDDEN
 62
    16
370
     9
100
AcDbLine
 10
459.9999999891155
 20
269.7589434213495
 30
0.0
 11
457.9999999891151
 21
269.7589434213495
 31
0.0
  0
LINE
  5
430
330
1F
100
AcDbEntity
  8
11
  6
HIDDEN
 62
    16
370
     9
100
AcDbLine
 10
457.9999999891151
 20
297.7589434213496
 30
0.0
 11
457.9999999891151
 21
269.7589434213495
 31
0.0
  0
LINE
  5
431
330
1F
100
AcDbEntity
  8
11
  6
HIDDEN
 62
    16
370
     9
100
AcDbLine
 10
462.0000000000003
 20
301.7589434213498
 30
0.0
 11
459.9999999891155
 21
301.7589434213498
 31
0.0
  0
LINE
  5
432
330
1F
100
AcDbEntity
  8
11
  6
HIDDEN
 62
    16
370
     9
100
AcDbLine
 10
462.0000000000003
 20
265.7589434213498
 30
0.0
 11
459.9999999891155
 21
265.7589434213498
 31
0.0
  0
LINE
  5
433
330
1F
100
AcDbEntity
  8
11
  6
HIDDEN
 62
    16
370
     9
100
AcDbLine
 10
721.9999999999999
 20
301.7589434213514
 30
0.0
 11
721.9999999999999
 21
265.7589434213514
 31
0.0
  0
LINE
  5
434
330
1F
100
AcDbEntity
  8
11
  6
HIDDEN
 62
    16
370
     9
100
AcDbLine
 10
730.9999999999999
 20
291.2589434213498
 30
0.0
 11
730.9999999999999
 21
276.2589434213531
 31
0.0
  0
ARC
  5
435
330
1F
100
AcDbEntity
  8
11
  6
HIDDEN
 62
    16
370
     9
100
AcDbCircle
 10
719.6685780285945
 20
286.0751043752261
 30
0.0
 40
12.46087120349593
100
AcDbArc
 50
24.58289674324715
 51
69.65929605005086
  0
ARC
  5
436
330
1F
100
AcDbEntity
  8
11
  6
HIDDEN
 62
    16
370
     9
100
AcDbCircle
 10
719.6685780285945
 20
281.4427824674767
 30
0.0
 40
12.46087120349593
100
AcDbArc
 50
290.340703949949
 51
335.417103256753
  0
LINE
  5
437
330
1F
100
AcDbEntity
  8
11
  6
HIDDEN
 62
    16
370
     9
100
AcDbLine
 10
721.9999999999999
 20
297.7589434213513
 30
0.0
 11
723.9999999999993
 21
297.7589434213513
 31
0.0
  0
LINE
  5
438
330
1F
100
AcDbEntity
  8
11
  6
HIDDEN
 62
    16
370
     9
100
AcDbLine
 10
721.9999999999999
 20
269.7589434213517
 30
0.0
 11
723.9999999999993
 21
269.7589434213517
 31
0.0
  0
LINE
  5
439
330
1F
100
AcDbEntity
  8
11
  6
HIDDEN
 62
    16
370
     9
100
AcDbLine
 10
723.9999999999993
 20
297.7589434213513
 30
0.0
 11
723.9999999999993
 21
269.7589434213517
 31
0.0
  0
LINE
  5
43A
330
1F
100
AcDbEntity
  8
11
  6
HIDDEN
 62
    16
370
     9
100
AcDbLine
 10
719.9999999999997
 20
301.7589434213514
 30
0.0
 11
721.9999999999999
 21
301.7589434213514
 31
0.0
  0
LINE
  5
43B
330
1F
100
AcDbEntity
  8
11
  6
HIDDEN
 62
    16
370
     9
100
AcDbLine
 10
719.9999999999997
 20
265.7589434213514
 30
0.0
 11
721.9999999999999
 21
265.7589434213514
 31
0.0
  0
DIMENSION
  5
447
330
1F
100
AcDbEntity
  8
14
  6
Continuous
 62
     7
370
     9
100
AcDbDimension
  2
Dim9
 10
406.0000000000003
 20
443.7589879389519
 30
0.0
 11
591.0000000000003
 21
452.7589879389519
 31
0.0
 70
   160
  1
185
 71
     5
 42
-1.0
  3
Standard
100
AcDbAlignedDimension
 13
405.9999999999999
 23
313.1589434213515
 33
0.0
 14
775.9999999999999
 24
313.1589434213515
 34
0.0
100
AcDbRotatedDimension
1001
ACAD
1000
DSTYLE
1002
{
1070
   344
1005
3C
1070
   343
1005
3C
1070
   173
1070
     1
1070
   289
1070
     2
1070
   279
1070
     2
1070
   288
1070
     1
1070
    77
1070
     3
1070
   172
1070
     1
1070
   174
1070
     0
1070
    74
1070
     0
1070
    73
1070
     0
1070
   284
1070
     8
1070
    78
1070
     8
1070
   140
1040
3.0
1070
    40
1040
6.0
1070
    42
1040
2.0
1070
    44
1040
1.0
1070
    43
1040
10.0
1070
   271
1070
     2
1070
    41
1040
2.0
1002
}
  0
DIMENSION
  5
452
330
1F
100
AcDbEntity
  8
14
  6
Continuous
 62
     7
370
     9
100
AcDbDimension
  2
Dim10
 10
406.0000000000001
 20
401.7589879389519
 30
0.0
 11
436.0000000000001
 21
410.7589879389519
 31
0.0
 70
   160
  1
30
 71
     5
 42
-1.0
  3
Standard
100
AcDbAlignedDimension
 13
405.9999999999999
 23
313.1589434213515
 33
0.0
 14
465.9999999999999
 24
309.7589434213513
 34
0.0
100
AcDbRotatedDimension
1001
ACAD
1000
DSTYLE
1002
{
1070
   344
1005
3C
1070
   343
1005
3C
1070
   173
1070
     1
1070
   289
1070
     2
1070
   279
1070
     2
1070
   288
1070
     1
1070
    77
1070
     3
1070
   172
1070
     1
1070
   174
1070
     0
1070
    74
1070
     0
1070
    73
1070
     0
1070
   284
1070
     8
1070
    78
1070
     8
1070
   140
1040
3.0
1070
    40
1040
6.0
1070
    42
1040
2.0
1070
    44
1040
1.0
1070
    43
1040
10.0
1070
   271
1070
     2
1070
    41
1040
2.0
1002
}
  0
DIMENSION
  5
45D
330
1F
100
AcDbEntity
  8
14
  6
Continuous
 62
     7
370
     9
100
AcDbDimension
  2
Dim11
 10
466.0000000000001
 20
401.7589879389519
 30
0.0
 11
591.0000000000001
 21
410.7589879389519
 31
0.0
 70
   160
  1
125
 71
     5
 42
-1.0
  3
Standard
100
AcDbAlignedDimension
 13
465.9999999999999
 23
309.7589434213513
 33
0.0
 14
715.9999999999999
 24
309.7589434213513
 34
0.0
100
AcDbRotatedDimension
1001
ACAD
1000
DSTYLE
1002
{
1070
   344
1005
3C
1070
   343
1005
3C
1070
   173
1070
     1
1070
   289
1070
     2
1070
   279
1070
     2
1070
   288
1070
     1
1070
    77
1070
     3
1070
   172
1070
     1
1070
   174
1070
     0
1070
    74
1070
     0
1070
    73
1070
     0
1070
   284
1070
     8
1070
    78
1070
     8
1070
   140
1040
3.0
1070
    40
1040
6.0
1070
    42
1040
2.0
1070
    44
1040
1.0
1070
    43
1040
10.0
1070
   271
1070
     2
1070
    41
1040
2.0
1002
}
  0
DIMENSION
  5
467
330
1F
100
AcDbEntity
  8
14
  6
Continuous
 62
     7
370
     9
100
AcDbDimension
  2
Dim12
 10
716.0
 20
401.7589879389519
 30
0.0
 11
746.0
 21
410.7589879389519
 31
0.0
 70
   160
  1
30
 71
     5
 42
-1.0
  3
Standard
100
AcDbAlignedDimension
 13
715.9999999999999
 23
309.7589434213513
 33
0.0
 14
775.9999999999999
 24
313.1589434213515
 34
0.0
100
AcDbRotatedDimension
1001
ACAD
1000
DSTYLE
1002
{
1070
   344
1005
3C
1070
   343
1005
3C
1070
   173
1070
     1
1070
   289
1070
     2
1070
   279
1070
     2
1070
   288
1070
     1
1070
    77
1070
     3
1070
   172
1070
     1
1070
   174
1070
     0
1070
    74
1070
     0
1070
    73
1070
     0
1070
   284
1070
     8
1070
    78
1070
     8
1070
   140
1040
3.0
1070
    40
1040
6.0
1070
    42
1040
2.0
1070
    44
1040
1.0
1070
    43
1040
10.0
1070
   271
1070
     2
1070
    41
1040
2.0
1002
}
  0
DIMENSION
  5
473
330
1F
100
AcDbEntity
  8
14
  6
Continuous
 62
     7
370
     9
100
AcDbDimension
  2
Dim13
 10
450.9999999891144
 20
200.1052272623301
 30
0.0
 11
590.9999999945566
 21
209.1052272623301
 31
0.0
 70
   160
  1
140
 71
     5
 42
-1.0
  3
Standard
100
AcDbAlignedDimension
 13
450.9999999891155
 23
270.2589434213542
 33
0.0
 14
730.9999999999999
 24
270.2589434213542
 34
0.0
100
AcDbRotatedDimension
1001
ACAD
1000
DSTYLE
1002
{
1070
   344
1005
3C
1070
   343
1005
3C
1070
   173
1070
     1
1070
   289
1070
     2
1070
   279
1070
     2
1070
   288
1070
     1
1070
    77
1070
     3
1070
   172
1070
     1
1070
   174
1070
     0
1070
    74
1070
     0
1070
    73
1070
     0
1070
   284
1070
     8
1070
    78
1070
     8
1070
   140
1040
3.0
1070
    40
1040
6.0
1070
    42
1040
2.0
1070
    44
1040
1.0
1070
    43
1040
10.0
1070
   271
1070
     2
1070
    41
1040
2.0
1002
}
  0
INSERT
  5
48A
330
1F
100
AcDbEntity
  8
0
100
AcDbBlockReference
  2
*G49
 10
0.0
 20
0.0
 30
0.0
  0
INSERT
  5
4A2
330
1F
100
AcDbEntity
  8
0
100
AcDbBlockReference
  2
*G50
 10
0.0
 20
0.0
 30
0.0
  0
INSERT
  5
4AF
330
1F
100
AcDbEntity
  8
0
100
AcDbBlockReference
  2
*G51
 10
0.0
 20
0.0
 30
0.0
  0
INSERT
  5
4C7
330
1F
100
AcDbEntity
  8
0
100
AcDbBlockReference
  2
*G52
 10
0.0
 20
0.0
 30
0.0
  0
INSERT
  5
4D4
330
1F
100
AcDbEntity
  8
0
100
AcDbBlockReference
  2
*G53
 10
0.0
 20
0.0
 30
0.0
  0
LINE
  5
4D5
330
1F
100
AcDbEntity
  8
12
  6
Continuous
 62
   136
370
    18
100
AcDbLine
 10
662.3997791579358
 20
303.9588989038608
 30
0.0
 11
689.1999263863471
 21
303.9588989038608
 31
0.0
  0
LINE
  5
4D6
330
1F
100
AcDbEntity
  8
12
  6
Continuous
 62
   136
370
    18
100
AcDbLine
 10
662.3997791579358
 20
277.9588989038604
 30
0.0
 11
689.1999263877752
 21
277.9588989038604
 31
0.0
  0
LINE
  5
4D7
330
1F
100
AcDbEntity
  8
12
  6
Continuous
 62
   136
370
    18
100
AcDbLine
 10
492.8000736136527
 20
303.9589434213516
 30
0.0
 11
519.6000736095112
 21
303.9589434213516
 31
0.0
  0
LINE
  5
4D8
330
1F
100
AcDbEntity
  8
12
  6
Continuous
 62
   136
370
    18
100
AcDbLine
 10
492.8000736114449
 20
277.9589434213513
 30
0.0
 11
519.6000736095112
 21
277.9589434213513
 31
0.0
  0
DIMENSION
  5
4E4
330
1F
100
AcDbEntity
  8
14
  6
Continuous
 62
     7
370
     9
100
AcDbDimension
  2
Dim14
 10
500.8000736092362
 20
359.7589879389519
 30
0.0
 11
460.4508115307347
 21
350.7589879389519
 31
0.0
 70
   160
  1
（6以下）
 71
     5
 42
-1.0
  3
Standard
100
AcDbAlignedDimension
 13
500.8000736092362
 23
313.7589879389516
 33
0.0
 14
511.6000736135996
 24
313.7589879389516
 34
0.0
100
AcDbRotatedDimension
1001
ACAD
1000
DSTYLE
1002
{
1070
   344
1005
3C
1070
   343
1005
3C
1070
   173
1070
     1
1070
   289
1070
     2
1070
   279
1070
     2
1070
   288
1070
     1
1070
    77
1070
     3
1070
   172
1070
     1
1070
   174
1070
     0
1070
    74
1070
     0
1070
    73
1070
     0
1070
   284
1070
     8
1070
    78
1070
     8
1070
   140
1040
3.0
1070
    40
1040
6.0
1070
    42
1040
2.0
1070
    44
1040
1.0
1070
    43
1040
10.0
1070
   271
1070
     2
1070
    41
1040
2.0
1002
}
  0
DIMENSION
  5
4EF
330
1F
100
AcDbEntity
  8
14
  6
Continuous
 62
     7
370
     9
100
AcDbDimension
  2
Dim15
 10
511.6000736135997
 20
359.7589879389519
 30
0.0
 11
522.9999999977754
 21
368.7589879389519
 31
0.0
 70
   160
  1
11.4
 71
     5
 42
-1.0
  3
Standard
100
AcDbAlignedDimension
 13
511.6000736135996
 23
313.7589879389516
 33
0.0
 14
534.3999263819511
 24
313.7589879389516
 34
0.0
100
AcDbRotatedDimension
1001
ACAD
1000
DSTYLE
1002
{
1070
   344
1005
3C
1070
   343
1005
3C
1070
   173
1070
     1
1070
   289
1070
     2
1070
   279
1070
     2
1070
   288
1070
     1
1070
    77
1070
     3
1070
   172
1070
     1
1070
   174
1070
     0
1070
    74
1070
     0
1070
    73
1070
     0
1070
   284
1070
     8
1070
    78
1070
     8
1070
   140
1040
3.0
1070
    40
1040
6.0
1070
    42
1040
2.0
1070
    44
1040
1.0
1070
    43
1040
10.0
1070
   271
1070
     2
1070
    41
1040
2.0
1002
}
  0
DIMENSION
  5
4FB
330
1F
100
AcDbEntity
  8
14
  6
Continuous
 62
     7
370
     9
100
AcDbDimension
  2
Dim16
 10
624.9999263863265
 20
359.7589879389519
 30
0.0
 11
608.6357498704625
 21
350.7589879389519
 31
0.0
 70
   160
  1
（17.4以下）
 71
     5
 42
-1.0
  3
Standard
100
AcDbAlignedDimension
 13
624.9999263863264
 23
313.7589879389516
 33
0.0
 14
658.9999263876024
 24
313.7589879389516
 34
0.0
100
AcDbRotatedDimension
1001
ACAD
1000
DSTYLE
1002
{
1070
   344
1005
3C
1070
   343
1005
3C
1070
   173
1070
     1
1070
   289
1070
     2
1070
   279
1070
     2
1070
   288
1070
     1
1070
    77
1070
     3
1070
   172
1070
     1
1070
   174
1070
     0
1070
    74
1070
     0
1070
    73
1070
     0
1070
   284
1070
     8
1070
    78
1070
     8
1070
   140
1040
3.0
1070
    40
1040
6.0
1070
    42
1040
2.0
1070
    44
1040
1.0
1070
    43
1040
10.0
1070
   271
1070
     2
1070
    41
1040
2.0
1002
}
  0
DIMENSION
  5
506
330
1F
100
AcDbEntity
  8
14
  6
Continuous
 62
     7
370
     9
100
AcDbDimension
  2
Dim17
 10
658.9999263876025
 20
359.7589879389519
 30
0.0
 11
696.8118966570213
 21
368.7589879389519
 31
0.0
 70
   160
  1
（17.4以下）
 71
     5
 42
-1.0
  3
Standard
100
AcDbAlignedDimension
 13
658.9999263876024
 23
313.7589879389516
 33
0.0
 14
692.9999263883259
 24
313.7589879389516
 34
0.0
100
AcDbRotatedDimension
1001
ACAD
1000
DSTYLE
1002
{
1070
   344
1005
3C
1070
   343
1005
3C
1070
   173
1070
     1
1070
   289
1070
     2
1070
   279
1070
     2
1070
   288
1070
     1
1070
    77
1070
     3
1070
   172
1070
     1
1070
   174
1070
     0
1070
    74
1070
     0
1070
    73
1070
     0
1070
   284
1070
     8
1070
    78
1070
     8
1070
   140
1040
3.0
1070
    40
1040
6.0
1070
    42
1040
2.0
1070
    44
1040
1.0
1070
    43
1040
10.0
1070
   271
1070
     2
1070
    41
1040
2.0
1002
}
  0
LINE
  5
507
330
1F
100
AcDbEntity
  8
11
  6
Continuous
 62
    16
370
     9
100
AcDbLine
 10
736.9999317500784
 20
309.7589434213519
 30
0.0
 11
796.9999141667082
 21
309.7589434213519
 31
0.0
  0
LINE
  5
508
330
1F
100
AcDbEntity
  8
11
  6
Continuous
 62
    16
370
     9
100
AcDbLine
 10
385.0000858332918
 20
309.7589434213519
 30
0.0
 11
445.0000682499216
 21
309.7589434213519
 31
0.0
  0
LINE
  5
509
330
1F
100
AcDbEntity
  8
11
  6
Continuous
 62
    16
370
     9
100
AcDbLine
 10
380.9999642372131
 20
309.7589434213519
 30
0.0
 11
441.0000250339508
 21
309.7589434213519
 31
0.0
  0
LINE
  5
50A
330
1F
100
AcDbEntity
  8
11
  6
Continuous
 62
    16
370
     9
100
AcDbLine
 10
740.9999749660492
 20
309.7589434213519
 30
0.0
 11
800.9999472498894
 21
309.7589434213519
 31
0.0
  0
LINE
  5
50B
330
1F
100
AcDbEntity
  8
11
  6
Continuous
 62
    16
370
     9
100
AcDbLine
 10
441.0000250339508
 20
309.7589434213519
 30
0.0
 11
445.2517172975782
 21
181.1447585123344
 31
0.0
  0
LINE
  5
50C
330
1F
100
AcDbEntity
  8
11
  6
Continuous
 62
    16
370
     9
100
AcDbLine
 10
380.9999642372131
 20
309.7589434213519
 30
0.0
 11
380.9999642372131
 21
181.1447585123344
 31
0.0
  0
LINE
  5
50D
330
1F
100
AcDbEntity
  8
11
  6
Continuous
 62
    16
370
     9
100
AcDbLine
 10
740.9999749660492
 20
309.7589434213519
 30
0.0
 11
736.748235661061
 21
181.1447585123344
 31
0.0
  0
LINE
  5
50E
330
1F
100
AcDbEntity
  8
11
  6
Continuous
 62
    16
370
     9
100
AcDbLine
 10
800.9999472498894
 20
309.7589434213519
 30
0.0
 11
800.9999472498894
 21
181.1447585123344
 31
0.0
  0
INSERT
  5
51F
330
1F
100
AcDbEntity
  8
0
100
AcDbBlockReference
  2
*G58
 10
0.0
 20
0.0
 30
0.0
  0
TEXT
  5
520
330
1F
100
AcDbEntity
  8
8
  6
Continuous
 62
   171
370
     9
100
AcDbText
 10
531.0729799900539
 20
130.2749498388115
 30
0.0
 40
30.0
  1
断　面　図
 41
0.8
100
AcDbText
  0
TEXT
  5
521
330
1F
100
AcDbEntity
  8
8
  6
Continuous
 62
   171
370
     9
100
AcDbText
 10
687.0117436890554
 20
130.2749498388115
 30
0.0
 40
24.0
  1
Ｓ＝１：３
 41
0.7999999999999999
100
AcDbText
  0
LINE
  5
522
330
1F
100
AcDbEntity
  8
3
  6
Continuous
 62
     6
370
    18
100
AcDbLine
 10
392.0235484936838
 20
661.3667310990709
 30
0.0
 11
392.0235484936838
 21
633.3667310990709
 31
0.0
  0
LINE
  5
523
330
1F
100
AcDbEntity
  8
3
  6
Continuous
 62
     6
370
    18
100
AcDbLine
 10
392.0235484936838
 20
633.3667310990709
 30
0.0
 11
394.0235484936838
 21
631.3667310990709
 31
0.0
  0
LINE
  5
524
330
1F
100
AcDbEntity
  8
3
  6
Continuous
 62
     6
370
    18
100
AcDbLine
 10
394.0235484936838
 20
631.3667310990709
 30
0.0
 11
1389.023548493684
 21
631.3667310990709
 31
0.0
  0
LINE
  5
525
330
1F
100
AcDbEntity
  8
3
  6
Continuous
 62
     6
370
    18
100
AcDbLine
 10
1391.023548493684
 20
661.3667310990709
 30
0.0
 11
1391.023548493684
 21
633.3667310990709
 31
0.0
  0
LINE
  5
526
330
1F
100
AcDbEntity
  8
3
  6
Continuous
 62
     6
370
    18
100
AcDbLine
 10
1389.023548493684
 20
631.3667310990709
 30
0.0
 11
1391.023548493684
 21
633.3667310990709
 31
0.0
  0
DIMENSION
  5
532
330
1F
100
AcDbEntity
  8
6
  6
Continuous
 62
     7
370
     9
100
AcDbDimension
  2
Dim18
 10
392.0235484936843
 20
1073.274915966759
 30
0.0
 11
891.5235484936844
 21
1082.274915966759
 31
0.0
 70
   160
  1
<>
 71
     5
 42
-1.0
  3
Standard
100
AcDbAlignedDimension
 13
392.0235484936838
 23
961.2749159667592
 33
0.0
 14
1391.023548493684
 24
961.2749159667592
 34
0.0
100
AcDbRotatedDimension
1001
ACAD
1000
DSTYLE
1002
{
1070
   344
1005
3C
1070
   343
1005
3C
1070
   173
1070
     1
1070
   289
1070
     2
1070
   279
1070
     2
1070
   288
1070
     1
1070
    77
1070
     3
1070
   172
1070
     1
1070
   174
1070
     0
1070
    74
1070
     0
1070
    73
1070
     0
1070
   284
1070
     8
1070
    78
1070
     8
1070
   140
1040
3.0
1070
    40
1040
6.0
1070
    42
1040
2.0
1070
    44
1040
1.0
1070
    43
1040
10.0
1070
   271
1070
     2
1070
    41
1040
2.0
1002
}
  0
DIMENSION
  5
53D
330
1F
100
AcDbEntity
  8
6
  6
Continuous
 62
     7
370
     9
100
AcDbDimension
  2
Dim19
 10
392.0235484936843
 20
1031.274915966759
 30
0.0
 11
378.509099794206
 21
1040.274915966759
 31
0.0
 70
   160
  1
<>
 71
     5
 42
-1.0
  3
Standard
100
AcDbAlignedDimension
 13
392.0235484936838
 23
961.2749159667592
 33
0.0
 14
393.5235484936838
 24
941.2749159667592
 34
0.0
100
AcDbRotatedDimension
1001
ACAD
1000
DSTYLE
1002
{
1070
   344
1005
3C
1070
   343
1005
3C
1070
   173
1070
     1
1070
   289
1070
     2
1070
   279
1070
     2
1070
   288
1070
     1
1070
    77
1070
     3
1070
   172
1070
     1
1070
   174
1070
     0
1070
    74
1070
     0
1070
    73
1070
     0
1070
   284
1070
     8
1070
    78
1070
     8
1070
   140
1040
3.0
1070
    40
1040
6.0
1070
    42
1040
2.0
1070
    44
1040
1.0
1070
    43
1040
10.0
1070
   271
1070
     2
1070
    41
1040
2.0
1002
}
  0
DIMENSION
  5
548
330
1F
100
AcDbEntity
  8
6
  6
Continuous
 62
     7
370
     9
100
AcDbDimension
  2
Dim20
 10
393.5235484936842
 20
1031.274915966759
 30
0.0
 11
891.523548493684
 21
1040.274915966759
 31
0.0
 70
   160
  1
<>
 71
     5
 42
-1.0
  3
Standard
100
AcDbAlignedDimension
 13
393.5235484936838
 23
941.2749159667592
 33
0.0
 14
1389.523548493684
 24
941.2749159667592
 34
0.0
100
AcDbRotatedDimension
1001
ACAD
1000
DSTYLE
1002
{
1070
   344
1005
3C
1070
   343
1005
3C
1070
   173
1070
     1
1070
   289
1070
     2
1070
   279
1070
     2
1070
   288
1070
     1
1070
    77
1070
     3
1070
   172
1070
     1
1070
   174
1070
     0
1070
    74
1070
     0
1070
    73
1070
     0
1070
   284
1070
     8
1070
    78
1070
     8
1070
   140
1040
3.0
1070
    40
1040
6.0
1070
    42
1040
2.0
1070
    44
1040
1.0
1070
    43
1040
10.0
1070
   271
1070
     2
1070
    41
1040
2.0
1002
}
  0
DIMENSION
  5
552
330
1F
100
AcDbEntity
  8
6
  6
Continuous
 62
     7
370
     9
100
AcDbDimension
  2
Dim21
 10
1389.523548493684
 20
1031.274915966759
 30
0.0
 11
1405.009099794228
 21
1040.274915966759
 31
0.0
 70
   160
  1
<>
 71
     5
 42
-1.0
  3
Standard
100
AcDbAlignedDimension
 13
1389.523548493684
 23
941.2749159667592
 33
0.0
 14
1391.023548493684
 24
961.2749159667592
 34
0.0
100
AcDbRotatedDimension
1001
ACAD
1000
DSTYLE
1002
{
1070
   344
1005
3C
1070
   343
1005
3C
1070
   173
1070
     1
1070
   289
1070
     2
1070
   279
1070
     2
1070
   288
1070
     1
1070
    77
1070
     3
1070
   172
1070
     1
1070
   174
1070
     0
1070
    74
1070
     0
1070
    73
1070
     0
1070
   284
1070
     8
1070
    78
1070
     8
1070
   140
1040
3.0
1070
    40
1040
6.0
1070
    42
1040
2.0
1070
    44
1040
1.0
1070
    43
1040
10.0
1070
   271
1070
     2
1070
    41
1040
2.0
1002
}
  0
DIMENSION
  5
55E
330
1F
100
AcDbEntity
  8
6
  6
Continuous
 62
     7
370
     9
100
AcDbDimension
  2
Dim22
 10
392.023548493683
 20
529.3667310990709
 30
0.0
 11
891.523548493683
 21
538.3667310990709
 31
0.0
 70
   160
  1
<>
 71
     5
 42
-1.0
  3
Standard
100
AcDbAlignedDimension
 13
392.0235484936838
 23
633.3667310990709
 33
0.0
 14
1391.023548493684
 24
633.3667310990709
 34
0.0
100
AcDbRotatedDimension
1001
ACAD
1000
DSTYLE
1002
{
1070
   344
1005
3C
1070
   343
1005
3C
1070
   173
1070
     1
1070
   289
1070
     2
1070
   279
1070
     2
1070
   288
1070
     1
1070
    77
1070
     3
1070
   172
1070
     1
1070
   174
1070
     0
1070
    74
1070
     0
1070
    73
1070
     0
1070
   284
1070
     8
1070
    78
1070
     8
1070
   140
1040
3.0
1070
    40
1040
6.0
1070
    42
1040
2.0
1070
    44
1040
1.0
1070
    43
1040
10.0
1070
   271
1070
     2
1070
    41
1040
2.0
1002
}
  0
DIMENSION
  5
569
330
1F
100
AcDbEntity
  8
6
  6
Continuous
 62
     7
370
     9
100
AcDbDimension
  2
Dim23
 10
392.0235484936838
 20
571.3667310990709
 30
0.0
 11
373.788994984558
 21
580.3667310990709
 31
0.0
 70
   160
  1
<>
 71
     5
 42
-1.0
  3
Standard
100
AcDbAlignedDimension
 13
392.0235484936838
 23
633.3667310990709
 33
0.0
 14
408.5235484936838
 24
628.4493378334766
 34
0.0
100
AcDbRotatedDimension
1001
ACAD
1000
DSTYLE
1002
{
1070
   344
1005
3C
1070
   343
1005
3C
1070
   173
1070
     1
1070
   289
1070
     2
1070
   279
1070
     2
1070
   288
1070
     1
1070
    77
1070
     3
1070
   172
1070
     1
1070
   174
1070
     0
1070
    74
1070
     0
1070
    73
1070
     0
1070
   284
1070
     8
1070
    78
1070
     8
1070
   140
1040
3.0
1070
    40
1040
6.0
1070
    42
1040
2.0
1070
    44
1040
1.0
1070
    43
1040
10.0
1070
   271
1070
     2
1070
    41
1040
2.0
1002
}
  0
DIMENSION
  5
574
330
1F
100
AcDbEntity
  8
6
  6
Continuous
 62
     7
370
     9
100
AcDbDimension
  2
Dim24
 10
408.5235484936838
 20
571.3667310990709
 30
0.0
 11
550.0235484936841
 21
580.3667310990709
 31
0.0
 70
   160
  1
<>
 71
     5
 42
-1.0
  3
Standard
100
AcDbAlignedDimension
 13
408.5235484936838
 23
628.4493378334766
 33
0.0
 14
691.523548493684
 24
628.4493378334766
 34
0.0
100
AcDbRotatedDimension
1001
ACAD
1000
DSTYLE
1002
{
1070
   344
1005
3C
1070
   343
1005
3C
1070
   173
1070
     1
1070
   289
1070
     2
1070
   279
1070
     2
1070
   288
1070
     1
1070
    77
1070
     3
1070
   172
1070
     1
1070
   174
1070
     0
1070
    74
1070
     0
1070
    73
1070
     0
1070
   284
1070
     8
1070
    78
1070
     8
1070
   140
1040
3.0
1070
    40
1040
6.0
1070
    42
1040
2.0
1070
    44
1040
1.0
1070
    43
1040
10.0
1070
   271
1070
     2
1070
    41
1040
2.0
1002
}
  0
DIMENSION
  5
57F
330
1F
100
AcDbEntity
  8
6
  6
Continuous
 62
     7
370
     9
100
AcDbDimension
  2
Dim25
 10
691.523548493684
 20
571.3667310990709
 30
0.0
 11
891.523548493684
 21
580.3667310990709
 31
0.0
 70
   160
  1
<>
 71
     5
 42
-1.0
  3
Standard
100
AcDbAlignedDimension
 13
691.523548493684
 23
628.4493378334766
 33
0.0
 14
1091.523548493684
 24
628.4493378334766
 34
0.0
100
AcDbRotatedDimension
1001
ACAD
1000
DSTYLE
1002
{
1070
   344
1005
3C
1070
   343
1005
3C
1070
   173
1070
     1
1070
   289
1070
     2
1070
   279
1070
     2
1070
   288
1070
     1
1070
    77
1070
     3
1070
   172
1070
     1
1070
   174
1070
     0
1070
    74
1070
     0
1070
    73
1070
     0
1070
   284
1070
     8
1070
    78
1070
     8
1070
   140
1040
3.0
1070
    40
1040
6.0
1070
    42
1040
2.0
1070
    44
1040
1.0
1070
    43
1040
10.0
1070
   271
1070
     2
1070
    41
1040
2.0
1002
}
  0
DIMENSION
  5
58A
330
1F
100
AcDbEntity
  8
6
  6
Continuous
 62
     7
370
     9
100
AcDbDimension
  2
Dim26
 10
1091.523548493684
 20
571.3667310990709
 30
0.0
 11
1233.023548493684
 21
580.3667310990709
 31
0.0
 70
   160
  1
<>
 71
     5
 42
-1.0
  3
Standard
100
AcDbAlignedDimension
 13
1091.523548493684
 23
628.4493378334766
 33
0.0
 14
1374.523548493684
 24
628.4493378334766
 34
0.0
100
AcDbRotatedDimension
1001
ACAD
1000
DSTYLE
1002
{
1070
   344
1005
3C
1070
   343
1005
3C
1070
   173
1070
     1
1070
   289
1070
     2
1070
   279
1070
     2
1070
   288
1070
     1
1070
    77
1070
     3
1070
   172
1070
     1
1070
   174
1070
     0
1070
    74
1070
     0
1070
    73
1070
     0
1070
   284
1070
     8
1070
    78
1070
     8
1070
   140
1040
3.0
1070
    40
1040
6.0
1070
    42
1040
2.0
1070
    44
1040
1.0
1070
    43
1040
10.0
1070
   271
1070
     2
1070
    41
1040
2.0
1002
}
  0
DIMENSION
  5
594
330
1F
100
AcDbEntity
  8
6
  6
Continuous
 62
     7
370
     9
100
AcDbDimension
  2
Dim27
 10
1374.523548493684
 20
571.3667310990709
 30
0.0
 11
1408.600106095688
 21
580.3667310990709
 31
0.0
 70
   160
  1
<>
 71
     5
 42
-1.0
  3
Standard
100
AcDbAlignedDimension
 13
1374.523548493684
 23
628.4493378334766
 33
0.0
 14
1391.023548493684
 24
633.3667310990709
 34
0.0
100
AcDbRotatedDimension
1001
ACAD
1000
DSTYLE
1002
{
1070
   344
1005
3C
1070
   343
1005
3C
1070
   173
1070
     1
1070
   289
1070
     2
1070
   279
1070
     2
1070
   288
1070
     1
1070
    77
1070
     3
1070
   172
1070
     1
1070
   174
1070
     0
1070
    74
1070
     0
1070
    73
1070
     0
1070
   284
1070
     8
1070
    78
1070
     8
1070
   140
1040
3.0
1070
    40
1040
6.0
1070
    42
1040
2.0
1070
    44
1040
1.0
1070
    43
1040
10.0
1070
   271
1070
     2
1070
    41
1040
2.0
1002
}
  0
LINE
  5
595
330
1F
100
AcDbEntity
  8
8
  6
Continuous
 62
   171
370
    18
100
AcDbLine
 10
1710.0
 20
1110.0
 30
0.0
 11
1068.0
 21
1110.0
 31
0.0
  0
LINE
  5
596
330
1F
100
AcDbEntity
  8
8
  6
Continuous
 62
   171
370
    18
100
AcDbLine
 10
1068.0
 20
1110.0
 30
0.0
 11
1068.0
 21
1151.999999999999
 31
0.0
  0
LINE
  5
597
330
1F
100
AcDbEntity
  8
8
  6
Continuous
 62
   171
370
    18
100
AcDbLine
 10
1110.0
 20
1110.0
 30
0.0
 11
1110.0
 21
1151.999999999999
 31
0.0
  0
LINE
  5
598
330
1F
100
AcDbEntity
  8
8
  6
Continuous
 62
   171
370
    18
100
AcDbLine
 10
1410.0
 20
1110.0
 30
0.0
 11
1410.0
 21
1151.999999999999
 31
0.0
  0
LINE
  5
599
330
1F
100
AcDbEntity
  8
8
  6
Continuous
 62
   171
370
    18
100
AcDbLine
 10
1530.0
 20
1110.0
 30
0.0
 11
1530.0
 21
1151.999999999999
 31
0.0
  0
TEXT
  5
59A
330
1F
100
AcDbEntity
  8
8
  6
Continuous
 62
   171
370
     9
100
AcDbText
 10
1158.6
 20
132.0
 30
0.0
 40
24.0
  1
ＧＲＵ－１５０
 41
0.6
100
AcDbText
  0
TEXT
  5
59B
330
1F
100
AcDbEntity
  8
8
  6
Continuous
 62
   171
370
     9
100
AcDbText
 10
1126.620444444444
 20
1113.0
 30
0.0
 40
15.0
  1
品番変更
100
AcDbText
  0
TEXT
  5
59C
330
1F
100
AcDbEntity
  8
8
  6
Continuous
 62
   171
370
     9
100
AcDbText
 10
1416.0
 20
1113.0
 30
0.0
 40
15.0
  1
２０１３．０３．１３
 41
0.7199999999999999
100
AcDbText
  0
VIEWPORT
  5
2A
330
1B
100
AcDbEntity
 67
     1
  8
0
100
AcDbViewport
 10
891.0
 20
630.0
 30
0.0
 40
1782.0
 41
1260.0
 68
     1
 69
     1
 12
891.0
 22
630.0
 13
0.0
 23
0.0
 14
0.5
 24
0.5
 15
0.5
 25
0.5
 16
0.0
 26
0.0
 36
1.0
 17
0.0
 27
0.0
 37
0.0
 42
50.0
 43
0.0
 44
0.0
 45
9.0
 50
0.0
 51
0.0
 72
   100
 90
    32800
  1

281
     0
 71
     1
 74
     0
110
0.0
120
0.0
130
0.0
111
1.0
121
0.0
131
0.0
112
0.0
122
1.0
132
0.0
 79
     0
146
0.0
170
     0
  0
ENDSEC
  0
SECTION
  2
OBJECTS
  0
DICTIONARY
  5
C
330
0
100
AcDbDictionary
281
     1
  3
ACAD_GROUP
350
D
  3
ACAD_LAYOUT
350
1A
  3
ACAD_MLINESTYLE
350
17
  3
ACAD_PLOTSETTINGS
350
19
  3
ACAD_PLOTSTYLENAME
350
E
  0
DICTIONARY
  5
D
102
{ACAD_REACTORS
330
C
102
}
330
C
100
AcDbDictionary
281
     1
  0
DICTIONARY
  5
1A
102
{ACAD_REACTORS
330
C
102
}
330
C
100
AcDbDictionary
281
     1
  3
Layout1
350
1E
  3
Layout2
350
26
  3
Model
350
22
  0
DICTIONARY
  5
17
102
{ACAD_REACTORS
330
C
102
}
330
C
100
AcDbDictionary
281
     1
  3
Standard
350
18
  0
DICTIONARY
  5
19
102
{ACAD_REACTORS
330
C
102
}
330
C
100
AcDbDictionary
281
     1
  0
ACDBDICTIONARYWDFLT
  5
E
102
{ACAD_REACTORS
330
C
102
}
330
C
100
AcDbDictionary
281
     1
  3
Normal
350
F
100
AcDbDictionaryWithDefault
340
F
  0
LAYOUT
  5
1E
102
{ACAD_REACTORS
330
1A
102
}
330
1A
100
AcDbPlotSettings
  1

  2

  4

  6

 40
0.0
 41
0.0
 42
0.0
 43
0.0
 44
0.0
 45
0.0
 46
0.0
 47
0.0
 48
0.0
 49
0.0
140
0.0
141
0.0
142
1.0
143
1.0
 70
   688
 72
     0
 73
     0
 74
     5
  7

 75
    16
 76
     0
 77
     2
 78
   300
147
1.0
148
0.0
149
0.0
100
AcDbLayout
  1
Layout1
 70
     1
 71
     1
 10
0.0
 20
0.0
 11
297.0
 21
210.0
 12
0.0
 22
0.0
 32
0.0
 14
0.0
 24
0.0
 34
0.0
 15
297.0
 25
210.0
 35
0.0
146
0.0
 13
0.0
 23
0.0
 33
0.0
 16
1.0
 26
0.0
 36
0.0
 17
0.0
 27
1.0
 37
0.0
 76
     0
330
1B
331
2A
  0
LAYOUT
  5
26
102
{ACAD_REACTORS
330
1A
102
}
330
1A
100
AcDbPlotSettings
  1

  2

  4

  6

 40
0.0
 41
0.0
 42
0.0
 43
0.0
 44
0.0
 45
0.0
 46
0.0
 47
0.0
 48
0.0
 49
0.0
140
0.0
141
0.0
142
1.0
143
1.0
 70
   688
 72
     0
 73
     0
 74
     5
  7

 75
    16
 76
     0
 77
     2
 78
   300
147
1.0
148
0.0
149
0.0
100
AcDbLayout
  1
Layout2
 70
     1
 71
     2
 10
0.0
 20
0.0
 11
0.0
 21
0.0
 12
0.0
 22
0.0
 32
0.0
 14
0.0
 24
0.0
 34
0.0
 15
0.0
 25
0.0
 35
0.0
146
0.0
 13
0.0
 23
0.0
 33
0.0
 16
1.0
 26
0.0
 36
0.0
 17
0.0
 27
1.0
 37
0.0
 76
     0
330
23
  0
LAYOUT
  5
22
102
{ACAD_REACTORS
330
1A
102
}
330
1A
100
AcDbPlotSettings
  1

  2

  4

  6

 40
0.0
 41
0.0
 42
0.0
 43
0.0
 44
0.0
 45
0.0
 46
0.0
 47
0.0
 48
0.0
 49
0.0
140
0.0
141
0.0
142
1.0
143
1.0
 70
  1712
 72
     0
 73
     0
 74
     0
  7

 75
     0
 76
     0
 77
     2
 78
   300
147
1.0
148
0.0
149
0.0
100
AcDbLayout
  1
Model
 70
     1
 71
     0
 10
0.0
 20
0.0
 11
1782.0
 21
1260.0
 12
0.0
 22
0.0
 32
0.0
 14
0.0
 24
0.0
 34
0.0
 15
1782.0
 25
1260.0
 35
0.0
146
0.0
 13
0.0
 23
0.0
 33
0.0
 16
1.0
 26
0.0
 36
0.0
 17
0.0
 27
1.0
 37
0.0
 76
     0
330
1F
  0
MLINESTYLE
  5
18
102
{ACAD_REACTORS
330
17
102
}
330
17
100
AcDbMlineStyle
  2
Standard
 70
     0
  3

 62
   256
 51
90.0
 52
90.0
 71
     2
 49
0.5
 62
   256
  6
BYLAYER
 49
-0.5
 62
   256
  6
BYLAYER
  0
ACDBPLACEHOLDER
  5
F
102
{ACAD_REACTORS
330
E
102
}
330
E
  0
ENDSEC
  0
EOF
