  0
SECTION
  2
HEADER
  9
$ACADVER
  1
AC1018
  9
$ACADMAINTVER
 70
     0
  9
$DWGCODEPAGE
  3
ANSI_932
  9
$INSBASE
 10
0.0
 20
0.0
 30
0.0
  9
$EXTMIN
 10
0.0
 20
0.0
 30
0.0
  9
$EXTMAX
 10
1782.0
 20
1260.0
 30
0.0
  9
$LIMMIN
 10
0.0
 20
0.0
  9
$LIMMAX
 10
1782.0
 20
1260.0
  9
$ORTHOMODE
 70
     0
  9
$REGENMODE
 70
     1
  9
$FILLMODE
 70
     1
  9
$QTEXTMODE
 70
     0
  9
$MIRRTEXT
 70
     1
  9
$LTSCALE
 40
1.5
  9
$ATTMODE
 70
     1
  9
$TEXTSIZE
 40
18.0
  9
$TRACEWID
 40
0.05
  9
$TEXTSTYLE
  7
Standard
  9
$CLAYER
  8
0
  9
$CELTYPE
  6
ByLayer
  9
$CECOLOR
 62
   256
  9
$CELTSCALE
 40
1.0
  9
$DISPSILH
 70
     0
  9
$DIMSCALE
 40
6.0
  9
$DIMASZ
 40
2.0
  9
$DIMEXO
 40
2.0
  9
$DIMDLI
 40
10.0
  9
$DIMRND
 40
0.0
  9
$DIMDLE
 40
0.0
  9
$DIMEXE
 40
1.0
  9
$DIMTP
 40
0.0
  9
$DIMTM
 40
0.0
  9
$DIMTXT
 40
3.0
  9
$DIMCEN
 40
0.09
  9
$DIMTSZ
 40
0.0
  9
$DIMTOL
 70
     0
  9
$DIMLIM
 70
     0
  9
$DIMTIH
 70
     0
  9
$DIMTOH
 70
     0
  9
$DIMSE1
 70
     0
  9
$DIMSE2
 70
     0
  9
$DIMTAD
 70
     3
  9
$DIMZIN
 70
     8
  9
$DIMBLK
  1

  9
$DIMASO
 70
     1
  9
$DIMSHO
 70
     1
  9
$DIMPOST
  1

  9
$DIMAPOST
  1

  9
$DIMALT
 70
     0
  9
$DIMALTD
 70
     2
  9
$DIMALTF
 40
25.4
  9
$DIMLFAC
 40
1.0
  9
$DIMTOFL
 70
     1
  9
$DIMTVP
 40
0.7
  9
$DIMTIX
 70
     0
  9
$DIMSOXD
 70
     0
  9
$DIMSAH
 70
     0
  9
$DIMBLK1
  1

  9
$DIMBLK2
  1

  9
$DIMSTYLE
  2
Standard
  9
$DIMCLRD
 70
     0
  9
$DIMCLRE
 70
     0
  9
$DIMCLRT
 70
     0
  9
$DIMTFAC
 40
0.5
  9
$DIMGAP
 40
0.09
  9
$DIMJUST
 70
     0
  9
$DIMSD1
 70
     0
  9
$DIMSD2
 70
     0
  9
$DIMTOLJ
 70
     1
  9
$DIMTZIN
 70
     8
  9
$DIMALTZ
 70
     0
  9
$DIMALTTZ
 70
     0
  9
$DIMUPT
 70
     1
  9
$DIMDEC
 70
     2
  9
$DIMTDEC
 70
     4
  9
$DIMALTU
 70
     2
  9
$DIMALTTD
 70
     2
  9
$DIMTXSTY
  7
Standard
  9
$DIMAUNIT
 70
     0
  9
$DIMADEC
 70
     0
  9
$DIMALTRND
 40
0.0
  9
$DIMAZIN
 70
     0
  9
$DIMDSEP
 70
    46
  9
$DIMATFIT
 70
     2
  9
$DIMFRAC
 70
     0
  9
$DIMLDRBLK
  1

  9
$DIMLUNIT
 70
     2
  9
$DIMLWD
 70
    -2
  9
$DIMLWE
 70
    -2
  9
$DIMTMOVE
 70
     2
  9
$LUNITS
 70
     2
  9
$LUPREC
 70
     4
  9
$SKETCHINC
 40
0.1
  9
$FILLETRAD
 40
0.5
  9
$AUNITS
 70
     0
  9
$AUPREC
 70
     0
  9
$MENU
  1
.
  9
$ELEVATION
 40
0.0
  9
$PELEVATION
 40
0.0
  9
$THICKNESS
 40
0.0
  9
$LIMCHECK
 70
     0
  9
$CHAMFERA
 40
0.5
  9
$CHAMFERB
 40
0.5
  9
$CHAMFERC
 40
1.0
  9
$CHAMFERD
 40
0.0
  9
$SKPOLY
 70
     0
  9
$TDCREATE
 40
2456421.823796296
  9
$TDUCREATE
 40
2456421.448796296
  9
$TDUPDATE
 40
2456421.823796296
  9
$TDUUPDATE
 40
2456421.448796296
  9
$TDINDWG
 40
0.0000000116
  9
$TDUSRTIMER
 40
0.0000000116
  9
$USRTIMER
 70
     1
  9
$ANGBASE
 50
0.0
  9
$ANGDIR
 70
     0
  9
$PDMODE
 70
     0
  9
$PDSIZE
 40
0.0
  9
$PLINEWID
 40
0.0
  9
$SPLFRAME
 70
     0
  9
$SPLINETYPE
 70
     6
  9
$SPLINESEGS
 70
     8
  9
$HANDSEED
  5
582
  9
$SURFTAB1
 70
     6
  9
$SURFTAB2
 70
     6
  9
$SURFTYPE
 70
     6
  9
$SURFU
 70
     6
  9
$SURFV
 70
     6
  9
$UCSBASE
  2

  9
$UCSNAME
  2

  9
$UCSORG
 10
0.0
 20
0.0
 30
0.0
  9
$UCSXDIR
 10
1.0
 20
0.0
 30
0.0
  9
$UCSYDIR
 10
0.0
 20
1.0
 30
0.0
  9
$UCSORTHOREF
  2

  9
$UCSORTHOVIEW
 70
     0
  9
$UCSORGTOP
 10
0.0
 20
0.0
 30
0.0
  9
$UCSORGBOTTOM
 10
0.0
 20
0.0
 30
0.0
  9
$UCSORGLEFT
 10
0.0
 20
0.0
 30
0.0
  9
$UCSORGRIGHT
 10
0.0
 20
0.0
 30
0.0
  9
$UCSORGFRONT
 10
0.0
 20
0.0
 30
0.0
  9
$UCSORGBACK
 10
0.0
 20
0.0
 30
0.0
  9
$PUCSBASE
  2

  9
$PUCSNAME
  2

  9
$PUCSORG
 10
0.0
 20
0.0
 30
0.0
  9
$PUCSXDIR
 10
1.0
 20
0.0
 30
0.0
  9
$PUCSYDIR
 10
0.0
 20
1.0
 30
0.0
  9
$PUCSORTHOREF
  2

  9
$PUCSORTHOVIEW
 70
     0
  9
$PUCSORGTOP
 10
0.0
 20
0.0
 30
0.0
  9
$PUCSORGBOTTOM
 10
0.0
 20
0.0
 30
0.0
  9
$PUCSORGLEFT
 10
0.0
 20
0.0
 30
0.0
  9
$PUCSORGRIGHT
 10
0.0
 20
0.0
 30
0.0
  9
$PUCSORGFRONT
 10
0.0
 20
0.0
 30
0.0
  9
$PUCSORGBACK
 10
0.0
 20
0.0
 30
0.0
  9
$USERI1
 70
     0
  9
$USERI2
 70
     0
  9
$USERI3
 70
     0
  9
$USERI4
 70
     0
  9
$USERI5
 70
     0
  9
$USERR1
 40
0.0
  9
$USERR2
 40
0.0
  9
$USERR3
 40
0.0
  9
$USERR4
 40
0.0
  9
$USERR5
 40
0.0
  9
$WORLDVIEW
 70
     1
  9
$SHADEDGE
 70
     3
  9
$SHADEDIF
 70
    70
  9
$TILEMODE
 70
     1
  9
$MAXACTVP
 70
    64
  9
$PINSBASE
 10
0.0
 20
0.0
 30
0.0
  9
$PLIMCHECK
 70
     0
  9
$PEXTMIN
 10
0.0
 20
0.0
 30
0.0
  9
$PEXTMAX
 10
297.0
 20
210.0
 30
0.0
  9
$PLIMMIN
 10
0.0
 20
0.0
  9
$PLIMMAX
 10
297.0
 20
210.0
  9
$UNITMODE
 70
     0
  9
$VISRETAIN
 70
     1
  9
$PLINEGEN
 70
     0
  9
$PSLTSCALE
 70
     1
  9
$TREEDEPTH
 70
  3020
  9
$CMLSTYLE
  2
Standard
  9
$CMLJUST
 70
     0
  9
$CMLSCALE
 40
1.0
  9
$PROXYGRAPHICS
 70
     1
  9
$MEASUREMENT
 70
     1
  9
$CELWEIGHT
370
    -1
  9
$ENDCAPS
280
     0
  9
$JOINSTYLE
280
     0
  9
$LWDISPLAY
290
     0
  9
$INSUNITS
 70
     4
  9
$HYPERLINKBASE
  1

  9
$STYLESHEET
  1

  9
$XEDIT
290
     1
  9
$CEPSNTYPE
380
     0
  9
$PSTYLEMODE
290
     1
  9
$FINGERPRINTGUID
  2
{9CB5EDBA-6D47-4EF9-9192-9EA64ED15275}
  9
$VERSIONGUID
  2
{FAEB1C32-E019-11D5-929B-00C0DF256EC4}
  9
$EXTNAMES
290
     1
  9
$PSVPSCALE
 40
0.0
  9
$OLESTARTUP
290
     0
  9
$SORTENTS
280
   127
  9
$INDEXCTL
280
     0
  9
$HIDETEXT
280
     1
  9
$XCLIPFRAME
290
     0
  9
$HALOGAP
280
     0
  9
$OBSCOLOR
 70
   257
  9
$OBSLTYPE
280
     0
  9
$INTERSECTIONDISPLAY
280
     0
  9
$INTERSECTIONCOLOR
 70
   257
  9
$DIMASSOC
280
     1
  9
$PROJECTNAME
  1

  0
ENDSEC
  0
SECTION
  2
CLASSES
  0
CLASS
  1
ACDBDICTIONARYWDFLT
  2
AcDbDictionaryWithDefault
  3
ObjectDBX Classes
 90
        0
 91
        3
280
     0
281
     0
  0
ENDSEC
  0
SECTION
  2
TABLES
  0
TABLE
  2
VPORT
  5
8
330
0
100
AcDbSymbolTable
 70
     1
  0
VPORT
  5
29
330
8
100
AcDbSymbolTableRecord
100
AcDbViewportTableRecord
  2
*Active
 70
     0
 10
0.0
 20
0.0
 11
1.0
 21
1.0
 12
10.42990654205607
 22
4.5
 13
0.0
 23
0.0
 14
0.5
 24
0.5
 15
0.5
 25
0.5
 16
0.0
 26
0.0
 36
1.0
 17
0.0
 27
0.0
 37
0.0
 40
9.0
 41
1.972972972850329
 42
50.0
 43
0.0
 44
0.0
 50
0.0
 51
0.0
 71
     0
 72
   100
 73
     1
 74
     3
 75
     0
 76
     0
 77
     0
 78
     0
281
     0
 65
     1
110
0.0
120
0.0
130
0.0
111
1.0
121
0.0
131
0.0
112
0.0
122
1.0
132
0.0
 79
     0
146
0.0
  0
ENDTAB
  0
TABLE
  2
LTYPE
  5
5
330
0
100
AcDbSymbolTable
 70
     9
  0
LTYPE
  5
14
330
5
100
AcDbSymbolTableRecord
100
AcDbLinetypeTableRecord
  2
ByBlock
 70
     0
  3

 72
    65
 73
     0
 40
0.0
  0
LTYPE
  5
15
330
5
100
AcDbSymbolTableRecord
100
AcDbLinetypeTableRecord
  2
ByLayer
 70
     0
  3

 72
    65
 73
     0
 40
0.0
  0
LTYPE
  5
16
330
5
100
AcDbSymbolTableRecord
100
AcDbLinetypeTableRecord
  2
Continuous
 70
     0
  3
Solid line
 72
    65
 73
     0
 40
0.0
  0
LTYPE
  5
68
330
5
100
AcDbSymbolTableRecord
100
AcDbLinetypeTableRecord
  2
DOT
 70
     0
  3
DOT
 72
    65
 73
     2
 40
4.0
 49
6.0
 74
     0
 49
-2.0
 74
     0
  0
LTYPE
  5
69
330
5
100
AcDbSymbolTableRecord
100
AcDbLinetypeTableRecord
  2
HIDDEN
 70
     0
  3
HIDDEN
 72
    65
 73
     2
 40
4.2
 49
8.4
 74
     0
 49
-4.2
 74
     0
  0
LTYPE
  5
6A
330
5
100
AcDbSymbolTableRecord
100
AcDbLinetypeTableRecord
  2
DASHDOT
 70
     0
  3
DASHDOT
 72
    65
 73
     4
 40
14.5
 49
30.0
 74
     0
 49
-9.0
 74
     0
 49
2.5
 74
     0
 49
-9.0
 74
     0
  0
LTYPE
  5
6B
330
5
100
AcDbSymbolTableRecord
100
AcDbLinetypeTableRecord
  2
PHANTOM
 70
     0
  3
PHANTOM
 72
    65
 73
     6
 40
12.0
 49
30.0
 74
     0
 49
-9.0
 74
     0
 49
2.5
 74
     0
 49
-5.0
 74
     0
 49
2.5
 74
     0
 49
-9.0
 74
     0
  0
LTYPE
  5
6C
330
5
100
AcDbSymbolTableRecord
100
AcDbLinetypeTableRecord
  2
ACAD_ISO14W100
 70
     0
  3
ACAD_ISO14W100
 72
    65
 73
     8
 40
1.5
 49
12.0
 74
     0
 49
-3.0
 74
     0
 49
0.5
 74
     0
 49
-3.0
 74
     0
 49
0.5
 74
     0
 49
-3.0
 74
     0
 49
0.5
 74
     0
 49
-3.0
 74
     0
  0
LTYPE
  5
6D
330
5
100
AcDbSymbolTableRecord
100
AcDbLinetypeTableRecord
  2
ACAD_ISO06W100
 70
     0
  3
ACAD_ISO06W100
 72
    65
 73
     8
 40
13.5
 49
24.0
 74
     0
 49
-3.0
 74
     0
 49
0.5
 74
     0
 49
-3.0
 74
     0
 49
0.5
 74
     0
 49
-3.0
 74
     0
 49
0.5
 74
     0
 49
-3.0
 74
     0
  0
LTYPE
  5
6E
330
5
100
AcDbSymbolTableRecord
100
AcDbLinetypeTableRecord
  2
ACAD_ISO11W100
 70
     0
  3
ACAD_ISO11W100
 72
    65
 73
     6
 40
15.5
 49
12.0
 74
     0
 49
-3.0
 74
     0
 49
12.0
 74
     0
 49
-3.0
 74
     0
 49
0.5
 74
     0
 49
-3.0
 74
     0
  0
LTYPE
  5
6F
330
5
100
AcDbSymbolTableRecord
100
AcDbLinetypeTableRecord
  2
ACAD_ISO13W100
 70
     0
  3
ACAD_ISO13W100
 72
    65
 73
     8
 40
13.0
 49
12.0
 74
     0
 49
-3.0
 74
     0
 49
12.0
 74
     0
 49
-3.0
 74
     0
 49
0.5
 74
     0
 49
-3.0
 74
     0
 49
0.5
 74
     0
 49
-3.0
 74
     0
  0
ENDTAB
  0
TABLE
  2
LAYER
  5
2
330
0
100
AcDbSymbolTable
 70
    24
  0
LAYER
  5
10
330
2
100
AcDbSymbolTableRecord
100
AcDbLayerTableRecord
  2
0
 70
     0
 62
     7
  6
Continuous
370
    -3
390
F
  0
LAYER
  5
70
330
2
100
AcDbSymbolTableRecord
100
AcDbLayerTableRecord
  2
1
 70
     0
 62
    45
  6
Continuous
370
    -3
390
F
  0
LAYER
  5
71
330
2
100
AcDbSymbolTableRecord
100
AcDbLayerTableRecord
  2
2
 70
     0
 62
    90
  6
Continuous
370
    -3
390
F
  0
LAYER
  5
72
330
2
100
AcDbSymbolTableRecord
100
AcDbLayerTableRecord
  2
3
 70
     0
 62
     6
  6
Continuous
370
    -3
390
F
  0
LAYER
  5
73
330
2
100
AcDbSymbolTableRecord
100
AcDbLayerTableRecord
  2
4
 70
     0
 62
    30
  6
Continuous
370
    -3
390
F
  0
LAYER
  5
74
330
2
100
AcDbSymbolTableRecord
100
AcDbLayerTableRecord
  2
5
 70
     0
 62
     2
  6
Continuous
370
    -3
390
F
  0
LAYER
  5
75
330
2
100
AcDbSymbolTableRecord
100
AcDbLayerTableRecord
  2
6
 70
     0
 62
     7
  6
Continuous
370
    -3
390
F
  0
LAYER
  5
76
330
2
100
AcDbSymbolTableRecord
100
AcDbLayerTableRecord
  2
7
 70
     0
 62
   132
  6
Continuous
370
    -3
390
F
  0
LAYER
  5
77
330
2
100
AcDbSymbolTableRecord
100
AcDbLayerTableRecord
  2
8
 70
     0
 62
   171
  6
Continuous
370
    -3
390
F
  0
LAYER
  5
78
330
2
100
AcDbSymbolTableRecord
100
AcDbLayerTableRecord
  2
9
 70
     0
 62
   170
  6
Continuous
370
    -3
390
F
  0
LAYER
  5
79
330
2
100
AcDbSymbolTableRecord
100
AcDbLayerTableRecord
  2
10
 70
     0
 62
   172
  6
Continuous
370
    -3
390
F
  0
LAYER
  5
7A
330
2
100
AcDbSymbolTableRecord
100
AcDbLayerTableRecord
  2
11
 70
     0
 62
    16
  6
Continuous
370
    -3
390
F
  0
LAYER
  5
7B
330
2
100
AcDbSymbolTableRecord
100
AcDbLayerTableRecord
  2
12
 70
     0
 62
   136
  6
Continuous
370
    -3
390
F
  0
LAYER
  5
7C
330
2
100
AcDbSymbolTableRecord
100
AcDbLayerTableRecord
  2
13
 70
     0
 62
   216
  6
Continuous
370
    -3
390
F
  0
LAYER
  5
7D
330
2
100
AcDbSymbolTableRecord
100
AcDbLayerTableRecord
  2
14
 70
     0
 62
     7
  6
Continuous
370
    -3
390
F
  0
LAYER
  5
7E
330
2
100
AcDbSymbolTableRecord
100
AcDbLayerTableRecord
  2
15
 70
     0
 62
    14
  6
Continuous
370
    -3
390
F
  0
LAYER
  5
7F
330
2
100
AcDbSymbolTableRecord
100
AcDbLayerTableRecord
  2
16
 70
     0
 62
    94
  6
Continuous
370
    -3
390
F
  0
LAYER
  5
80
330
2
100
AcDbSymbolTableRecord
100
AcDbLayerTableRecord
  2
17
 70
     0
 62
   230
  6
Continuous
370
    -3
390
F
  0
LAYER
  5
81
330
2
100
AcDbSymbolTableRecord
100
AcDbLayerTableRecord
  2
18
 70
     0
 62
     7
  6
Continuous
370
    -3
390
F
  0
LAYER
  5
82
330
2
100
AcDbSymbolTableRecord
100
AcDbLayerTableRecord
  2
19
 70
     0
 62
    52
  6
Continuous
370
    -3
390
F
  0
LAYER
  5
83
330
2
100
AcDbSymbolTableRecord
100
AcDbLayerTableRecord
  2
20
 70
     0
 62
   134
  6
Continuous
370
    -3
390
F
  0
LAYER
  5
84
330
2
100
AcDbSymbolTableRecord
100
AcDbLayerTableRecord
  2
21
 70
     0
 62
   214
  6
Continuous
370
    -3
390
F
  0
LAYER
  5
85
330
2
100
AcDbSymbolTableRecord
100
AcDbLayerTableRecord
  2
22
 70
     0
 62
     7
  6
Continuous
370
    -3
390
F
  0
LAYER
  5
86
330
2
100
AcDbSymbolTableRecord
100
AcDbLayerTableRecord
  2
128
 70
     0
 62
     7
  6
Continuous
370
    -3
390
F
  0
ENDTAB
  0
TABLE
  2
STYLE
  5
3
330
0
100
AcDbSymbolTable
 70
     2
  0
STYLE
  5
11
330
3
100
AcDbSymbolTableRecord
100
AcDbTextStyleTableRecord
  2
Standard
 70
     0
 40
0.0
 41
1.0
 50
0.0
 71
     0
 42
0.2
  3
txt
  4
bigfont
  0
STYLE
  5
2C
330
3
100
AcDbSymbolTableRecord
100
AcDbTextStyleTableRecord
  2
T_STANDARD
 70
     4
 40
10.0
 41
1.0
 50
0.0
 71
     0
 42
10.0
  3
txt
  4
bigfont
  0
ENDTAB
  0
TABLE
  2
VIEW
  5
6
330
0
100
AcDbSymbolTable
 70
     0
  0
ENDTAB
  0
TABLE
  2
UCS
  5
7
330
0
100
AcDbSymbolTable
 70
     0
  0
ENDTAB
  0
TABLE
  2
APPID
  5
9
330
0
100
AcDbSymbolTable
 70
     2
  0
APPID
  5
12
330
9
100
AcDbSymbolTableRecord
100
AcDbRegAppTableRecord
  2
ACAD
 70
     0
  0
APPID
  5
2B
330
9
100
AcDbSymbolTableRecord
100
AcDbRegAppTableRecord
  2
ODA
 70
     0
  0
ENDTAB
  0
TABLE
  2
DIMSTYLE
  5
A
330
0
100
AcDbSymbolTable
 70
     1
100
AcDbDimStyleTable
  0
DIMSTYLE
105
27
102
{ACAD_REACTORS
330
23A
330
245
330
250
330
25D
330
273
330
27E
330
288
330
294
330
4AC
330
4B7
330
4C2
330
4CC
330
4D8
330
4E4
330
4EF
330
4FB
330
506
330
517
330
522
330
52D
330
537
330
543
330
54E
330
559
330
564
330
56F
330
579
102
}
330
A
100
AcDbSymbolTableRecord
100
AcDbDimStyleTableRecord
  2
Standard
 70
     0
340
11
  0
ENDTAB
  0
TABLE
  2
BLOCK_RECORD
  5
1
330
0
100
AcDbSymbolTable
 70
    68
  0
BLOCK_RECORD
  5
1F
330
1
100
AcDbSymbolTableRecord
100
AcDbBlockTableRecord
  2
*Model_Space
340
22
  0
BLOCK_RECORD
  5
1B
330
1
100
AcDbSymbolTableRecord
100
AcDbBlockTableRecord
  2
*Paper_Space
340
1E
  0
BLOCK_RECORD
  5
23
330
1
100
AcDbSymbolTableRecord
100
AcDbBlockTableRecord
  2
*Paper_Space0
340
26
  0
BLOCK_RECORD
  5
2D
330
1
100
AcDbSymbolTableRecord
100
AcDbBlockTableRecord
  2
_ORIGIN
340
0
  0
BLOCK_RECORD
  5
32
330
1
100
AcDbSymbolTableRecord
100
AcDbBlockTableRecord
  2
_DOTBLANK
340
0
  0
BLOCK_RECORD
  5
37
330
1
100
AcDbSymbolTableRecord
100
AcDbBlockTableRecord
  2
_DOT
340
0
  0
BLOCK_RECORD
  5
3C
330
1
100
AcDbSymbolTableRecord
100
AcDbBlockTableRecord
  2
_OPEN
340
0
  0
BLOCK_RECORD
  5
42
330
1
100
AcDbSymbolTableRecord
100
AcDbBlockTableRecord
  2
_CLOSED
340
0
  0
BLOCK_RECORD
  5
49
330
1
100
AcDbSymbolTableRecord
100
AcDbBlockTableRecord
  2
_CLOSEDBLANK
340
0
  0
BLOCK_RECORD
  5
4F
330
1
100
AcDbSymbolTableRecord
100
AcDbBlockTableRecord
  2
_BOXBLANK
340
0
  0
BLOCK_RECORD
  5
57
330
1
100
AcDbSymbolTableRecord
100
AcDbBlockTableRecord
  2
_BOXFILLED
340
0
  0
BLOCK_RECORD
  5
5C
330
1
100
AcDbSymbolTableRecord
100
AcDbBlockTableRecord
  2
_INTEGRAL
340
0
  0
BLOCK_RECORD
  5
61
330
1
100
AcDbSymbolTableRecord
100
AcDbBlockTableRecord
  2
_OBLIQUE
340
0
  0
BLOCK_RECORD
  5
65
330
1
100
AcDbSymbolTableRecord
100
AcDbBlockTableRecord
  2
_NONE
340
0
  0
BLOCK_RECORD
  5
C9
330
1
100
AcDbSymbolTableRecord
100
AcDbBlockTableRecord
  2
*G12
340
0
102
{BLKREFS
331
D0
102
}
  0
BLOCK_RECORD
  5
22F
330
1
100
AcDbSymbolTableRecord
100
AcDbBlockTableRecord
  2
Dim1
340
0
  0
BLOCK_RECORD
  5
23B
330
1
100
AcDbSymbolTableRecord
100
AcDbBlockTableRecord
  2
Dim2
340
0
  0
BLOCK_RECORD
  5
246
330
1
100
AcDbSymbolTableRecord
100
AcDbBlockTableRecord
  2
Dim3
340
0
  0
BLOCK_RECORD
  5
252
330
1
100
AcDbSymbolTableRecord
100
AcDbBlockTableRecord
  2
Dim4
340
0
  0
BLOCK_RECORD
  5
269
330
1
100
AcDbSymbolTableRecord
100
AcDbBlockTableRecord
  2
Dim5
340
0
  0
BLOCK_RECORD
  5
274
330
1
100
AcDbSymbolTableRecord
100
AcDbBlockTableRecord
  2
Dim6
340
0
  0
BLOCK_RECORD
  5
27F
330
1
100
AcDbSymbolTableRecord
100
AcDbBlockTableRecord
  2
Dim7
340
0
  0
BLOCK_RECORD
  5
289
330
1
100
AcDbSymbolTableRecord
100
AcDbBlockTableRecord
  2
Dim8
340
0
  0
BLOCK_RECORD
  5
295
330
1
100
AcDbSymbolTableRecord
100
AcDbBlockTableRecord
  2
*G21
340
0
102
{BLKREFS
331
29E
102
}
  0
BLOCK_RECORD
  5
2A1
330
1
100
AcDbSymbolTableRecord
100
AcDbBlockTableRecord
  2
*G22
340
0
102
{BLKREFS
331
2AA
102
}
  0
BLOCK_RECORD
  5
2AD
330
1
100
AcDbSymbolTableRecord
100
AcDbBlockTableRecord
  2
*G23
340
0
102
{BLKREFS
331
2B6
102
}
  0
BLOCK_RECORD
  5
2B9
330
1
100
AcDbSymbolTableRecord
100
AcDbBlockTableRecord
  2
*G24
340
0
102
{BLKREFS
331
2C2
102
}
  0
BLOCK_RECORD
  5
2C5
330
1
100
AcDbSymbolTableRecord
100
AcDbBlockTableRecord
  2
*G25
340
0
102
{BLKREFS
331
2CE
102
}
  0
BLOCK_RECORD
  5
2D1
330
1
100
AcDbSymbolTableRecord
100
AcDbBlockTableRecord
  2
*G26
340
0
102
{BLKREFS
331
2DA
102
}
  0
BLOCK_RECORD
  5
2DD
330
1
100
AcDbSymbolTableRecord
100
AcDbBlockTableRecord
  2
*G27
340
0
102
{BLKREFS
331
2E6
102
}
  0
BLOCK_RECORD
  5
2E9
330
1
100
AcDbSymbolTableRecord
100
AcDbBlockTableRecord
  2
*G28
340
0
102
{BLKREFS
331
2F2
102
}
  0
BLOCK_RECORD
  5
2F5
330
1
100
AcDbSymbolTableRecord
100
AcDbBlockTableRecord
  2
*G29
340
0
102
{BLKREFS
331
2FE
102
}
  0
BLOCK_RECORD
  5
301
330
1
100
AcDbSymbolTableRecord
100
AcDbBlockTableRecord
  2
*G30
340
0
102
{BLKREFS
331
30A
102
}
  0
BLOCK_RECORD
  5
30F
330
1
100
AcDbSymbolTableRecord
100
AcDbBlockTableRecord
  2
*G31
340
0
102
{BLKREFS
331
318
102
}
  0
BLOCK_RECORD
  5
31C
330
1
100
AcDbSymbolTableRecord
100
AcDbBlockTableRecord
  2
*G32
340
0
102
{BLKREFS
331
325
102
}
  0
BLOCK_RECORD
  5
329
330
1
100
AcDbSymbolTableRecord
100
AcDbBlockTableRecord
  2
*G33
340
0
102
{BLKREFS
331
332
102
}
  0
BLOCK_RECORD
  5
336
330
1
100
AcDbSymbolTableRecord
100
AcDbBlockTableRecord
  2
*G34
340
0
102
{BLKREFS
331
33F
102
}
  0
BLOCK_RECORD
  5
344
330
1
100
AcDbSymbolTableRecord
100
AcDbBlockTableRecord
  2
*G35
340
0
102
{BLKREFS
331
35B
102
}
  0
BLOCK_RECORD
  5
35C
330
1
100
AcDbSymbolTableRecord
100
AcDbBlockTableRecord
  2
*G36
340
0
102
{BLKREFS
331
373
102
}
  0
BLOCK_RECORD
  5
374
330
1
100
AcDbSymbolTableRecord
100
AcDbBlockTableRecord
  2
*G37
340
0
102
{BLKREFS
331
38B
102
}
  0
BLOCK_RECORD
  5
38C
330
1
100
AcDbSymbolTableRecord
100
AcDbBlockTableRecord
  2
*G38
340
0
102
{BLKREFS
331
3A3
102
}
  0
BLOCK_RECORD
  5
3A4
330
1
100
AcDbSymbolTableRecord
100
AcDbBlockTableRecord
  2
*G39
340
0
102
{BLKREFS
331
3BB
102
}
  0
BLOCK_RECORD
  5
3BC
330
1
100
AcDbSymbolTableRecord
100
AcDbBlockTableRecord
  2
*G40
340
0
102
{BLKREFS
331
3D3
102
}
  0
BLOCK_RECORD
  5
3D4
330
1
100
AcDbSymbolTableRecord
100
AcDbBlockTableRecord
  2
*G41
340
0
102
{BLKREFS
331
3EB
102
}
  0
BLOCK_RECORD
  5
3F9
330
1
100
AcDbSymbolTableRecord
100
AcDbBlockTableRecord
  2
*G42
340
0
102
{BLKREFS
331
404
102
}
  0
BLOCK_RECORD
  5
405
330
1
100
AcDbSymbolTableRecord
100
AcDbBlockTableRecord
  2
*G43
340
0
102
{BLKREFS
331
40E
102
}
  0
BLOCK_RECORD
  5
40F
330
1
100
AcDbSymbolTableRecord
100
AcDbBlockTableRecord
  2
*G44
340
0
102
{BLKREFS
331
426
102
}
  0
BLOCK_RECORD
  5
43F
330
1
100
AcDbSymbolTableRecord
100
AcDbBlockTableRecord
  2
*G45
340
0
102
{BLKREFS
331
44A
102
}
  0
BLOCK_RECORD
  5
44B
330
1
100
AcDbSymbolTableRecord
100
AcDbBlockTableRecord
  2
*G46
340
0
102
{BLKREFS
331
462
102
}
  0
BLOCK_RECORD
  5
47E
330
1
100
AcDbSymbolTableRecord
100
AcDbBlockTableRecord
  2
*G47
340
0
102
{BLKREFS
331
48E
102
}
  0
BLOCK_RECORD
  5
481
330
1
100
AcDbSymbolTableRecord
100
AcDbBlockTableRecord
  2
*G48
340
0
102
{BLKREFS
331
48D
102
}
  0
BLOCK_RECORD
  5
4A1
330
1
100
AcDbSymbolTableRecord
100
AcDbBlockTableRecord
  2
Dim9
340
0
  0
BLOCK_RECORD
  5
4AD
330
1
100
AcDbSymbolTableRecord
100
AcDbBlockTableRecord
  2
Dim10
340
0
  0
BLOCK_RECORD
  5
4B8
330
1
100
AcDbSymbolTableRecord
100
AcDbBlockTableRecord
  2
Dim11
340
0
  0
BLOCK_RECORD
  5
4C3
330
1
100
AcDbSymbolTableRecord
100
AcDbBlockTableRecord
  2
Dim12
340
0
  0
BLOCK_RECORD
  5
4CD
330
1
100
AcDbSymbolTableRecord
100
AcDbBlockTableRecord
  2
Dim13
340
0
  0
BLOCK_RECORD
  5
4D9
330
1
100
AcDbSymbolTableRecord
100
AcDbBlockTableRecord
  2
Dim14
340
0
  0
BLOCK_RECORD
  5
4E5
330
1
100
AcDbSymbolTableRecord
100
AcDbBlockTableRecord
  2
Dim15
340
0
  0
BLOCK_RECORD
  5
4F0
330
1
100
AcDbSymbolTableRecord
100
AcDbBlockTableRecord
  2
Dim16
340
0
  0
BLOCK_RECORD
  5
4FC
330
1
100
AcDbSymbolTableRecord
100
AcDbBlockTableRecord
  2
Dim17
340
0
  0
BLOCK_RECORD
  5
50C
330
1
100
AcDbSymbolTableRecord
100
AcDbBlockTableRecord
  2
Dim18
340
0
  0
BLOCK_RECORD
  5
518
330
1
100
AcDbSymbolTableRecord
100
AcDbBlockTableRecord
  2
Dim19
340
0
  0
BLOCK_RECORD
  5
523
330
1
100
AcDbSymbolTableRecord
100
AcDbBlockTableRecord
  2
Dim20
340
0
  0
BLOCK_RECORD
  5
52E
330
1
100
AcDbSymbolTableRecord
100
AcDbBlockTableRecord
  2
Dim21
340
0
  0
BLOCK_RECORD
  5
538
330
1
100
AcDbSymbolTableRecord
100
AcDbBlockTableRecord
  2
Dim22
340
0
  0
BLOCK_RECORD
  5
544
330
1
100
AcDbSymbolTableRecord
100
AcDbBlockTableRecord
  2
Dim23
340
0
  0
BLOCK_RECORD
  5
54F
330
1
100
AcDbSymbolTableRecord
100
AcDbBlockTableRecord
  2
Dim24
340
0
  0
BLOCK_RECORD
  5
55A
330
1
100
AcDbSymbolTableRecord
100
AcDbBlockTableRecord
  2
Dim25
340
0
  0
BLOCK_RECORD
  5
565
330
1
100
AcDbSymbolTableRecord
100
AcDbBlockTableRecord
  2
Dim26
340
0
  0
BLOCK_RECORD
  5
570
330
1
100
AcDbSymbolTableRecord
100
AcDbBlockTableRecord
  2
Dim27
340
0
  0
ENDTAB
  0
ENDSEC
  0
SECTION
  2
BLOCKS
  0
BLOCK
  5
20
330
1F
100
AcDbEntity
  8
0
100
AcDbBlockBegin
  2
*Model_Space
 70
     0
 71
     0
 10
0.0
 20
0.0
 30
0.0
  3
*Model_Space
  1

  0
ENDBLK
  5
21
330
1F
100
AcDbEntity
  8
0
100
AcDbBlockEnd
  0
BLOCK
  5
1C
330
1B
100
AcDbEntity
 67
     1
  8
0
100
AcDbBlockBegin
  2
*Paper_Space
 70
     0
 71
     0
 10
0.0
 20
0.0
 30
0.0
  3
*Paper_Space
  1

  0
ENDBLK
  5
1D
330
1B
100
AcDbEntity
 67
     1
  8
0
100
AcDbBlockEnd
  0
BLOCK
  5
24
330
23
100
AcDbEntity
  8
0
100
AcDbBlockBegin
  2
*Paper_Space0
 70
     0
 71
     0
 10
0.0
 20
0.0
 30
0.0
  3
*Paper_Space0
  1

  0
ENDBLK
  5
25
330
23
100
AcDbEntity
  8
0
100
AcDbBlockEnd
  0
BLOCK
  5
30
330
2D
100
AcDbEntity
  8
0
100
AcDbBlockBegin
  2
_ORIGIN
 70
     0
 71
     0
 10
0.0
 20
0.0
 30
0.0
  3
_ORIGIN
  1

  0
CIRCLE
  5
2E
330
2D
100
AcDbEntity
  8
0
100
AcDbCircle
 10
0.0
 20
0.0
 30
0.0
 40
0.5
  0
LINE
  5
2F
330
2D
100
AcDbEntity
  8
0
100
AcDbLine
 10
0.0
 20
0.0
 30
0.0
 11
-1.0
 21
0.0
 31
0.0
  0
ENDBLK
  5
31
330
2D
100
AcDbEntity
  8
0
100
AcDbBlockEnd
  0
BLOCK
  5
35
330
32
100
AcDbEntity
  8
0
100
AcDbBlockBegin
  2
_DOTBLANK
 70
     0
 71
     0
 10
0.0
 20
0.0
 30
0.0
  3
_DOTBLANK
  1

  0
CIRCLE
  5
33
330
32
100
AcDbEntity
  8
0
100
AcDbCircle
 10
0.0
 20
0.0
 30
0.0
 40
0.5
  0
LINE
  5
34
330
32
100
AcDbEntity
  8
0
100
AcDbLine
 10
-0.5
 20
0.0
 30
0.0
 11
-1.0
 21
0.0
 31
0.0
  0
ENDBLK
  5
36
330
32
100
AcDbEntity
  8
0
100
AcDbBlockEnd
  0
BLOCK
  5
3A
330
37
100
AcDbEntity
  8
0
100
AcDbBlockBegin
  2
_DOT
 70
     0
 71
     0
 10
0.0
 20
0.0
 30
0.0
  3
_DOT
  1

  0
LWPOLYLINE
  5
38
330
37
100
AcDbEntity
  8
0
100
AcDbPolyline
 90
        2
 70
     1
 43
0.5
 10
-0.25
 20
0.0
 42
1.0
 10
0.25
 20
0.0
 42
1.0
  0
LINE
  5
39
330
37
100
AcDbEntity
  8
0
100
AcDbLine
 10
-0.5
 20
0.0
 30
0.0
 11
-1.0
 21
0.0
 31
0.0
  0
ENDBLK
  5
3B
330
37
100
AcDbEntity
  8
0
100
AcDbBlockEnd
  0
BLOCK
  5
40
330
3C
100
AcDbEntity
  8
0
100
AcDbBlockBegin
  2
_OPEN
 70
     0
 71
     0
 10
0.0
 20
0.0
 30
0.0
  3
_OPEN
  1

  0
LINE
  5
3D
330
3C
100
AcDbEntity
  8
0
100
AcDbLine
 10
-1.0
 20
0.1666666666666667
 30
0.0
 11
0.0
 21
0.0
 31
0.0
  0
LINE
  5
3E
330
3C
100
AcDbEntity
  8
0
100
AcDbLine
 10
-1.0
 20
-0.1666666666666667
 30
0.0
 11
0.0
 21
0.0
 31
0.0
  0
LINE
  5
3F
330
3C
100
AcDbEntity
  8
0
100
AcDbLine
 10
0.0
 20
0.0
 30
0.0
 11
-1.0
 21
0.0
 31
0.0
  0
ENDBLK
  5
41
330
3C
100
AcDbEntity
  8
0
100
AcDbBlockEnd
  0
BLOCK
  5
47
330
42
100
AcDbEntity
  8
0
100
AcDbBlockBegin
  2
_CLOSED
 70
     0
 71
     0
 10
0.0
 20
0.0
 30
0.0
  3
_CLOSED
  1

  0
LINE
  5
43
330
42
100
AcDbEntity
  8
0
100
AcDbLine
 10
-1.0
 20
0.1666666666666667
 30
0.0
 11
0.0
 21
0.0
 31
0.0
  0
LINE
  5
44
330
42
100
AcDbEntity
  8
0
100
AcDbLine
 10
0.0
 20
0.0
 30
0.0
 11
-1.0
 21
-0.1666666666666667
 31
0.0
  0
LINE
  5
45
330
42
100
AcDbEntity
  8
0
100
AcDbLine
 10
-1.0
 20
0.1666666666666667
 30
0.0
 11
-1.0
 21
-0.1666666666666667
 31
0.0
  0
LINE
  5
46
330
42
100
AcDbEntity
  8
0
100
AcDbLine
 10
0.0
 20
0.0
 30
0.0
 11
-1.0
 21
0.0
 31
0.0
  0
ENDBLK
  5
48
330
42
100
AcDbEntity
  8
0
100
AcDbBlockEnd
  0
BLOCK
  5
4D
330
49
100
AcDbEntity
  8
0
100
AcDbBlockBegin
  2
_CLOSEDBLANK
 70
     0
 71
     0
 10
0.0
 20
0.0
 30
0.0
  3
_CLOSEDBLANK
  1

  0
LINE
  5
4A
330
49
100
AcDbEntity
  8
0
100
AcDbLine
 10
-1.0
 20
0.1666666666666667
 30
0.0
 11
0.0
 21
0.0
 31
0.0
  0
LINE
  5
4B
330
49
100
AcDbEntity
  8
0
100
AcDbLine
 10
0.0
 20
0.0
 30
0.0
 11
-1.0
 21
-0.1666666666666667
 31
0.0
  0
LINE
  5
4C
330
49
100
AcDbEntity
  8
0
100
AcDbLine
 10
-1.0
 20
0.1666666666666667
 30
0.0
 11
-1.0
 21
-0.1666666666666667
 31
0.0
  0
ENDBLK
  5
4E
330
49
100
AcDbEntity
  8
0
100
AcDbBlockEnd
  0
BLOCK
  5
55
330
4F
100
AcDbEntity
  8
0
100
AcDbBlockBegin
  2
_BOXBLANK
 70
     0
 71
     0
 10
0.0
 20
0.0
 30
0.0
  3
_BOXBLANK
  1

  0
LINE
  5
50
330
4F
100
AcDbEntity
  8
0
100
AcDbLine
 10
-0.5
 20
-0.5
 30
0.0
 11
0.5
 21
-0.5
 31
0.0
  0
LINE
  5
51
330
4F
100
AcDbEntity
  8
0
100
AcDbLine
 10
0.5
 20
-0.5
 30
0.0
 11
0.5
 21
0.5
 31
0.0
  0
LINE
  5
52
330
4F
100
AcDbEntity
  8
0
100
AcDbLine
 10
0.5
 20
0.5
 30
0.0
 11
-0.5
 21
0.5
 31
0.0
  0
LINE
  5
53
330
4F
100
AcDbEntity
  8
0
100
AcDbLine
 10
-0.5
 20
0.5
 30
0.0
 11
-0.5
 21
-0.5
 31
0.0
  0
LINE
  5
54
330
4F
100
AcDbEntity
  8
0
100
AcDbLine
 10
-0.5
 20
0.0
 30
0.0
 11
-1.0
 21
0.0
 31
0.0
  0
ENDBLK
  5
56
330
4F
100
AcDbEntity
  8
0
100
AcDbBlockEnd
  0
BLOCK
  5
5A
330
57
100
AcDbEntity
  8
0
100
AcDbBlockBegin
  2
_BOXFILLED
 70
     0
 71
     0
 10
0.0
 20
0.0
 30
0.0
  3
_BOXFILLED
  1

  0
SOLID
  5
58
330
57
100
AcDbEntity
  8
0
100
AcDbTrace
 10
-0.5
 20
0.5
 30
0.0
 11
0.5
 21
0.5
 31
0.0
 12
-0.5
 22
-0.5
 32
0.0
 13
0.5
 23
-0.5
 33
0.0
  0
LINE
  5
59
330
57
100
AcDbEntity
  8
0
100
AcDbLine
 10
-0.5
 20
0.0
 30
0.0
 11
-1.0
 21
0.0
 31
0.0
  0
ENDBLK
  5
5B
330
57
100
AcDbEntity
  8
0
100
AcDbBlockEnd
  0
BLOCK
  5
5F
330
5C
100
AcDbEntity
  8
0
100
AcDbBlockBegin
  2
_INTEGRAL
 70
     0
 71
     0
 10
0.0
 20
0.0
 30
0.0
  3
_INTEGRAL
  1

  0
ARC
  5
5D
330
5C
100
AcDbEntity
  8
0
100
AcDbCircle
 10
0.444888
 20
-0.0913346
 30
0.0
 40
0.4541666
100
AcDbArc
 50
5844.169510334396
 51
9625.69095819783
  0
ARC
  5
5E
330
5C
100
AcDbEntity
  8
0
100
AcDbCircle
 10
-0.444888
 20
0.0913346
 30
0.0
 40
0.4541666
100
AcDbArc
 50
16157.40982268921
 51
19938.93127055265
  0
ENDBLK
  5
60
330
5C
100
AcDbEntity
  8
0
100
AcDbBlockEnd
  0
BLOCK
  5
63
330
61
100
AcDbEntity
  8
0
100
AcDbBlockBegin
  2
_OBLIQUE
 70
     0
 71
     0
 10
0.0
 20
0.0
 30
0.0
  3
_OBLIQUE
  1

  0
LINE
  5
62
330
61
100
AcDbEntity
  8
0
100
AcDbLine
 10
-0.5
 20
-0.5
 30
0.0
 11
0.5
 21
0.5
 31
0.0
  0
ENDBLK
  5
64
330
61
100
AcDbEntity
  8
0
100
AcDbBlockEnd
  0
BLOCK
  5
66
330
65
100
AcDbEntity
  8
0
100
AcDbBlockBegin
  2
_NONE
 70
     0
 71
     0
 10
0.0
 20
0.0
 30
0.0
  3
_NONE
  1

  0
ENDBLK
  5
67
330
65
100
AcDbEntity
  8
0
100
AcDbBlockEnd
  0
BLOCK
  5
CA
330
C9
100
AcDbEntity
  8
0
100
AcDbBlockBegin
  2
*G12
 70
     1
 71
     0
 10
0.0
 20
0.0
 30
0.0
  3
*G12
  1

  0
LINE
  5
CC
330
C9
100
AcDbEntity
  8
10
  6
Continuous
 62
   172
370
    70
100
AcDbLine
 10
72.0
 20
72.0
 30
0.0
 11
72.0
 21
1152.0
 31
0.0
  0
LINE
  5
CD
330
C9
100
AcDbEntity
  8
10
  6
Continuous
 62
   172
370
    70
100
AcDbLine
 10
72.0
 20
1152.0
 30
0.0
 11
1710.0
 21
1152.0
 31
0.0
  0
LINE
  5
CE
330
C9
100
AcDbEntity
  8
10
  6
Continuous
 62
   172
370
    70
100
AcDbLine
 10
1710.0
 20
1152.0
 30
0.0
 11
1710.0
 21
72.0
 31
0.0
  0
LINE
  5
CF
330
C9
100
AcDbEntity
  8
10
  6
Continuous
 62
   172
370
    70
100
AcDbLine
 10
1710.0
 20
72.0
 30
0.0
 11
72.0
 21
72.0
 31
0.0
  0
ENDBLK
  5
CB
330
C9
100
AcDbEntity
  8
0
100
AcDbBlockEnd
  0
BLOCK
  5
230
330
22F
100
AcDbEntity
  8
0
100
AcDbBlockBegin
  2
Dim1
 70
     0
 71
     0
 10
0.0
 20
0.0
 30
0.0
  3
Dim1
  1

  0
LINE
  5
232
330
22F
100
AcDbEntity
  8
6
  6
Continuous
 62
     7
370
     9
100
AcDbLine
 10
392.0235484936843
 20
721.3667310990709
 30
0.0
 11
441.5235484936843
 21
721.3667310990709
 31
0.0
  0
LINE
  5
233
330
22F
100
AcDbEntity
  8
6
  6
Continuous
 62
     7
370
     9
100
AcDbLine
 10
392.0235484936844
 20
727.3667310990709
 30
0.0
 11
392.023548493684
 21
673.3667310990709
 31
0.0
  0
LINE
  5
234
330
22F
100
AcDbEntity
  8
6
  6
Continuous
 62
     7
370
     9
100
AcDbLine
 10
441.5235484936844
 20
727.3667310990709
 30
0.0
 11
441.523548493684
 21
676.1234119075523
 31
0.0
  0
LINE
  5
235
330
22F
100
AcDbEntity
  8
6
  6
Continuous
 62
     7
370
     9
100
AcDbLine
 10
392.0235484936843
 20
721.3667310990709
 30
0.0
 11
403.6146584091531
 21
724.4725596403011
 31
0.0
  0
LINE
  5
236
330
22F
100
AcDbEntity
  8
6
  6
Continuous
 62
     7
370
     9
100
AcDbLine
 10
392.0235484936843
 20
721.3667310990709
 30
0.0
 11
403.6146584091531
 21
718.2609025578406
 31
0.0
  0
LINE
  5
237
330
22F
100
AcDbEntity
  8
6
  6
Continuous
 62
     7
370
     9
100
AcDbLine
 10
441.5235484936843
 20
721.3667310990709
 30
0.0
 11
429.9324385782155
 21
718.2609025578407
 31
0.0
  0
LINE
  5
238
330
22F
100
AcDbEntity
  8
6
  6
Continuous
 62
     7
370
     9
100
AcDbLine
 10
441.5235484936843
 20
721.3667310990709
 30
0.0
 11
429.9324385782155
 21
724.4725596403011
 31
0.0
  0
MTEXT
  5
239
330
22F
100
AcDbEntity
  8
6
  6
Continuous
 62
     7
370
     9
100
AcDbMText
 10
416.7735484936843
 20
730.3667310990709
 30
0.0
 40
18.0
 41
0.0
 71
     8
 72
     1
  1
49.5
 73
     1
 44
1.0
  0
ENDBLK
  5
231
330
22F
100
AcDbEntity
  8
0
100
AcDbBlockEnd
  0
BLOCK
  5
23C
330
23B
100
AcDbEntity
  8
0
100
AcDbBlockBegin
  2
Dim2
 70
     0
 71
     0
 10
0.0
 20
0.0
 30
0.0
  3
Dim2
  1

  0
LINE
  5
23E
330
23B
100
AcDbEntity
  8
6
  6
Continuous
 62
     7
370
     9
100
AcDbLine
 10
441.5235484936843
 20
721.3667310990709
 30
0.0
 11
1341.523548493684
 21
721.3667310990709
 31
0.0
  0
LINE
  5
23F
330
23B
100
AcDbEntity
  8
6
  6
Continuous
 62
     7
370
     9
100
AcDbLine
 10
1341.523548493684
 20
727.3667310990709
 30
0.0
 11
1341.523548493684
 21
676.1234119075523
 31
0.0
  0
LINE
  5
240
330
23B
100
AcDbEntity
  8
6
  6
Continuous
 62
     7
370
     9
100
AcDbLine
 10
441.5235484936843
 20
721.3667310990709
 30
0.0
 11
453.1146584091531
 21
724.4725596403011
 31
0.0
  0
LINE
  5
241
330
23B
100
AcDbEntity
  8
6
  6
Continuous
 62
     7
370
     9
100
AcDbLine
 10
441.5235484936843
 20
721.3667310990709
 30
0.0
 11
453.1146584091531
 21
718.2609025578406
 31
0.0
  0
LINE
  5
242
330
23B
100
AcDbEntity
  8
6
  6
Continuous
 62
     7
370
     9
100
AcDbLine
 10
1341.523548493684
 20
721.3667310990709
 30
0.0
 11
1329.932438578215
 21
718.2609025578407
 31
0.0
  0
LINE
  5
243
330
23B
100
AcDbEntity
  8
6
  6
Continuous
 62
     7
370
     9
100
AcDbLine
 10
1341.523548493684
 20
721.3667310990709
 30
0.0
 11
1329.932438578215
 21
724.4725596403011
 31
0.0
  0
MTEXT
  5
244
330
23B
100
AcDbEntity
  8
6
  6
Continuous
 62
     7
370
     9
100
AcDbMText
 10
891.5235484936841
 20
730.3667310990709
 30
0.0
 40
18.0
 41
0.0
 71
     8
 72
     1
  1
9@100=900
 73
     1
 44
1.0
  0
ENDBLK
  5
23D
330
23B
100
AcDbEntity
  8
0
100
AcDbBlockEnd
  0
BLOCK
  5
247
330
246
100
AcDbEntity
  8
0
100
AcDbBlockBegin
  2
Dim3
 70
     0
 71
     0
 10
0.0
 20
0.0
 30
0.0
  3
Dim3
  1

  0
LINE
  5
249
330
246
100
AcDbEntity
  8
6
  6
Continuous
 62
     7
370
     9
100
AcDbLine
 10
1341.523548493684
 20
721.3667310990709
 30
0.0
 11
1391.023548493684
 21
721.3667310990709
 31
0.0
  0
LINE
  5
24A
330
246
100
AcDbEntity
  8
6
  6
Continuous
 62
     7
370
     9
100
AcDbLine
 10
1391.023548493684
 20
727.3667310990709
 30
0.0
 11
1391.023548493684
 21
673.3667310990709
 31
0.0
  0
LINE
  5
24B
330
246
100
AcDbEntity
  8
6
  6
Continuous
 62
     7
370
     9
100
AcDbLine
 10
1341.523548493684
 20
721.3667310990709
 30
0.0
 11
1353.114658409153
 21
724.4725596403011
 31
0.0
  0
LINE
  5
24C
330
246
100
AcDbEntity
  8
6
  6
Continuous
 62
     7
370
     9
100
AcDbLine
 10
1341.523548493684
 20
721.3667310990709
 30
0.0
 11
1353.114658409153
 21
718.2609025578406
 31
0.0
  0
LINE
  5
24D
330
246
100
AcDbEntity
  8
6
  6
Continuous
 62
     7
370
     9
100
AcDbLine
 10
1391.023548493684
 20
721.3667310990709
 30
0.0
 11
1379.432438578215
 21
718.2609025578407
 31
0.0
  0
LINE
  5
24E
330
246
100
AcDbEntity
  8
6
  6
Continuous
 62
     7
370
     9
100
AcDbLine
 10
1391.023548493684
 20
721.3667310990709
 30
0.0
 11
1379.432438578215
 21
724.4725596403011
 31
0.0
  0
MTEXT
  5
24F
330
246
100
AcDbEntity
  8
6
  6
Continuous
 62
     7
370
     9
100
AcDbMText
 10
1366.273548493684
 20
730.3667310990709
 30
0.0
 40
18.0
 41
0.0
 71
     8
 72
     1
  1
49.5
 73
     1
 44
1.0
  0
ENDBLK
  5
248
330
246
100
AcDbEntity
  8
0
100
AcDbBlockEnd
  0
BLOCK
  5
253
330
252
100
AcDbEntity
  8
0
100
AcDbBlockBegin
  2
Dim4
 70
     0
 71
     0
 10
0.0
 20
0.0
 30
0.0
  3
Dim4
  1

  0
LINE
  5
255
330
252
100
AcDbEntity
  8
6
  6
Continuous
 62
     7
370
     9
100
AcDbLine
 10
332.0235484936838
 20
661.3667310990711
 30
0.0
 11
332.0235484936838
 21
631.3667310990711
 31
0.0
  0
LINE
  5
256
330
252
100
AcDbEntity
  8
6
  6
Continuous
 62
     7
370
     9
100
AcDbLine
 10
326.0235484936838
 20
661.3667310990711
 30
0.0
 11
380.0235484936838
 21
661.3667310990709
 31
0.0
  0
LINE
  5
257
330
252
100
AcDbEntity
  8
6
  6
Continuous
 62
     7
370
     9
100
AcDbLine
 10
326.0235484936838
 20
631.3667310990711
 30
0.0
 11
380.0235484936838
 21
631.3667310990709
 31
0.0
  0
LINE
  5
258
330
252
100
AcDbEntity
  8
6
  6
Continuous
 62
     7
370
     9
100
AcDbLine
 10
332.0235484936838
 20
661.3667310990711
 30
0.0
 11
335.1293770349141
 21
649.7756211836023
 31
0.0
  0
LINE
  5
259
330
252
100
AcDbEntity
  8
6
  6
Continuous
 62
     7
370
     9
100
AcDbLine
 10
332.0235484936838
 20
661.3667310990711
 30
0.0
 11
328.9177199524536
 21
649.7756211836023
 31
0.0
  0
LINE
  5
25A
330
252
100
AcDbEntity
  8
6
  6
Continuous
 62
     7
370
     9
100
AcDbLine
 10
332.0235484936838
 20
631.3667310990711
 30
0.0
 11
328.9177199524536
 21
642.9578410145399
 31
0.0
  0
LINE
  5
25B
330
252
100
AcDbEntity
  8
6
  6
Continuous
 62
     7
370
     9
100
AcDbLine
 10
332.0235484936838
 20
631.3667310990711
 30
0.0
 11
335.1293770349141
 21
642.9578410145399
 31
0.0
  0
MTEXT
  5
25C
330
252
100
AcDbEntity
  8
6
  6
Continuous
 62
     7
370
     9
100
AcDbMText
 10
323.0235484936838
 20
646.3667310990711
 30
0.0
 40
18.0
 41
0.0
 71
     8
 72
     1
  1
30
 11
1.615544574432587E-15
 21
1.0
 31
0.0
 73
     1
 44
1.0
  0
ENDBLK
  5
254
330
252
100
AcDbEntity
  8
0
100
AcDbBlockEnd
  0
BLOCK
  5
26A
330
269
100
AcDbEntity
  8
0
100
AcDbBlockBegin
  2
Dim5
 70
     0
 71
     0
 10
0.0
 20
0.0
 30
0.0
  3
Dim5
  1

  0
LINE
  5
26C
330
269
100
AcDbEntity
  8
6
  6
Continuous
 62
     7
370
     9
100
AcDbLine
 10
332.0235484936834
 20
988.274952773929
 30
0.0
 11
332.0235484936834
 21
958.274952773929
 31
0.0
  0
LINE
  5
26D
330
269
100
AcDbEntity
  8
6
  6
Continuous
 62
     7
370
     9
100
AcDbLine
 10
326.0235484936834
 20
958.274952773929
 30
0.0
 11
380.0235484936838
 21
958.274952773929
 31
0.0
  0
LINE
  5
26E
330
269
100
AcDbEntity
  8
6
  6
Continuous
 62
     7
370
     9
100
AcDbLine
 10
332.0235484936834
 20
988.274952773929
 30
0.0
 11
335.1293770349137
 21
976.6838428584603
 31
0.0
  0
LINE
  5
26F
330
269
100
AcDbEntity
  8
6
  6
Continuous
 62
     7
370
     9
100
AcDbLine
 10
332.0235484936834
 20
988.274952773929
 30
0.0
 11
328.9177199524532
 21
976.6838428584603
 31
0.0
  0
LINE
  5
270
330
269
100
AcDbEntity
  8
6
  6
Continuous
 62
     7
370
     9
100
AcDbLine
 10
332.0235484936834
 20
958.274952773929
 30
0.0
 11
328.9177199524532
 21
969.8660626893978
 31
0.0
  0
LINE
  5
271
330
269
100
AcDbEntity
  8
6
  6
Continuous
 62
     7
370
     9
100
AcDbLine
 10
332.0235484936834
 20
958.274952773929
 30
0.0
 11
335.1293770349137
 21
969.8660626893978
 31
0.0
  0
MTEXT
  5
272
330
269
100
AcDbEntity
  8
6
  6
Continuous
 62
     7
370
     9
100
AcDbMText
 10
323.0235484936834
 20
973.274952773929
 30
0.0
 40
18.0
 41
0.0
 71
     8
 72
     1
  1
30
 11
1.615544574432587E-15
 21
1.0
 31
0.0
 73
     1
 44
1.0
  0
ENDBLK
  5
26B
330
269
100
AcDbEntity
  8
0
100
AcDbBlockEnd
  0
BLOCK
  5
275
330
274
100
AcDbEntity
  8
0
100
AcDbBlockBegin
  2
Dim6
 70
     0
 71
     0
 10
0.0
 20
0.0
 30
0.0
  3
Dim6
  1

  0
LINE
  5
277
330
274
100
AcDbEntity
  8
6
  6
Continuous
 62
     7
370
     9
100
AcDbLine
 10
332.0235484936834
 20
958.274952773929
 30
0.0
 11
332.0235484936834
 21
799.2748791595893
 31
0.0
  0
LINE
  5
278
330
274
100
AcDbEntity
  8
6
  6
Continuous
 62
     7
370
     9
100
AcDbLine
 10
326.0235484936834
 20
799.2748791595893
 30
0.0
 11
380.0235484936838
 21
799.2748791595893
 31
0.0
  0
LINE
  5
279
330
274
100
AcDbEntity
  8
6
  6
Continuous
 62
     7
370
     9
100
AcDbLine
 10
332.0235484936834
 20
958.274952773929
 30
0.0
 11
335.1293770349137
 21
946.6838428584603
 31
0.0
  0
LINE
  5
27A
330
274
100
AcDbEntity
  8
6
  6
Continuous
 62
     7
370
     9
100
AcDbLine
 10
332.0235484936834
 20
958.274952773929
 30
0.0
 11
328.9177199524532
 21
946.6838428584603
 31
0.0
  0
LINE
  5
27B
330
274
100
AcDbEntity
  8
6
  6
Continuous
 62
     7
370
     9
100
AcDbLine
 10
332.0235484936834
 20
799.2748791595893
 30
0.0
 11
328.9177199524532
 21
810.8659890750581
 31
0.0
  0
LINE
  5
27C
330
274
100
AcDbEntity
  8
6
  6
Continuous
 62
     7
370
     9
100
AcDbLine
 10
332.0235484936834
 20
799.2748791595893
 30
0.0
 11
335.1293770349137
 21
810.8659890750581
 31
0.0
  0
MTEXT
  5
27D
330
274
100
AcDbEntity
  8
6
  6
Continuous
 62
     7
370
     9
100
AcDbMText
 10
323.0235484936834
 20
878.7749159667592
 30
0.0
 40
18.0
 41
0.0
 71
     8
 72
     1
  1
159
 11
2.059633784282649E-15
 21
1.0
 31
0.0
 73
     1
 44
1.0
  0
ENDBLK
  5
276
330
274
100
AcDbEntity
  8
0
100
AcDbBlockEnd
  0
BLOCK
  5
280
330
27F
100
AcDbEntity
  8
0
100
AcDbBlockBegin
  2
Dim7
 70
     0
 71
     0
 10
0.0
 20
0.0
 30
0.0
  3
Dim7
  1

  0
LINE
  5
282
330
27F
100
AcDbEntity
  8
6
  6
Continuous
 62
     7
370
     9
100
AcDbLine
 10
332.0235484936834
 20
799.2748791595893
 30
0.0
 11
332.0235484936834
 21
769.2748791595893
 31
0.0
  0
LINE
  5
283
330
27F
100
AcDbEntity
  8
6
  6
Continuous
 62
     7
370
     9
100
AcDbLine
 10
332.0235484936834
 20
799.2748791595893
 30
0.0
 11
335.1293770349137
 21
787.6837692441205
 31
0.0
  0
LINE
  5
284
330
27F
100
AcDbEntity
  8
6
  6
Continuous
 62
     7
370
     9
100
AcDbLine
 10
332.0235484936834
 20
799.2748791595893
 30
0.0
 11
328.9177199524532
 21
787.6837692441205
 31
0.0
  0
LINE
  5
285
330
27F
100
AcDbEntity
  8
6
  6
Continuous
 62
     7
370
     9
100
AcDbLine
 10
332.0235484936834
 20
769.2748791595893
 30
0.0
 11
328.9177199524532
 21
780.8659890750581
 31
0.0
  0
LINE
  5
286
330
27F
100
AcDbEntity
  8
6
  6
Continuous
 62
     7
370
     9
100
AcDbLine
 10
332.0235484936834
 20
769.2748791595893
 30
0.0
 11
335.1293770349137
 21
780.8659890750581
 31
0.0
  0
MTEXT
  5
287
330
27F
100
AcDbEntity
  8
6
  6
Continuous
 62
     7
370
     9
100
AcDbMText
 10
323.0235484936834
 20
784.2748791595893
 30
0.0
 40
18.0
 41
0.0
 71
     8
 72
     1
  1
30
 11
1.615544574432587E-15
 21
1.0
 31
0.0
 73
     1
 44
1.0
  0
ENDBLK
  5
281
330
27F
100
AcDbEntity
  8
0
100
AcDbBlockEnd
  0
BLOCK
  5
28A
330
289
100
AcDbEntity
  8
0
100
AcDbBlockBegin
  2
Dim8
 70
     0
 71
     0
 10
0.0
 20
0.0
 30
0.0
  3
Dim8
  1

  0
LINE
  5
28C
330
289
100
AcDbEntity
  8
6
  6
Continuous
 62
     7
370
     9
100
AcDbLine
 10
290.0235484936833
 20
988.274952773929
 30
0.0
 11
290.0235484936834
 21
769.2748791595893
 31
0.0
  0
LINE
  5
28D
330
289
100
AcDbEntity
  8
6
  6
Continuous
 62
     7
370
     9
100
AcDbLine
 10
284.0235484936833
 20
988.274952773929
 30
0.0
 11
390.0235484936838
 21
988.274952773929
 31
0.0
  0
LINE
  5
28E
330
289
100
AcDbEntity
  8
6
  6
Continuous
 62
     7
370
     9
100
AcDbLine
 10
284.0235484936834
 20
769.2748791595893
 30
0.0
 11
390.0235484936838
 21
769.2748791595893
 31
0.0
  0
LINE
  5
28F
330
289
100
AcDbEntity
  8
6
  6
Continuous
 62
     7
370
     9
100
AcDbLine
 10
290.0235484936833
 20
988.274952773929
 30
0.0
 11
293.1293770349135
 21
976.6838428584603
 31
0.0
  0
LINE
  5
290
330
289
100
AcDbEntity
  8
6
  6
Continuous
 62
     7
370
     9
100
AcDbLine
 10
290.0235484936833
 20
988.274952773929
 30
0.0
 11
286.917719952453
 21
976.6838428584603
 31
0.0
  0
LINE
  5
291
330
289
100
AcDbEntity
  8
6
  6
Continuous
 62
     7
370
     9
100
AcDbLine
 10
290.0235484936834
 20
769.2748791595893
 30
0.0
 11
286.9177199524531
 21
780.8659890750581
 31
0.0
  0
LINE
  5
292
330
289
100
AcDbEntity
  8
6
  6
Continuous
 62
     7
370
     9
100
AcDbLine
 10
290.0235484936834
 20
769.2748791595893
 30
0.0
 11
293.1293770349137
 21
780.8659890750581
 31
0.0
  0
MTEXT
  5
293
330
289
100
AcDbEntity
  8
6
  6
Continuous
 62
     7
370
     9
100
AcDbMText
 10
281.0235484936833
 20
878.7749159667592
 30
0.0
 40
18.0
 41
0.0
 71
     8
 72
     1
  1
219
 11
1.837589179357618E-15
 21
1.0
 31
0.0
 73
     1
 44
1.0
  0
ENDBLK
  5
28B
330
289
100
AcDbEntity
  8
0
100
AcDbBlockEnd
  0
BLOCK
  5
296
330
295
100
AcDbEntity
  8
0
100
AcDbBlockBegin
  2
*G21
 70
     1
 71
     0
 10
0.0
 20
0.0
 30
0.0
  3
*G21
  1

  0
LINE
  5
298
330
295
100
AcDbEntity
  8
2
  6
Continuous
 62
    90
370
    18
100
AcDbLine
 10
437.5235484936836
 20
649.9667088402712
 30
0.0
 11
439.523548493684
 21
653.4308104554086
 31
0.0
  0
LINE
  5
299
330
295
100
AcDbEntity
  8
2
  6
Continuous
 62
    90
370
    18
100
AcDbLine
 10
439.523548493684
 20
653.4308104554086
 30
0.0
 11
443.5235484936836
 21
653.4308104554086
 31
0.0
  0
LINE
  5
29A
330
295
100
AcDbEntity
  8
2
  6
Continuous
 62
    90
370
    18
100
AcDbLine
 10
443.5235484936836
 20
653.4308104554086
 30
0.0
 11
445.523548493684
 21
649.9667088402712
 31
0.0
  0
LINE
  5
29B
330
295
100
AcDbEntity
  8
2
  6
Continuous
 62
    90
370
    18
100
AcDbLine
 10
445.523548493684
 20
649.9667088402712
 30
0.0
 11
443.5235484936836
 21
646.5026072251331
 31
0.0
  0
LINE
  5
29C
330
295
100
AcDbEntity
  8
2
  6
Continuous
 62
    90
370
    18
100
AcDbLine
 10
443.5235484936836
 20
646.5026072251331
 30
0.0
 11
439.523548493684
 21
646.5026072251331
 31
0.0
  0
LINE
  5
29D
330
295
100
AcDbEntity
  8
2
  6
Continuous
 62
    90
370
    18
100
AcDbLine
 10
439.523548493684
 20
646.5026072251331
 30
0.0
 11
437.5235484936836
 21
649.9667088402712
 31
0.0
  0
ENDBLK
  5
297
330
295
100
AcDbEntity
  8
0
100
AcDbBlockEnd
  0
BLOCK
  5
2A2
330
2A1
100
AcDbEntity
  8
0
100
AcDbBlockBegin
  2
*G22
 70
     1
 71
     0
 10
0.0
 20
0.0
 30
0.0
  3
*G22
  1

  0
LINE
  5
2A4
330
2A1
100
AcDbEntity
  8
2
  6
Continuous
 62
    90
370
    18
100
AcDbLine
 10
537.5235484936836
 20
649.9667088402712
 30
0.0
 11
539.523548493684
 21
653.4308104554086
 31
0.0
  0
LINE
  5
2A5
330
2A1
100
AcDbEntity
  8
2
  6
Continuous
 62
    90
370
    18
100
AcDbLine
 10
539.523548493684
 20
653.4308104554086
 30
0.0
 11
543.5235484936836
 21
653.4308104554086
 31
0.0
  0
LINE
  5
2A6
330
2A1
100
AcDbEntity
  8
2
  6
Continuous
 62
    90
370
    18
100
AcDbLine
 10
543.5235484936836
 20
653.4308104554086
 30
0.0
 11
545.523548493684
 21
649.9667088402712
 31
0.0
  0
LINE
  5
2A7
330
2A1
100
AcDbEntity
  8
2
  6
Continuous
 62
    90
370
    18
100
AcDbLine
 10
545.523548493684
 20
649.9667088402712
 30
0.0
 11
543.5235484936836
 21
646.5026072251331
 31
0.0
  0
LINE
  5
2A8
330
2A1
100
AcDbEntity
  8
2
  6
Continuous
 62
    90
370
    18
100
AcDbLine
 10
543.5235484936836
 20
646.5026072251331
 30
0.0
 11
539.523548493684
 21
646.5026072251331
 31
0.0
  0
LINE
  5
2A9
330
2A1
100
AcDbEntity
  8
2
  6
Continuous
 62
    90
370
    18
100
AcDbLine
 10
539.523548493684
 20
646.5026072251331
 30
0.0
 11
537.5235484936836
 21
649.9667088402712
 31
0.0
  0
ENDBLK
  5
2A3
330
2A1
100
AcDbEntity
  8
0
100
AcDbBlockEnd
  0
BLOCK
  5
2AE
330
2AD
100
AcDbEntity
  8
0
100
AcDbBlockBegin
  2
*G23
 70
     1
 71
     0
 10
0.0
 20
0.0
 30
0.0
  3
*G23
  1

  0
LINE
  5
2B0
330
2AD
100
AcDbEntity
  8
2
  6
Continuous
 62
    90
370
    18
100
AcDbLine
 10
637.5235484936836
 20
649.9667088402712
 30
0.0
 11
639.523548493684
 21
653.4308104554086
 31
0.0
  0
LINE
  5
2B1
330
2AD
100
AcDbEntity
  8
2
  6
Continuous
 62
    90
370
    18
100
AcDbLine
 10
639.523548493684
 20
653.4308104554086
 30
0.0
 11
643.5235484936836
 21
653.4308104554086
 31
0.0
  0
LINE
  5
2B2
330
2AD
100
AcDbEntity
  8
2
  6
Continuous
 62
    90
370
    18
100
AcDbLine
 10
643.5235484936836
 20
653.4308104554086
 30
0.0
 11
645.523548493684
 21
649.9667088402712
 31
0.0
  0
LINE
  5
2B3
330
2AD
100
AcDbEntity
  8
2
  6
Continuous
 62
    90
370
    18
100
AcDbLine
 10
645.523548493684
 20
649.9667088402712
 30
0.0
 11
643.5235484936836
 21
646.5026072251331
 31
0.0
  0
LINE
  5
2B4
330
2AD
100
AcDbEntity
  8
2
  6
Continuous
 62
    90
370
    18
100
AcDbLine
 10
643.5235484936836
 20
646.5026072251331
 30
0.0
 11
639.523548493684
 21
646.5026072251331
 31
0.0
  0
LINE
  5
2B5
330
2AD
100
AcDbEntity
  8
2
  6
Continuous
 62
    90
370
    18
100
AcDbLine
 10
639.523548493684
 20
646.5026072251331
 30
0.0
 11
637.5235484936836
 21
649.9667088402712
 31
0.0
  0
ENDBLK
  5
2AF
330
2AD
100
AcDbEntity
  8
0
100
AcDbBlockEnd
  0
BLOCK
  5
2BA
330
2B9
100
AcDbEntity
  8
0
100
AcDbBlockBegin
  2
*G24
 70
     1
 71
     0
 10
0.0
 20
0.0
 30
0.0
  3
*G24
  1

  0
LINE
  5
2BC
330
2B9
100
AcDbEntity
  8
2
  6
Continuous
 62
    90
370
    18
100
AcDbLine
 10
737.5235484936836
 20
649.9667088402712
 30
0.0
 11
739.523548493684
 21
653.4308104554086
 31
0.0
  0
LINE
  5
2BD
330
2B9
100
AcDbEntity
  8
2
  6
Continuous
 62
    90
370
    18
100
AcDbLine
 10
739.523548493684
 20
653.4308104554086
 30
0.0
 11
743.5235484936836
 21
653.4308104554086
 31
0.0
  0
LINE
  5
2BE
330
2B9
100
AcDbEntity
  8
2
  6
Continuous
 62
    90
370
    18
100
AcDbLine
 10
743.5235484936836
 20
653.4308104554086
 30
0.0
 11
745.523548493684
 21
649.9667088402712
 31
0.0
  0
LINE
  5
2BF
330
2B9
100
AcDbEntity
  8
2
  6
Continuous
 62
    90
370
    18
100
AcDbLine
 10
745.523548493684
 20
649.9667088402712
 30
0.0
 11
743.5235484936836
 21
646.5026072251331
 31
0.0
  0
LINE
  5
2C0
330
2B9
100
AcDbEntity
  8
2
  6
Continuous
 62
    90
370
    18
100
AcDbLine
 10
743.5235484936836
 20
646.5026072251331
 30
0.0
 11
739.523548493684
 21
646.5026072251331
 31
0.0
  0
LINE
  5
2C1
330
2B9
100
AcDbEntity
  8
2
  6
Continuous
 62
    90
370
    18
100
AcDbLine
 10
739.523548493684
 20
646.5026072251331
 30
0.0
 11
737.5235484936836
 21
649.9667088402712
 31
0.0
  0
ENDBLK
  5
2BB
330
2B9
100
AcDbEntity
  8
0
100
AcDbBlockEnd
  0
BLOCK
  5
2C6
330
2C5
100
AcDbEntity
  8
0
100
AcDbBlockBegin
  2
*G25
 70
     1
 71
     0
 10
0.0
 20
0.0
 30
0.0
  3
*G25
  1

  0
LINE
  5
2C8
330
2C5
100
AcDbEntity
  8
2
  6
Continuous
 62
    90
370
    18
100
AcDbLine
 10
837.5235484936836
 20
649.9667088402712
 30
0.0
 11
839.523548493684
 21
653.4308104554086
 31
0.0
  0
LINE
  5
2C9
330
2C5
100
AcDbEntity
  8
2
  6
Continuous
 62
    90
370
    18
100
AcDbLine
 10
839.523548493684
 20
653.4308104554086
 30
0.0
 11
843.5235484936836
 21
653.4308104554086
 31
0.0
  0
LINE
  5
2CA
330
2C5
100
AcDbEntity
  8
2
  6
Continuous
 62
    90
370
    18
100
AcDbLine
 10
843.5235484936836
 20
653.4308104554086
 30
0.0
 11
845.523548493684
 21
649.9667088402712
 31
0.0
  0
LINE
  5
2CB
330
2C5
100
AcDbEntity
  8
2
  6
Continuous
 62
    90
370
    18
100
AcDbLine
 10
845.523548493684
 20
649.9667088402712
 30
0.0
 11
843.5235484936836
 21
646.5026072251331
 31
0.0
  0
LINE
  5
2CC
330
2C5
100
AcDbEntity
  8
2
  6
Continuous
 62
    90
370
    18
100
AcDbLine
 10
843.5235484936836
 20
646.5026072251331
 30
0.0
 11
839.523548493684
 21
646.5026072251331
 31
0.0
  0
LINE
  5
2CD
330
2C5
100
AcDbEntity
  8
2
  6
Continuous
 62
    90
370
    18
100
AcDbLine
 10
839.523548493684
 20
646.5026072251331
 30
0.0
 11
837.5235484936836
 21
649.9667088402712
 31
0.0
  0
ENDBLK
  5
2C7
330
2C5
100
AcDbEntity
  8
0
100
AcDbBlockEnd
  0
BLOCK
  5
2D2
330
2D1
100
AcDbEntity
  8
0
100
AcDbBlockBegin
  2
*G26
 70
     1
 71
     0
 10
0.0
 20
0.0
 30
0.0
  3
*G26
  1

  0
LINE
  5
2D4
330
2D1
100
AcDbEntity
  8
2
  6
Continuous
 62
    90
370
    18
100
AcDbLine
 10
937.5235484936836
 20
649.9667088402712
 30
0.0
 11
939.523548493684
 21
653.4308104554086
 31
0.0
  0
LINE
  5
2D5
330
2D1
100
AcDbEntity
  8
2
  6
Continuous
 62
    90
370
    18
100
AcDbLine
 10
939.523548493684
 20
653.4308104554086
 30
0.0
 11
943.5235484936836
 21
653.4308104554086
 31
0.0
  0
LINE
  5
2D6
330
2D1
100
AcDbEntity
  8
2
  6
Continuous
 62
    90
370
    18
100
AcDbLine
 10
943.5235484936836
 20
653.4308104554086
 30
0.0
 11
945.523548493684
 21
649.9667088402712
 31
0.0
  0
LINE
  5
2D7
330
2D1
100
AcDbEntity
  8
2
  6
Continuous
 62
    90
370
    18
100
AcDbLine
 10
945.523548493684
 20
649.9667088402712
 30
0.0
 11
943.5235484936836
 21
646.5026072251331
 31
0.0
  0
LINE
  5
2D8
330
2D1
100
AcDbEntity
  8
2
  6
Continuous
 62
    90
370
    18
100
AcDbLine
 10
943.5235484936836
 20
646.5026072251331
 30
0.0
 11
939.523548493684
 21
646.5026072251331
 31
0.0
  0
LINE
  5
2D9
330
2D1
100
AcDbEntity
  8
2
  6
Continuous
 62
    90
370
    18
100
AcDbLine
 10
939.523548493684
 20
646.5026072251331
 30
0.0
 11
937.5235484936836
 21
649.9667088402712
 31
0.0
  0
ENDBLK
  5
2D3
330
2D1
100
AcDbEntity
  8
0
100
AcDbBlockEnd
  0
BLOCK
  5
2DE
330
2DD
100
AcDbEntity
  8
0
100
AcDbBlockBegin
  2
*G27
 70
     1
 71
     0
 10
0.0
 20
0.0
 30
0.0
  3
*G27
  1

  0
LINE
  5
2E0
330
2DD
100
AcDbEntity
  8
2
  6
Continuous
 62
    90
370
    18
100
AcDbLine
 10
1037.523548493684
 20
649.9667088402712
 30
0.0
 11
1039.523548493684
 21
653.4308104554086
 31
0.0
  0
LINE
  5
2E1
330
2DD
100
AcDbEntity
  8
2
  6
Continuous
 62
    90
370
    18
100
AcDbLine
 10
1039.523548493684
 20
653.4308104554086
 30
0.0
 11
1043.523548493684
 21
653.4308104554086
 31
0.0
  0
LINE
  5
2E2
330
2DD
100
AcDbEntity
  8
2
  6
Continuous
 62
    90
370
    18
100
AcDbLine
 10
1043.523548493684
 20
653.4308104554086
 30
0.0
 11
1045.523548493684
 21
649.9667088402712
 31
0.0
  0
LINE
  5
2E3
330
2DD
100
AcDbEntity
  8
2
  6
Continuous
 62
    90
370
    18
100
AcDbLine
 10
1045.523548493684
 20
649.9667088402712
 30
0.0
 11
1043.523548493684
 21
646.5026072251331
 31
0.0
  0
LINE
  5
2E4
330
2DD
100
AcDbEntity
  8
2
  6
Continuous
 62
    90
370
    18
100
AcDbLine
 10
1043.523548493684
 20
646.5026072251331
 30
0.0
 11
1039.523548493684
 21
646.5026072251331
 31
0.0
  0
LINE
  5
2E5
330
2DD
100
AcDbEntity
  8
2
  6
Continuous
 62
    90
370
    18
100
AcDbLine
 10
1039.523548493684
 20
646.5026072251331
 30
0.0
 11
1037.523548493684
 21
649.9667088402712
 31
0.0
  0
ENDBLK
  5
2DF
330
2DD
100
AcDbEntity
  8
0
100
AcDbBlockEnd
  0
BLOCK
  5
2EA
330
2E9
100
AcDbEntity
  8
0
100
AcDbBlockBegin
  2
*G28
 70
     1
 71
     0
 10
0.0
 20
0.0
 30
0.0
  3
*G28
  1

  0
LINE
  5
2EC
330
2E9
100
AcDbEntity
  8
2
  6
Continuous
 62
    90
370
    18
100
AcDbLine
 10
1137.523548493684
 20
649.9667088402712
 30
0.0
 11
1139.523548493684
 21
653.4308104554086
 31
0.0
  0
LINE
  5
2ED
330
2E9
100
AcDbEntity
  8
2
  6
Continuous
 62
    90
370
    18
100
AcDbLine
 10
1139.523548493684
 20
653.4308104554086
 30
0.0
 11
1143.523548493684
 21
653.4308104554086
 31
0.0
  0
LINE
  5
2EE
330
2E9
100
AcDbEntity
  8
2
  6
Continuous
 62
    90
370
    18
100
AcDbLine
 10
1143.523548493684
 20
653.4308104554086
 30
0.0
 11
1145.523548493684
 21
649.9667088402712
 31
0.0
  0
LINE
  5
2EF
330
2E9
100
AcDbEntity
  8
2
  6
Continuous
 62
    90
370
    18
100
AcDbLine
 10
1145.523548493684
 20
649.9667088402712
 30
0.0
 11
1143.523548493684
 21
646.5026072251331
 31
0.0
  0
LINE
  5
2F0
330
2E9
100
AcDbEntity
  8
2
  6
Continuous
 62
    90
370
    18
100
AcDbLine
 10
1143.523548493684
 20
646.5026072251331
 30
0.0
 11
1139.523548493684
 21
646.5026072251331
 31
0.0
  0
LINE
  5
2F1
330
2E9
100
AcDbEntity
  8
2
  6
Continuous
 62
    90
370
    18
100
AcDbLine
 10
1139.523548493684
 20
646.5026072251331
 30
0.0
 11
1137.523548493684
 21
649.9667088402712
 31
0.0
  0
ENDBLK
  5
2EB
330
2E9
100
AcDbEntity
  8
0
100
AcDbBlockEnd
  0
BLOCK
  5
2F6
330
2F5
100
AcDbEntity
  8
0
100
AcDbBlockBegin
  2
*G29
 70
     1
 71
     0
 10
0.0
 20
0.0
 30
0.0
  3
*G29
  1

  0
LINE
  5
2F8
330
2F5
100
AcDbEntity
  8
2
  6
Continuous
 62
    90
370
    18
100
AcDbLine
 10
1237.523548493684
 20
649.9667088402712
 30
0.0
 11
1239.523548493684
 21
653.4308104554086
 31
0.0
  0
LINE
  5
2F9
330
2F5
100
AcDbEntity
  8
2
  6
Continuous
 62
    90
370
    18
100
AcDbLine
 10
1239.523548493684
 20
653.4308104554086
 30
0.0
 11
1243.523548493684
 21
653.4308104554086
 31
0.0
  0
LINE
  5
2FA
330
2F5
100
AcDbEntity
  8
2
  6
Continuous
 62
    90
370
    18
100
AcDbLine
 10
1243.523548493684
 20
653.4308104554086
 30
0.0
 11
1245.523548493684
 21
649.9667088402712
 31
0.0
  0
LINE
  5
2FB
330
2F5
100
AcDbEntity
  8
2
  6
Continuous
 62
    90
370
    18
100
AcDbLine
 10
1245.523548493684
 20
649.9667088402712
 30
0.0
 11
1243.523548493684
 21
646.5026072251331
 31
0.0
  0
LINE
  5
2FC
330
2F5
100
AcDbEntity
  8
2
  6
Continuous
 62
    90
370
    18
100
AcDbLine
 10
1243.523548493684
 20
646.5026072251331
 30
0.0
 11
1239.523548493684
 21
646.5026072251331
 31
0.0
  0
LINE
  5
2FD
330
2F5
100
AcDbEntity
  8
2
  6
Continuous
 62
    90
370
    18
100
AcDbLine
 10
1239.523548493684
 20
646.5026072251331
 30
0.0
 11
1237.523548493684
 21
649.9667088402712
 31
0.0
  0
ENDBLK
  5
2F7
330
2F5
100
AcDbEntity
  8
0
100
AcDbBlockEnd
  0
BLOCK
  5
302
330
301
100
AcDbEntity
  8
0
100
AcDbBlockBegin
  2
*G30
 70
     1
 71
     0
 10
0.0
 20
0.0
 30
0.0
  3
*G30
  1

  0
LINE
  5
304
330
301
100
AcDbEntity
  8
2
  6
Continuous
 62
    90
370
    18
100
AcDbLine
 10
1337.523548493684
 20
649.9667088402712
 30
0.0
 11
1339.523548493684
 21
653.4308104554086
 31
0.0
  0
LINE
  5
305
330
301
100
AcDbEntity
  8
2
  6
Continuous
 62
    90
370
    18
100
AcDbLine
 10
1339.523548493684
 20
653.4308104554086
 30
0.0
 11
1343.523548493684
 21
653.4308104554086
 31
0.0
  0
LINE
  5
306
330
301
100
AcDbEntity
  8
2
  6
Continuous
 62
    90
370
    18
100
AcDbLine
 10
1343.523548493684
 20
653.4308104554086
 30
0.0
 11
1345.523548493684
 21
649.9667088402712
 31
0.0
  0
LINE
  5
307
330
301
100
AcDbEntity
  8
2
  6
Continuous
 62
    90
370
    18
100
AcDbLine
 10
1345.523548493684
 20
649.9667088402712
 30
0.0
 11
1343.523548493684
 21
646.5026072251331
 31
0.0
  0
LINE
  5
308
330
301
100
AcDbEntity
  8
2
  6
Continuous
 62
    90
370
    18
100
AcDbLine
 10
1343.523548493684
 20
646.5026072251331
 30
0.0
 11
1339.523548493684
 21
646.5026072251331
 31
0.0
  0
LINE
  5
309
330
301
100
AcDbEntity
  8
2
  6
Continuous
 62
    90
370
    18
100
AcDbLine
 10
1339.523548493684
 20
646.5026072251331
 30
0.0
 11
1337.523548493684
 21
649.9667088402712
 31
0.0
  0
ENDBLK
  5
303
330
301
100
AcDbEntity
  8
0
100
AcDbBlockEnd
  0
BLOCK
  5
310
330
30F
100
AcDbEntity
  8
0
100
AcDbBlockBegin
  2
*G31
 70
     1
 71
     0
 10
0.0
 20
0.0
 30
0.0
  3
*G31
  1

  0
LINE
  5
312
330
30F
100
AcDbEntity
  8
1
  6
Continuous
 62
    45
370
     9
100
AcDbLine
 10
405.5235484936837
 20
646.3667310990709
 30
0.0
 11
407.023548493684
 21
648.964807310424
 31
0.0
  0
LINE
  5
313
330
30F
100
AcDbEntity
  8
1
  6
Continuous
 62
    45
370
     9
100
AcDbLine
 10
407.023548493684
 20
648.964807310424
 30
0.0
 11
410.0235484936837
 21
648.964807310424
 31
0.0
  0
LINE
  5
314
330
30F
100
AcDbEntity
  8
1
  6
Continuous
 62
    45
370
     9
100
AcDbLine
 10
410.0235484936837
 20
648.964807310424
 30
0.0
 11
411.523548493684
 21
646.3667310990709
 31
0.0
  0
LINE
  5
315
330
30F
100
AcDbEntity
  8
1
  6
Continuous
 62
    45
370
     9
100
AcDbLine
 10
411.523548493684
 20
646.3667310990709
 30
0.0
 11
410.0235484936837
 21
643.7686548877174
 31
0.0
  0
LINE
  5
316
330
30F
100
AcDbEntity
  8
1
  6
Continuous
 62
    45
370
     9
100
AcDbLine
 10
410.0235484936837
 20
643.7686548877174
 30
0.0
 11
407.023548493684
 21
643.7686548877174
 31
0.0
  0
LINE
  5
317
330
30F
100
AcDbEntity
  8
1
  6
Continuous
 62
    45
370
     9
100
AcDbLine
 10
407.023548493684
 20
643.7686548877174
 30
0.0
 11
405.5235484936837
 21
646.3667310990709
 31
0.0
  0
ENDBLK
  5
311
330
30F
100
AcDbEntity
  8
0
100
AcDbBlockEnd
  0
BLOCK
  5
31D
330
31C
100
AcDbEntity
  8
0
100
AcDbBlockBegin
  2
*G32
 70
     1
 71
     0
 10
0.0
 20
0.0
 30
0.0
  3
*G32
  1

  0
LINE
  5
31F
330
31C
100
AcDbEntity
  8
1
  6
Continuous
 62
    45
370
     9
100
AcDbLine
 10
688.5235484936836
 20
646.3667310990709
 30
0.0
 11
690.023548493684
 21
648.964807310424
 31
0.0
  0
LINE
  5
320
330
31C
100
AcDbEntity
  8
1
  6
Continuous
 62
    45
370
     9
100
AcDbLine
 10
690.023548493684
 20
648.964807310424
 30
0.0
 11
693.0235484936836
 21
648.964807310424
 31
0.0
  0
LINE
  5
321
330
31C
100
AcDbEntity
  8
1
  6
Continuous
 62
    45
370
     9
100
AcDbLine
 10
693.0235484936836
 20
648.964807310424
 30
0.0
 11
694.523548493684
 21
646.3667310990709
 31
0.0
  0
LINE
  5
322
330
31C
100
AcDbEntity
  8
1
  6
Continuous
 62
    45
370
     9
100
AcDbLine
 10
694.523548493684
 20
646.3667310990709
 30
0.0
 11
693.0235484936836
 21
643.7686548877174
 31
0.0
  0
LINE
  5
323
330
31C
100
AcDbEntity
  8
1
  6
Continuous
 62
    45
370
     9
100
AcDbLine
 10
693.0235484936836
 20
643.7686548877174
 30
0.0
 11
690.023548493684
 21
643.7686548877174
 31
0.0
  0
LINE
  5
324
330
31C
100
AcDbEntity
  8
1
  6
Continuous
 62
    45
370
     9
100
AcDbLine
 10
690.023548493684
 20
643.7686548877174
 30
0.0
 11
688.5235484936836
 21
646.3667310990709
 31
0.0
  0
ENDBLK
  5
31E
330
31C
100
AcDbEntity
  8
0
100
AcDbBlockEnd
  0
BLOCK
  5
32A
330
329
100
AcDbEntity
  8
0
100
AcDbBlockBegin
  2
*G33
 70
     1
 71
     0
 10
0.0
 20
0.0
 30
0.0
  3
*G33
  1

  0
LINE
  5
32C
330
329
100
AcDbEntity
  8
1
  6
Continuous
 62
    45
370
     9
100
AcDbLine
 10
1088.523548493684
 20
646.3667310990709
 30
0.0
 11
1090.023548493684
 21
648.964807310424
 31
0.0
  0
LINE
  5
32D
330
329
100
AcDbEntity
  8
1
  6
Continuous
 62
    45
370
     9
100
AcDbLine
 10
1090.023548493684
 20
648.964807310424
 30
0.0
 11
1093.023548493684
 21
648.964807310424
 31
0.0
  0
LINE
  5
32E
330
329
100
AcDbEntity
  8
1
  6
Continuous
 62
    45
370
     9
100
AcDbLine
 10
1093.023548493684
 20
648.964807310424
 30
0.0
 11
1094.523548493684
 21
646.3667310990709
 31
0.0
  0
LINE
  5
32F
330
329
100
AcDbEntity
  8
1
  6
Continuous
 62
    45
370
     9
100
AcDbLine
 10
1094.523548493684
 20
646.3667310990709
 30
0.0
 11
1093.023548493684
 21
643.7686548877174
 31
0.0
  0
LINE
  5
330
330
329
100
AcDbEntity
  8
1
  6
Continuous
 62
    45
370
     9
100
AcDbLine
 10
1093.023548493684
 20
643.7686548877174
 30
0.0
 11
1090.023548493684
 21
643.7686548877174
 31
0.0
  0
LINE
  5
331
330
329
100
AcDbEntity
  8
1
  6
Continuous
 62
    45
370
     9
100
AcDbLine
 10
1090.023548493684
 20
643.7686548877174
 30
0.0
 11
1088.523548493684
 21
646.3667310990709
 31
0.0
  0
ENDBLK
  5
32B
330
329
100
AcDbEntity
  8
0
100
AcDbBlockEnd
  0
BLOCK
  5
337
330
336
100
AcDbEntity
  8
0
100
AcDbBlockBegin
  2
*G34
 70
     1
 71
     0
 10
0.0
 20
0.0
 30
0.0
  3
*G34
  1

  0
LINE
  5
339
330
336
100
AcDbEntity
  8
1
  6
Continuous
 62
    45
370
     9
100
AcDbLine
 10
1371.523548493684
 20
646.3667310990709
 30
0.0
 11
1373.023548493684
 21
648.964807310424
 31
0.0
  0
LINE
  5
33A
330
336
100
AcDbEntity
  8
1
  6
Continuous
 62
    45
370
     9
100
AcDbLine
 10
1373.023548493684
 20
648.964807310424
 30
0.0
 11
1376.023548493684
 21
648.964807310424
 31
0.0
  0
LINE
  5
33B
330
336
100
AcDbEntity
  8
1
  6
Continuous
 62
    45
370
     9
100
AcDbLine
 10
1376.023548493684
 20
648.964807310424
 30
0.0
 11
1377.523548493684
 21
646.3667310990709
 31
0.0
  0
LINE
  5
33C
330
336
100
AcDbEntity
  8
1
  6
Continuous
 62
    45
370
     9
100
AcDbLine
 10
1377.523548493684
 20
646.3667310990709
 30
0.0
 11
1376.023548493684
 21
643.7686548877174
 31
0.0
  0
LINE
  5
33D
330
336
100
AcDbEntity
  8
1
  6
Continuous
 62
    45
370
     9
100
AcDbLine
 10
1376.023548493684
 20
643.7686548877174
 30
0.0
 11
1373.023548493684
 21
643.7686548877174
 31
0.0
  0
LINE
  5
33E
330
336
100
AcDbEntity
  8
1
  6
Continuous
 62
    45
370
     9
100
AcDbLine
 10
1373.023548493684
 20
643.7686548877174
 30
0.0
 11
1371.523548493684
 21
646.3667310990709
 31
0.0
  0
ENDBLK
  5
338
330
336
100
AcDbEntity
  8
0
100
AcDbBlockEnd
  0
BLOCK
  5
345
330
344
100
AcDbEntity
  8
0
100
AcDbBlockBegin
  2
*G35
 70
     1
 71
     0
 10
0.0
 20
0.0
 30
0.0
  3
*G35
  1

  0
ARC
  5
347
330
344
100
AcDbEntity
  8
12
  6
Continuous
 62
   136
370
    18
100
AcDbCircle
 10
702.3999999999614
 20
309.7589879389515
 30
0.0
 40
2.0
100
AcDbArc
 50
0.0
 51
89.99999999999991
  0
ARC
  5
348
330
344
100
AcDbEntity
  8
12
  6
Continuous
 62
   136
370
    18
100
AcDbCircle
 10
701.4641016173078
 20
313.7589879389516
 30
0.0
 40
2.0
100
AcDbArc
 50
209.9999999999688
 51
269.9999999999998
  0
ARC
  5
349
330
344
100
AcDbEntity
  8
12
  6
Continuous
 62
   136
370
    18
100
AcDbCircle
 10
698.0000000021679
 20
311.7589879389518
 30
0.0
 40
2.0
100
AcDbArc
 50
29.99999999999371
 51
89.99999999999991
  0
LINE
  5
34A
330
344
100
AcDbEntity
  8
12
  6
Continuous
 62
   136
370
    18
100
AcDbLine
 10
702.3999999999614
 20
311.7589879389518
 30
0.0
 11
701.4641016173078
 21
311.7589879389518
 31
0.0
  0
ARC
  5
34B
330
344
100
AcDbEntity
  8
12
  6
Continuous
 62
   136
370
    18
100
AcDbCircle
 10
683.6000000043789
 20
309.7589879389515
 30
0.0
 40
2.0
100
AcDbArc
 50
89.99999999999991
 51
179.9999999999998
  0
ARC
  5
34C
330
344
100
AcDbEntity
  8
12
  6
Continuous
 62
   136
370
    18
100
AcDbCircle
 10
684.5358983870316
 20
313.7589879389516
 30
0.0
 40
2.0
100
AcDbArc
 50
269.9999999999998
 51
329.9999999999947
  0
ARC
  5
34D
330
344
100
AcDbEntity
  8
12
  6
Continuous
 62
   136
370
    18
100
AcDbCircle
 10
688.0000000021682
 20
311.7589879389518
 30
0.0
 40
2.0
100
AcDbArc
 50
89.99999999999991
 51
149.9999999999949
  0
LINE
  5
34E
330
344
100
AcDbEntity
  8
12
  6
Continuous
 62
   136
370
    18
100
AcDbLine
 10
683.6000000043789
 20
311.7589879389518
 30
0.0
 11
684.5358983870316
 21
311.7589879389518
 31
0.0
  0
ARC
  5
34F
330
344
100
AcDbEntity
  8
12
  6
Continuous
 62
   136
370
    18
100
AcDbCircle
 10
703.3999999999611
 20
306.9589879389523
 30
0.0
 40
1.0
100
AcDbArc
 50
269.9999999999998
 51
0.0
  0
LINE
  5
350
330
344
100
AcDbEntity
  8
12
  6
Continuous
 62
   136
370
    18
100
AcDbLine
 10
704.3999999999617
 20
309.7589879389515
 30
0.0
 11
704.3999999999617
 21
306.9589879389523
 31
0.0
  0
ARC
  5
351
330
344
100
AcDbEntity
  8
12
  6
Continuous
 62
   136
370
    18
100
AcDbCircle
 10
682.6000000043783
 20
306.9589879389523
 30
0.0
 40
1.0
100
AcDbArc
 50
179.9999999999998
 51
269.9999999999998
  0
LINE
  5
352
330
344
100
AcDbEntity
  8
12
  6
Continuous
 62
   136
370
    18
100
AcDbLine
 10
681.6000000043753
 20
309.7589879389515
 30
0.0
 11
681.6000000043753
 21
306.9589879389523
 31
0.0
  0
ARC
  5
353
330
344
100
AcDbEntity
  8
12
  6
Continuous
 62
   136
370
    18
100
AcDbCircle
 10
698.3999999999617
 20
303.9589879389523
 30
0.0
 40
2.0
100
AcDbArc
 50
89.99999999999991
 51
179.9999999999998
  0
LINE
  5
354
330
344
100
AcDbEntity
  8
12
  6
Continuous
 62
   136
370
    18
100
AcDbLine
 10
698.3999999999617
 20
305.9589879389522
 30
0.0
 11
703.3999999999611
 21
305.9589879389522
 31
0.0
  0
ARC
  5
355
330
344
100
AcDbEntity
  8
12
  6
Continuous
 62
   136
370
    18
100
AcDbCircle
 10
687.5999999999618
 20
303.9589879389523
 30
0.0
 40
2.0
100
AcDbArc
 50
0.0
 51
89.99999999999991
  0
LINE
  5
356
330
344
100
AcDbEntity
  8
12
  6
Continuous
 62
   136
370
    18
100
AcDbLine
 10
687.6000000043753
 20
305.9589879389522
 30
0.0
 11
682.6000000043783
 21
305.9589879389522
 31
0.0
  0
LINE
  5
357
330
344
100
AcDbEntity
  8
12
  6
Continuous
 62
   136
370
    18
100
AcDbLine
 10
688.0000000021682
 20
313.7589879389516
 30
0.0
 11
698.0000000021679
 21
313.7589879389516
 31
0.0
  0
LINE
  5
358
330
344
100
AcDbEntity
  8
12
  6
Continuous
 62
   136
370
    18
100
AcDbLine
 10
696.4000000021693
 20
263.7589879389518
 30
0.0
 11
696.3999999999614
 21
303.9589879389523
 31
0.0
  0
LINE
  5
359
330
344
100
AcDbEntity
  8
12
  6
Continuous
 62
   136
370
    18
100
AcDbLine
 10
689.6000000021701
 20
263.7589879389518
 30
0.0
 11
689.5999999999622
 21
303.9589879389523
 31
0.0
  0
LINE
  5
35A
330
344
100
AcDbEntity
  8
12
  6
Continuous
 62
   136
370
    18
100
AcDbLine
 10
689.6000000021701
 20
263.7589879389518
 30
0.0
 11
696.4000000021693
 21
263.7589879389518
 31
0.0
  0
ENDBLK
  5
346
330
344
100
AcDbEntity
  8
0
100
AcDbBlockEnd
  0
BLOCK
  5
35D
330
35C
100
AcDbEntity
  8
0
100
AcDbBlockBegin
  2
*G36
 70
     1
 71
     0
 10
0.0
 20
0.0
 30
0.0
  3
*G36
  1

  0
ARC
  5
35F
330
35C
100
AcDbEntity
  8
12
  6
Continuous
 62
   136
370
    18
100
AcDbCircle
 10
668.3999999992371
 20
309.7589879389515
 30
0.0
 40
2.0
100
AcDbArc
 50
0.0
 51
89.99999999999991
  0
ARC
  5
360
330
35C
100
AcDbEntity
  8
12
  6
Continuous
 62
   136
370
    18
100
AcDbCircle
 10
667.4641016165845
 20
313.7589879389516
 30
0.0
 40
2.0
100
AcDbArc
 50
210.0000000000046
 51
269.9999999999998
  0
ARC
  5
361
330
35C
100
AcDbEntity
  8
12
  6
Continuous
 62
   136
370
    18
100
AcDbCircle
 10
664.0000000014445
 20
311.7589879389518
 30
0.0
 40
2.0
100
AcDbArc
 50
29.99999999995789
 51
89.99999999999991
  0
LINE
  5
362
330
35C
100
AcDbEntity
  8
12
  6
Continuous
 62
   136
370
    18
100
AcDbLine
 10
668.3999999992371
 20
311.7589879389518
 30
0.0
 11
667.4641016165845
 21
311.7589879389518
 31
0.0
  0
ARC
  5
363
330
35C
100
AcDbEntity
  8
12
  6
Continuous
 62
   136
370
    18
100
AcDbCircle
 10
649.6000000036513
 20
309.7589879389515
 30
0.0
 40
2.0
100
AcDbArc
 50
89.99999999999991
 51
179.9999999999998
  0
ARC
  5
364
330
35C
100
AcDbEntity
  8
12
  6
Continuous
 62
   136
370
    18
100
AcDbCircle
 10
650.5358983863082
 20
313.7589879389516
 30
0.0
 40
2.0
100
AcDbArc
 50
269.9999999999998
 51
329.9999999999832
  0
ARC
  5
365
330
35C
100
AcDbEntity
  8
12
  6
Continuous
 62
   136
370
    18
100
AcDbCircle
 10
654.0000000014481
 20
311.7589879389518
 30
0.0
 40
2.0
100
AcDbArc
 50
90.00000000012051
 51
150.0000000000535
  0
LINE
  5
366
330
35C
100
AcDbEntity
  8
12
  6
Continuous
 62
   136
370
    18
100
AcDbLine
 10
649.6000000036513
 20
311.7589879389518
 30
0.0
 11
650.5358983863082
 21
311.7589879389518
 31
0.0
  0
ARC
  5
367
330
35C
100
AcDbEntity
  8
12
  6
Continuous
 62
   136
370
    18
100
AcDbCircle
 10
669.3999999992377
 20
306.9589879389523
 30
0.0
 40
1.0
100
AcDbArc
 50
269.9999999999998
 51
0.0
  0
LINE
  5
368
330
35C
100
AcDbEntity
  8
12
  6
Continuous
 62
   136
370
    18
100
AcDbLine
 10
670.3999999992375
 20
309.7589879389515
 30
0.0
 11
670.3999999992375
 21
306.9589879389523
 31
0.0
  0
ARC
  5
369
330
35C
100
AcDbEntity
  8
12
  6
Continuous
 62
   136
370
    18
100
AcDbCircle
 10
648.6000000036549
 20
306.9589879389523
 30
0.0
 40
1.0
100
AcDbArc
 50
179.9999999999998
 51
269.9999999999998
  0
LINE
  5
36A
330
35C
100
AcDbEntity
  8
12
  6
Continuous
 62
   136
370
    18
100
AcDbLine
 10
647.6000000036544
 20
309.7589879389515
 30
0.0
 11
647.6000000036544
 21
306.9589879389523
 31
0.0
  0
ARC
  5
36B
330
35C
100
AcDbEntity
  8
12
  6
Continuous
 62
   136
370
    18
100
AcDbCircle
 10
664.3999999992375
 20
303.9589879389523
 30
0.0
 40
2.0
100
AcDbArc
 50
89.99999999999991
 51
179.9999999999998
  0
LINE
  5
36C
330
35C
100
AcDbEntity
  8
12
  6
Continuous
 62
   136
370
    18
100
AcDbLine
 10
664.3999999992375
 20
305.9589879389522
 30
0.0
 11
669.3999999992377
 21
305.9589879389522
 31
0.0
  0
ARC
  5
36D
330
35C
100
AcDbEntity
  8
12
  6
Continuous
 62
   136
370
    18
100
AcDbCircle
 10
653.5999999992384
 20
303.9589879389523
 30
0.0
 40
2.0
100
AcDbArc
 50
0.0
 51
89.99999999999991
  0
LINE
  5
36E
330
35C
100
AcDbEntity
  8
12
  6
Continuous
 62
   136
370
    18
100
AcDbLine
 10
653.6000000036544
 20
305.9589879389522
 30
0.0
 11
648.6000000036549
 21
305.9589879389522
 31
0.0
  0
LINE
  5
36F
330
35C
100
AcDbEntity
  8
12
  6
Continuous
 62
   136
370
    18
100
AcDbLine
 10
654.0000000014481
 20
313.7589879389516
 30
0.0
 11
664.0000000014445
 21
313.7589879389516
 31
0.0
  0
LINE
  5
370
330
35C
100
AcDbEntity
  8
12
  6
Continuous
 62
   136
370
    18
100
AcDbLine
 10
662.400000001446
 20
263.7589879389518
 30
0.0
 11
662.3999999992371
 21
303.9589879389523
 31
0.0
  0
LINE
  5
371
330
35C
100
AcDbEntity
  8
12
  6
Continuous
 62
   136
370
    18
100
AcDbLine
 10
655.6000000014467
 20
263.7589879389518
 30
0.0
 11
655.5999999992379
 21
303.9589879389523
 31
0.0
  0
LINE
  5
372
330
35C
100
AcDbEntity
  8
12
  6
Continuous
 62
   136
370
    18
100
AcDbLine
 10
655.6000000014467
 20
263.7589879389518
 30
0.0
 11
662.400000001446
 21
263.7589879389518
 31
0.0
  0
ENDBLK
  5
35E
330
35C
100
AcDbEntity
  8
0
100
AcDbBlockEnd
  0
BLOCK
  5
375
330
374
100
AcDbEntity
  8
0
100
AcDbBlockBegin
  2
*G37
 70
     1
 71
     0
 10
0.0
 20
0.0
 30
0.0
  3
*G37
  1

  0
ARC
  5
377
330
374
100
AcDbEntity
  8
12
  6
Continuous
 62
   136
370
    18
100
AcDbCircle
 10
634.3999999985137
 20
309.7589879389515
 30
0.0
 40
2.0
100
AcDbArc
 50
0.0
 51
89.99999999999991
  0
ARC
  5
378
330
374
100
AcDbEntity
  8
12
  6
Continuous
 62
   136
370
    18
100
AcDbCircle
 10
633.4641016158603
 20
313.7589879389516
 30
0.0
 40
2.0
100
AcDbArc
 50
210.000000000016
 51
269.9999999999998
  0
ARC
  5
379
330
374
100
AcDbEntity
  8
12
  6
Continuous
 62
   136
370
    18
100
AcDbCircle
 10
630.0000000007236
 20
311.7589879389518
 30
0.0
 40
2.0
100
AcDbArc
 50
29.99999999999371
 51
89.99999999999991
  0
LINE
  5
37A
330
374
100
AcDbEntity
  8
12
  6
Continuous
 62
   136
370
    18
100
AcDbLine
 10
634.3999999985137
 20
311.7589879389518
 30
0.0
 11
633.4641016158603
 21
311.7589879389518
 31
0.0
  0
ARC
  5
37B
330
374
100
AcDbEntity
  8
12
  6
Continuous
 62
   136
370
    18
100
AcDbCircle
 10
615.6000000029304
 20
309.7589879389515
 30
0.0
 40
2.0
100
AcDbArc
 50
89.99999999999991
 51
179.9999999999998
  0
ARC
  5
37C
330
374
100
AcDbEntity
  8
12
  6
Continuous
 62
   136
370
    18
100
AcDbCircle
 10
616.535898385584
 20
313.7589879389516
 30
0.0
 40
2.0
100
AcDbArc
 50
269.9999999999998
 51
329.9999999999816
  0
ARC
  5
37D
330
374
100
AcDbEntity
  8
12
  6
Continuous
 62
   136
370
    18
100
AcDbCircle
 10
620.0000000007205
 20
311.7589879389518
 30
0.0
 40
2.0
100
AcDbArc
 50
89.99999999999991
 51
150.0000000000063
  0
LINE
  5
37E
330
374
100
AcDbEntity
  8
12
  6
Continuous
 62
   136
370
    18
100
AcDbLine
 10
615.6000000029304
 20
311.7589879389518
 30
0.0
 11
616.535898385584
 21
311.7589879389518
 31
0.0
  0
ARC
  5
37F
330
374
100
AcDbEntity
  8
12
  6
Continuous
 62
   136
370
    18
100
AcDbCircle
 10
635.3999999985168
 20
306.9589879389523
 30
0.0
 40
1.0
100
AcDbArc
 50
269.9999999999998
 51
0.0
  0
LINE
  5
380
330
374
100
AcDbEntity
  8
12
  6
Continuous
 62
   136
370
    18
100
AcDbLine
 10
636.3999999985174
 20
309.7589879389515
 30
0.0
 11
636.3999999985174
 21
306.9589879389523
 31
0.0
  0
ARC
  5
381
330
374
100
AcDbEntity
  8
12
  6
Continuous
 62
   136
370
    18
100
AcDbCircle
 10
614.6000000029273
 20
306.9589879389523
 30
0.0
 40
1.0
100
AcDbArc
 50
179.9999999999998
 51
269.9999999999998
  0
LINE
  5
382
330
374
100
AcDbEntity
  8
12
  6
Continuous
 62
   136
370
    18
100
AcDbLine
 10
613.600000002931
 20
309.7589879389515
 30
0.0
 11
613.600000002931
 21
306.9589879389523
 31
0.0
  0
ARC
  5
383
330
374
100
AcDbEntity
  8
12
  6
Continuous
 62
   136
370
    18
100
AcDbCircle
 10
630.3999999985174
 20
303.9589879389523
 30
0.0
 40
2.0
100
AcDbArc
 50
89.99999999999991
 51
179.9999999999998
  0
LINE
  5
384
330
374
100
AcDbEntity
  8
12
  6
Continuous
 62
   136
370
    18
100
AcDbLine
 10
630.3999999985174
 20
305.9589879389522
 30
0.0
 11
635.3999999985168
 21
305.9589879389522
 31
0.0
  0
ARC
  5
385
330
374
100
AcDbEntity
  8
12
  6
Continuous
 62
   136
370
    18
100
AcDbCircle
 10
619.5999999985142
 20
303.9589879389523
 30
0.0
 40
2.0
100
AcDbArc
 50
0.0
 51
89.99999999999991
  0
LINE
  5
386
330
374
100
AcDbEntity
  8
12
  6
Continuous
 62
   136
370
    18
100
AcDbLine
 10
619.600000002931
 20
305.9589879389522
 30
0.0
 11
614.6000000029273
 21
305.9589879389522
 31
0.0
  0
LINE
  5
387
330
374
100
AcDbEntity
  8
12
  6
Continuous
 62
   136
370
    18
100
AcDbLine
 10
620.0000000007205
 20
313.7589879389516
 30
0.0
 11
630.0000000007236
 21
313.7589879389516
 31
0.0
  0
LINE
  5
388
330
374
100
AcDbEntity
  8
12
  6
Continuous
 62
   136
370
    18
100
AcDbLine
 10
628.4000000007218
 20
263.7589879389518
 30
0.0
 11
628.3999999985137
 21
303.9589879389523
 31
0.0
  0
LINE
  5
389
330
374
100
AcDbEntity
  8
12
  6
Continuous
 62
   136
370
    18
100
AcDbLine
 10
621.6000000007225
 20
263.7589879389518
 30
0.0
 11
621.5999999985145
 21
303.9589879389523
 31
0.0
  0
LINE
  5
38A
330
374
100
AcDbEntity
  8
12
  6
Continuous
 62
   136
370
    18
100
AcDbLine
 10
621.6000000007225
 20
263.7589879389518
 30
0.0
 11
628.4000000007218
 21
263.7589879389518
 31
0.0
  0
ENDBLK
  5
376
330
374
100
AcDbEntity
  8
0
100
AcDbBlockEnd
  0
BLOCK
  5
38D
330
38C
100
AcDbEntity
  8
0
100
AcDbBlockBegin
  2
*G38
 70
     1
 71
     0
 10
0.0
 20
0.0
 30
0.0
  3
*G38
  1

  0
ARC
  5
38F
330
38C
100
AcDbEntity
  8
12
  6
Continuous
 62
   136
370
    18
100
AcDbCircle
 10
479.6000000000354
 20
309.7589879389515
 30
0.0
 40
2.0
100
AcDbArc
 50
89.99999999999991
 51
179.9999999999998
  0
ARC
  5
390
330
38C
100
AcDbEntity
  8
12
  6
Continuous
 62
   136
370
    18
100
AcDbCircle
 10
480.5358983826923
 20
313.7589879389516
 30
0.0
 40
2.0
100
AcDbArc
 50
269.9999999999998
 51
329.99999999998
  0
ARC
  5
391
330
38C
100
AcDbEntity
  8
12
  6
Continuous
 62
   136
370
    18
100
AcDbCircle
 10
483.9999999978277
 20
311.7589879389518
 30
0.0
 40
2.0
100
AcDbArc
 50
89.99999999999991
 51
149.9999999999916
  0
LINE
  5
392
330
38C
100
AcDbEntity
  8
12
  6
Continuous
 62
   136
370
    18
100
AcDbLine
 10
479.6000000000354
 20
311.7589879389518
 30
0.0
 11
480.5358983826923
 21
311.7589879389518
 31
0.0
  0
ARC
  5
393
330
38C
100
AcDbEntity
  8
12
  6
Continuous
 62
   136
370
    18
100
AcDbCircle
 10
498.3999999956209
 20
309.7589879389515
 30
0.0
 40
2.0
100
AcDbArc
 50
0.0
 51
89.99999999999991
  0
ARC
  5
394
330
38C
100
AcDbEntity
  8
12
  6
Continuous
 62
   136
370
    18
100
AcDbCircle
 10
497.464101612964
 20
313.7589879389516
 30
0.0
 40
2.0
100
AcDbArc
 50
210.0000000000193
 51
269.9999999999998
  0
ARC
  5
395
330
38C
100
AcDbEntity
  8
12
  6
Continuous
 62
   136
370
    18
100
AcDbCircle
 10
493.9999999978286
 20
311.7589879389518
 30
0.0
 40
2.0
100
AcDbArc
 50
30.00000000000837
 51
89.99999999999991
  0
LINE
  5
396
330
38C
100
AcDbEntity
  8
12
  6
Continuous
 62
   136
370
    18
100
AcDbLine
 10
498.3999999956209
 20
311.7589879389518
 30
0.0
 11
497.464101612964
 21
311.7589879389518
 31
0.0
  0
ARC
  5
397
330
38C
100
AcDbEntity
  8
12
  6
Continuous
 62
   136
370
    18
100
AcDbCircle
 10
478.6000000000345
 20
306.9589879389523
 30
0.0
 40
1.0
100
AcDbArc
 50
179.9999999999998
 51
269.9999999999998
  0
LINE
  5
398
330
38C
100
AcDbEntity
  8
12
  6
Continuous
 62
   136
370
    18
100
AcDbLine
 10
477.6000000000349
 20
309.7589879389515
 30
0.0
 11
477.6000000000349
 21
306.9589879389523
 31
0.0
  0
ARC
  5
399
330
38C
100
AcDbEntity
  8
12
  6
Continuous
 62
   136
370
    18
100
AcDbCircle
 10
499.3999999956218
 20
306.9589879389523
 30
0.0
 40
1.0
100
AcDbArc
 50
269.9999999999998
 51
0.0
  0
LINE
  5
39A
330
38C
100
AcDbEntity
  8
12
  6
Continuous
 62
   136
370
    18
100
AcDbLine
 10
500.3999999956213
 20
309.7589879389515
 30
0.0
 11
500.3999999956213
 21
306.9589879389523
 31
0.0
  0
ARC
  5
39B
330
38C
100
AcDbEntity
  8
12
  6
Continuous
 62
   136
370
    18
100
AcDbCircle
 10
483.6000000000349
 20
303.9589879389523
 30
0.0
 40
2.0
100
AcDbArc
 50
0.0
 51
89.99999999999991
  0
LINE
  5
39C
330
38C
100
AcDbEntity
  8
12
  6
Continuous
 62
   136
370
    18
100
AcDbLine
 10
483.6000000000349
 20
305.9589879389522
 30
0.0
 11
478.6000000000345
 21
305.9589879389522
 31
0.0
  0
ARC
  5
39D
330
38C
100
AcDbEntity
  8
12
  6
Continuous
 62
   136
370
    18
100
AcDbCircle
 10
494.4000000000337
 20
303.9589879389523
 30
0.0
 40
2.0
100
AcDbArc
 50
89.99999999999991
 51
179.9999999999998
  0
LINE
  5
39E
330
38C
100
AcDbEntity
  8
12
  6
Continuous
 62
   136
370
    18
100
AcDbLine
 10
494.3999999956213
 20
305.9589879389522
 30
0.0
 11
499.3999999956218
 21
305.9589879389522
 31
0.0
  0
LINE
  5
39F
330
38C
100
AcDbEntity
  8
12
  6
Continuous
 62
   136
370
    18
100
AcDbLine
 10
493.9999999978286
 20
313.7589879389516
 30
0.0
 11
483.9999999978277
 21
313.7589879389516
 31
0.0
  0
LINE
  5
3A0
330
38C
100
AcDbEntity
  8
12
  6
Continuous
 62
   136
370
    18
100
AcDbLine
 10
485.5999999978262
 20
263.7589879389518
 30
0.0
 11
485.6000000000354
 21
303.9589879389523
 31
0.0
  0
LINE
  5
3A1
330
38C
100
AcDbEntity
  8
12
  6
Continuous
 62
   136
370
    18
100
AcDbLine
 10
492.39999999783
 20
263.7589879389518
 30
0.0
 11
492.4000000000347
 21
303.9589879389523
 31
0.0
  0
LINE
  5
3A2
330
38C
100
AcDbEntity
  8
12
  6
Continuous
 62
   136
370
    18
100
AcDbLine
 10
492.39999999783
 20
263.7589879389518
 30
0.0
 11
485.5999999978262
 21
263.7589879389518
 31
0.0
  0
ENDBLK
  5
38E
330
38C
100
AcDbEntity
  8
0
100
AcDbBlockEnd
  0
BLOCK
  5
3A5
330
3A4
100
AcDbEntity
  8
0
100
AcDbBlockBegin
  2
*G39
 70
     1
 71
     0
 10
0.0
 20
0.0
 30
0.0
  3
*G39
  1

  0
ARC
  5
3A7
330
3A4
100
AcDbEntity
  8
12
  6
Continuous
 62
   136
370
    18
100
AcDbCircle
 10
513.6000000007584
 20
309.7589879389515
 30
0.0
 40
2.0
100
AcDbArc
 50
89.99999999999991
 51
179.9999999999998
  0
ARC
  5
3A8
330
3A4
100
AcDbEntity
  8
12
  6
Continuous
 62
   136
370
    18
100
AcDbCircle
 10
514.5358983834153
 20
313.7589879389516
 30
0.0
 40
2.0
100
AcDbArc
 50
269.9999999999998
 51
329.9999999999962
  0
ARC
  5
3A9
330
3A4
100
AcDbEntity
  8
12
  6
Continuous
 62
   136
370
    18
100
AcDbCircle
 10
517.9999999985521
 20
311.7589879389518
 30
0.0
 40
2.0
100
AcDbArc
 50
89.99999999999991
 51
149.9999999999949
  0
LINE
  5
3AA
330
3A4
100
AcDbEntity
  8
12
  6
Continuous
 62
   136
370
    18
100
AcDbLine
 10
513.6000000007584
 20
311.7589879389518
 30
0.0
 11
514.5358983834153
 21
311.7589879389518
 31
0.0
  0
ARC
  5
3AB
330
3A4
100
AcDbEntity
  8
12
  6
Continuous
 62
   136
370
    18
100
AcDbCircle
 10
532.3999999963453
 20
309.7589879389515
 30
0.0
 40
2.0
100
AcDbArc
 50
0.0
 51
89.99999999999991
  0
ARC
  5
3AC
330
3A4
100
AcDbEntity
  8
12
  6
Continuous
 62
   136
370
    18
100
AcDbCircle
 10
531.4641016136916
 20
313.7589879389516
 30
0.0
 40
2.0
100
AcDbArc
 50
209.9999999999704
 51
269.9999999999998
  0
ARC
  5
3AD
330
3A4
100
AcDbEntity
  8
12
  6
Continuous
 62
   136
370
    18
100
AcDbCircle
 10
527.9999999985516
 20
311.7589879389518
 30
0.0
 40
2.0
100
AcDbArc
 50
29.99999999999208
 51
89.99999999999991
  0
LINE
  5
3AE
330
3A4
100
AcDbEntity
  8
12
  6
Continuous
 62
   136
370
    18
100
AcDbLine
 10
532.3999999963453
 20
311.7589879389518
 30
0.0
 11
531.4641016136916
 21
311.7589879389518
 31
0.0
  0
ARC
  5
3AF
330
3A4
100
AcDbEntity
  8
12
  6
Continuous
 62
   136
370
    18
100
AcDbCircle
 10
512.6000000007589
 20
306.9589879389523
 30
0.0
 40
1.0
100
AcDbArc
 50
179.9999999999998
 51
269.9999999999998
  0
LINE
  5
3B0
330
3A4
100
AcDbEntity
  8
12
  6
Continuous
 62
   136
370
    18
100
AcDbLine
 10
511.6000000007591
 20
309.7589879389515
 30
0.0
 11
511.6000000007591
 21
306.9589879389523
 31
0.0
  0
ARC
  5
3B1
330
3A4
100
AcDbEntity
  8
12
  6
Continuous
 62
   136
370
    18
100
AcDbCircle
 10
533.3999999963448
 20
306.9589879389523
 30
0.0
 40
1.0
100
AcDbArc
 50
269.9999999999998
 51
0.0
  0
LINE
  5
3B2
330
3A4
100
AcDbEntity
  8
12
  6
Continuous
 62
   136
370
    18
100
AcDbLine
 10
534.3999999963455
 20
309.7589879389515
 30
0.0
 11
534.3999999963455
 21
306.9589879389523
 31
0.0
  0
ARC
  5
3B3
330
3A4
100
AcDbEntity
  8
12
  6
Continuous
 62
   136
370
    18
100
AcDbCircle
 10
517.6000000007591
 20
303.9589879389523
 30
0.0
 40
2.0
100
AcDbArc
 50
0.0
 51
89.99999999999991
  0
LINE
  5
3B4
330
3A4
100
AcDbEntity
  8
12
  6
Continuous
 62
   136
370
    18
100
AcDbLine
 10
517.6000000007591
 20
305.9589879389522
 30
0.0
 11
512.6000000007589
 21
305.9589879389522
 31
0.0
  0
ARC
  5
3B5
330
3A4
100
AcDbEntity
  8
12
  6
Continuous
 62
   136
370
    18
100
AcDbCircle
 10
528.4000000007582
 20
303.9589879389523
 30
0.0
 40
2.0
100
AcDbArc
 50
89.99999999999991
 51
179.9999999999998
  0
LINE
  5
3B6
330
3A4
100
AcDbEntity
  8
12
  6
Continuous
 62
   136
370
    18
100
AcDbLine
 10
528.3999999963455
 20
305.9589879389522
 30
0.0
 11
533.3999999963448
 21
305.9589879389522
 31
0.0
  0
LINE
  5
3B7
330
3A4
100
AcDbEntity
  8
12
  6
Continuous
 62
   136
370
    18
100
AcDbLine
 10
527.9999999985516
 20
313.7589879389516
 30
0.0
 11
517.9999999985521
 21
313.7589879389516
 31
0.0
  0
LINE
  5
3B8
330
3A4
100
AcDbEntity
  8
12
  6
Continuous
 62
   136
370
    18
100
AcDbLine
 10
519.5999999985538
 20
263.7589879389518
 30
0.0
 11
519.6000000007584
 21
303.9589879389523
 31
0.0
  0
LINE
  5
3B9
330
3A4
100
AcDbEntity
  8
12
  6
Continuous
 62
   136
370
    18
100
AcDbLine
 10
526.3999999985531
 20
263.7589879389518
 30
0.0
 11
526.4000000007577
 21
303.9589879389523
 31
0.0
  0
LINE
  5
3BA
330
3A4
100
AcDbEntity
  8
12
  6
Continuous
 62
   136
370
    18
100
AcDbLine
 10
526.3999999985531
 20
263.7589879389518
 30
0.0
 11
519.5999999985538
 21
263.7589879389518
 31
0.0
  0
ENDBLK
  5
3A6
330
3A4
100
AcDbEntity
  8
0
100
AcDbBlockEnd
  0
BLOCK
  5
3BD
330
3BC
100
AcDbEntity
  8
0
100
AcDbBlockBegin
  2
*G40
 70
     1
 71
     0
 10
0.0
 20
0.0
 30
0.0
  3
*G40
  1

  0
ARC
  5
3BF
330
3BC
100
AcDbEntity
  8
12
  6
Continuous
 62
   136
370
    18
100
AcDbCircle
 10
547.6000000014828
 20
309.7589879389515
 30
0.0
 40
2.0
100
AcDbArc
 50
89.99999999999991
 51
179.9999999999998
  0
ARC
  5
3C0
330
3BC
100
AcDbEntity
  8
12
  6
Continuous
 62
   136
370
    18
100
AcDbCircle
 10
548.5358983841363
 20
313.7589879389516
 30
0.0
 40
2.0
100
AcDbArc
 50
269.9999999999998
 51
330.0000000000288
  0
ARC
  5
3C1
330
3BC
100
AcDbEntity
  8
12
  6
Continuous
 62
   136
370
    18
100
AcDbCircle
 10
551.9999999992763
 20
311.7589879389518
 30
0.0
 40
2.0
100
AcDbArc
 50
89.99999999999991
 51
150.0000000000079
  0
LINE
  5
3C2
330
3BC
100
AcDbEntity
  8
12
  6
Continuous
 62
   136
370
    18
100
AcDbLine
 10
547.6000000014828
 20
311.7589879389518
 30
0.0
 11
548.5358983841363
 21
311.7589879389518
 31
0.0
  0
ARC
  5
3C3
330
3BC
100
AcDbEntity
  8
12
  6
Continuous
 62
   136
370
    18
100
AcDbCircle
 10
566.3999999970695
 20
309.7589879389515
 30
0.0
 40
2.0
100
AcDbArc
 50
0.0
 51
89.99999999999991
  0
ARC
  5
3C4
330
3BC
100
AcDbEntity
  8
12
  6
Continuous
 62
   136
370
    18
100
AcDbCircle
 10
565.4641016144126
 20
313.7589879389516
 30
0.0
 40
2.0
100
AcDbArc
 50
210.0000000000046
 51
269.9999999999998
  0
ARC
  5
3C5
330
3BC
100
AcDbEntity
  8
12
  6
Continuous
 62
   136
370
    18
100
AcDbCircle
 10
561.999999999276
 20
311.7589879389518
 30
0.0
 40
2.0
100
AcDbArc
 50
30.00000000000674
 51
89.99999999999991
  0
LINE
  5
3C6
330
3BC
100
AcDbEntity
  8
12
  6
Continuous
 62
   136
370
    18
100
AcDbLine
 10
566.3999999970695
 20
311.7589879389518
 30
0.0
 11
565.4641016144126
 21
311.7589879389518
 31
0.0
  0
ARC
  5
3C7
330
3BC
100
AcDbEntity
  8
12
  6
Continuous
 62
   136
370
    18
100
AcDbCircle
 10
546.6000000014831
 20
306.9589879389523
 30
0.0
 40
1.0
100
AcDbArc
 50
179.9999999999998
 51
269.9999999999998
  0
LINE
  5
3C8
330
3BC
100
AcDbEntity
  8
12
  6
Continuous
 62
   136
370
    18
100
AcDbLine
 10
545.6000000014824
 20
309.7589879389515
 30
0.0
 11
545.6000000014824
 21
306.9589879389523
 31
0.0
  0
ARC
  5
3C9
330
3BC
100
AcDbEntity
  8
12
  6
Continuous
 62
   136
370
    18
100
AcDbCircle
 10
567.3999999970692
 20
306.9589879389523
 30
0.0
 40
1.0
100
AcDbArc
 50
269.9999999999998
 51
0.0
  0
LINE
  5
3CA
330
3BC
100
AcDbEntity
  8
12
  6
Continuous
 62
   136
370
    18
100
AcDbLine
 10
568.3999999970689
 20
309.7589879389515
 30
0.0
 11
568.3999999970689
 21
306.9589879389523
 31
0.0
  0
ARC
  5
3CB
330
3BC
100
AcDbEntity
  8
12
  6
Continuous
 62
   136
370
    18
100
AcDbCircle
 10
551.6000000014825
 20
303.9589879389523
 30
0.0
 40
2.0
100
AcDbArc
 50
0.0
 51
89.99999999999991
  0
LINE
  5
3CC
330
3BC
100
AcDbEntity
  8
12
  6
Continuous
 62
   136
370
    18
100
AcDbLine
 10
551.6000000014825
 20
305.9589879389522
 30
0.0
 11
546.6000000014831
 21
305.9589879389522
 31
0.0
  0
ARC
  5
3CD
330
3BC
100
AcDbEntity
  8
12
  6
Continuous
 62
   136
370
    18
100
AcDbCircle
 10
562.4000000014823
 20
303.9589879389523
 30
0.0
 40
2.0
100
AcDbArc
 50
89.99999999999991
 51
179.9999999999998
  0
LINE
  5
3CE
330
3BC
100
AcDbEntity
  8
12
  6
Continuous
 62
   136
370
    18
100
AcDbLine
 10
562.3999999970689
 20
305.9589879389522
 30
0.0
 11
567.3999999970692
 21
305.9589879389522
 31
0.0
  0
LINE
  5
3CF
330
3BC
100
AcDbEntity
  8
12
  6
Continuous
 62
   136
370
    18
100
AcDbLine
 10
561.999999999276
 20
313.7589879389516
 30
0.0
 11
551.9999999992763
 21
313.7589879389516
 31
0.0
  0
LINE
  5
3D0
330
3BC
100
AcDbEntity
  8
12
  6
Continuous
 62
   136
370
    18
100
AcDbLine
 10
553.5999999992748
 20
263.7589879389518
 30
0.0
 11
553.6000000014828
 21
303.9589879389523
 31
0.0
  0
LINE
  5
3D1
330
3BC
100
AcDbEntity
  8
12
  6
Continuous
 62
   136
370
    18
100
AcDbLine
 10
560.3999999992741
 20
263.7589879389518
 30
0.0
 11
560.4000000014821
 21
303.9589879389523
 31
0.0
  0
LINE
  5
3D2
330
3BC
100
AcDbEntity
  8
12
  6
Continuous
 62
   136
370
    18
100
AcDbLine
 10
560.3999999992741
 20
263.7589879389518
 30
0.0
 11
553.5999999992748
 21
263.7589879389518
 31
0.0
  0
ENDBLK
  5
3BE
330
3BC
100
AcDbEntity
  8
0
100
AcDbBlockEnd
  0
BLOCK
  5
3D5
330
3D4
100
AcDbEntity
  8
0
100
AcDbBlockBegin
  2
*G41
 70
     1
 71
     0
 10
0.0
 20
0.0
 30
0.0
  3
*G41
  1

  0
ARC
  5
3D7
330
3D4
100
AcDbEntity
  8
12
  6
Continuous
 62
   136
370
    18
100
AcDbCircle
 10
581.600000002207
 20
309.7589879389515
 30
0.0
 40
2.0
100
AcDbArc
 50
89.99999999999991
 51
179.9999999999998
  0
ARC
  5
3D8
330
3D4
100
AcDbEntity
  8
12
  6
Continuous
 62
   136
370
    18
100
AcDbCircle
 10
582.5358983848597
 20
313.7589879389516
 30
0.0
 40
2.0
100
AcDbArc
 50
269.9999999999998
 51
329.9999999999947
  0
ARC
  5
3D9
330
3D4
100
AcDbEntity
  8
12
  6
Continuous
 62
   136
370
    18
100
AcDbCircle
 10
585.9999999999997
 20
311.7589879389518
 30
0.0
 40
2.0
100
AcDbArc
 50
89.99999999999991
 51
150.0000000000421
  0
LINE
  5
3DA
330
3D4
100
AcDbEntity
  8
12
  6
Continuous
 62
   136
370
    18
100
AcDbLine
 10
581.600000002207
 20
311.7589879389518
 30
0.0
 11
582.5358983848597
 21
311.7589879389518
 31
0.0
  0
ARC
  5
3DB
330
3D4
100
AcDbEntity
  8
12
  6
Continuous
 62
   136
370
    18
100
AcDbCircle
 10
600.3999999977929
 20
309.7589879389515
 30
0.0
 40
2.0
100
AcDbArc
 50
0.0
 51
89.99999999999991
  0
ARC
  5
3DC
330
3D4
100
AcDbEntity
  8
12
  6
Continuous
 62
   136
370
    18
100
AcDbCircle
 10
599.464101615136
 20
313.7589879389516
 30
0.0
 40
2.0
100
AcDbArc
 50
210.0000000000176
 51
269.9999999999998
  0
ARC
  5
3DD
330
3D4
100
AcDbEntity
  8
12
  6
Continuous
 62
   136
370
    18
100
AcDbCircle
 10
596.0000000000002
 20
311.7589879389518
 30
0.0
 40
2.0
100
AcDbArc
 50
30.00000000000512
 51
89.99999999999991
  0
LINE
  5
3DE
330
3D4
100
AcDbEntity
  8
12
  6
Continuous
 62
   136
370
    18
100
AcDbLine
 10
600.3999999977929
 20
311.7589879389518
 30
0.0
 11
599.464101615136
 21
311.7589879389518
 31
0.0
  0
ARC
  5
3DF
330
3D4
100
AcDbEntity
  8
12
  6
Continuous
 62
   136
370
    18
100
AcDbCircle
 10
580.6000000022065
 20
306.9589879389523
 30
0.0
 40
1.0
100
AcDbArc
 50
179.9999999999998
 51
269.9999999999998
  0
LINE
  5
3E0
330
3D4
100
AcDbEntity
  8
12
  6
Continuous
 62
   136
370
    18
100
AcDbLine
 10
579.6000000022068
 20
309.7589879389515
 30
0.0
 11
579.6000000022068
 21
306.9589879389523
 31
0.0
  0
ARC
  5
3E1
330
3D4
100
AcDbEntity
  8
12
  6
Continuous
 62
   136
370
    18
100
AcDbCircle
 10
601.3999999977934
 20
306.9589879389523
 30
0.0
 40
1.0
100
AcDbArc
 50
269.9999999999998
 51
0.0
  0
LINE
  5
3E2
330
3D4
100
AcDbEntity
  8
12
  6
Continuous
 62
   136
370
    18
100
AcDbLine
 10
602.3999999977898
 20
309.7589879389515
 30
0.0
 11
602.3999999977898
 21
306.9589879389523
 31
0.0
  0
ARC
  5
3E3
330
3D4
100
AcDbEntity
  8
12
  6
Continuous
 62
   136
370
    18
100
AcDbCircle
 10
585.6000000022068
 20
303.9589879389523
 30
0.0
 40
2.0
100
AcDbArc
 50
0.0
 51
89.99999999999991
  0
LINE
  5
3E4
330
3D4
100
AcDbEntity
  8
12
  6
Continuous
 62
   136
370
    18
100
AcDbLine
 10
585.6000000022068
 20
305.9589879389522
 30
0.0
 11
580.6000000022065
 21
305.9589879389522
 31
0.0
  0
ARC
  5
3E5
330
3D4
100
AcDbEntity
  8
12
  6
Continuous
 62
   136
370
    18
100
AcDbCircle
 10
596.4000000022057
 20
303.9589879389523
 30
0.0
 40
2.0
100
AcDbArc
 50
89.99999999999991
 51
179.9999999999998
  0
LINE
  5
3E6
330
3D4
100
AcDbEntity
  8
12
  6
Continuous
 62
   136
370
    18
100
AcDbLine
 10
596.3999999977898
 20
305.9589879389522
 30
0.0
 11
601.3999999977934
 21
305.9589879389522
 31
0.0
  0
LINE
  5
3E7
330
3D4
100
AcDbEntity
  8
12
  6
Continuous
 62
   136
370
    18
100
AcDbLine
 10
596.0000000000002
 20
313.7589879389516
 30
0.0
 11
585.9999999999997
 21
313.7589879389516
 31
0.0
  0
LINE
  5
3E8
330
3D4
100
AcDbEntity
  8
12
  6
Continuous
 62
   136
370
    18
100
AcDbLine
 10
587.5999999999982
 20
263.7589879389518
 30
0.0
 11
587.600000002207
 21
303.9589879389523
 31
0.0
  0
LINE
  5
3E9
330
3D4
100
AcDbEntity
  8
12
  6
Continuous
 62
   136
370
    18
100
AcDbLine
 10
594.3999999999975
 20
263.7589879389518
 30
0.0
 11
594.4000000022063
 21
303.9589879389523
 31
0.0
  0
LINE
  5
3EA
330
3D4
100
AcDbEntity
  8
12
  6
Continuous
 62
   136
370
    18
100
AcDbLine
 10
594.3999999999975
 20
263.7589879389518
 30
0.0
 11
587.5999999999982
 21
263.7589879389518
 31
0.0
  0
ENDBLK
  5
3D6
330
3D4
100
AcDbEntity
  8
0
100
AcDbBlockEnd
  0
BLOCK
  5
3FA
330
3F9
100
AcDbEntity
  8
0
100
AcDbBlockBegin
  2
*G42
 70
     1
 71
     0
 10
0.0
 20
0.0
 30
0.0
  3
*G42
  1

  0
LINE
  5
3FC
330
3F9
100
AcDbEntity
  8
12
  6
Continuous
 62
   136
370
    18
100
AcDbLine
 10
425.0064303856611
 20
290.9589434213515
 30
0.0
 11
418.9973983856594
 21
290.9589434213515
 31
0.0
  0
LINE
  5
3FD
330
3F9
100
AcDbEntity
  8
12
  6
Continuous
 62
   136
370
    18
100
AcDbLine
 10
425.0064303856611
 20
283.958943421353
 30
0.0
 11
418.9973743856622
 21
283.958943421353
 31
0.0
  0
ARC
  5
3FE
330
3F9
100
AcDbEntity
  8
12
  6
Continuous
 62
   136
370
    18
100
AcDbCircle
 10
418.9973743856622
 20
284.3589434213526
 30
0.0
 40
0.4000000000000002
100
AcDbArc
 50
179.9999999999998
 51
269.9999999999998
  0
ARC
  5
3FF
330
3F9
100
AcDbEntity
  8
12
  6
Continuous
 62
   136
370
    18
100
AcDbCircle
 10
434.1133343856613
 20
287.4586514213527
 30
0.0
 40
15.515912
100
AcDbArc
 50
166.9619780000073
 51
193.0356699999992
  0
ARC
  5
400
330
3F9
100
AcDbEntity
  8
12
  6
Continuous
 62
   136
370
    18
100
AcDbCircle
 10
418.9973743856622
 20
297.5589434213515
 30
0.0
 40
0.4000000000000002
100
AcDbArc
 50
89.99999999999991
 51
179.9999999999998
  0
ARC
  5
401
330
3F9
100
AcDbEntity
  8
12
  6
Continuous
 62
   136
370
    18
100
AcDbCircle
 10
434.1133343856613
 20
294.4592314213522
 30
0.0
 40
15.515912
100
AcDbArc
 50
166.9643300000004
 51
193.0380219999984
  0
LINE
  5
402
330
3F9
100
AcDbEntity
  8
12
  6
Continuous
 62
   136
370
    18
100
AcDbLine
 10
425.0064303856611
 20
297.9589434213511
 30
0.0
 11
418.9973743856622
 21
297.9589434213511
 31
0.0
  0
LINE
  5
403
330
3F9
100
AcDbEntity
  8
12
  6
Continuous
 62
   136
370
    18
100
AcDbLine
 10
418.5973743856616
 20
284.3589434213526
 30
0.0
 11
418.5973743856616
 21
297.5589434213515
 31
0.0
  0
ENDBLK
  5
3FB
330
3F9
100
AcDbEntity
  8
0
100
AcDbBlockEnd
  0
BLOCK
  5
406
330
405
100
AcDbEntity
  8
0
100
AcDbBlockBegin
  2
*G43
 70
     1
 71
     0
 10
0.0
 20
0.0
 30
0.0
  3
*G43
  1

  0
ARC
  5
408
330
405
100
AcDbEntity
  8
12
  6
Continuous
 62
   136
370
    18
100
AcDbCircle
 10
425.4064303856599
 20
278.3589434213526
 30
0.0
 40
0.4000000000000002
100
AcDbArc
 50
179.9999999999998
 51
269.9999999999998
  0
LINE
  5
409
330
405
100
AcDbEntity
  8
12
  6
Continuous
 62
   136
370
    18
100
AcDbLine
 10
427.9999263856607
 20
277.9589434213513
 30
0.0
 11
425.4064303856599
 21
277.9589434213513
 31
0.0
  0
ARC
  5
40A
330
405
100
AcDbEntity
  8
12
  6
Continuous
 62
   136
370
    18
100
AcDbCircle
 10
425.4064303856599
 20
303.5589434213515
 30
0.0
 40
0.4000000000000002
100
AcDbArc
 50
89.99999999999991
 51
179.9999999999998
  0
LINE
  5
40B
330
405
100
AcDbEntity
  8
12
  6
Continuous
 62
   136
370
    18
100
AcDbLine
 10
427.9999263856607
 20
303.9589434213511
 30
0.0
 11
425.4064303856599
 21
303.9589434213511
 31
0.0
  0
LINE
  5
40C
330
405
100
AcDbEntity
  8
12
  6
Continuous
 62
   136
370
    18
100
AcDbLine
 10
425.0064303856611
 20
289.9589434213513
 30
0.0
 11
425.0064303856611
 21
278.3589434213526
 31
0.0
  0
LINE
  5
40D
330
405
100
AcDbEntity
  8
12
  6
Continuous
 62
   136
370
    18
100
AcDbLine
 10
425.0064303856611
 20
303.5589434213515
 30
0.0
 11
425.0064303856611
 21
289.9589434213513
 31
0.0
  0
ENDBLK
  5
407
330
405
100
AcDbEntity
  8
0
100
AcDbBlockEnd
  0
BLOCK
  5
410
330
40F
100
AcDbEntity
  8
0
100
AcDbBlockBegin
  2
*G44
 70
     1
 71
     0
 10
0.0
 20
0.0
 30
0.0
  3
*G44
  1

  0
ARC
  5
412
330
40F
100
AcDbEntity
  8
12
  6
Continuous
 62
   136
370
    18
100
AcDbCircle
 10
445.9999999993106
 20
309.7589879389515
 30
0.0
 40
2.0
100
AcDbArc
 50
89.99999999999991
 51
179.9999999999998
  0
ARC
  5
413
330
40F
100
AcDbEntity
  8
12
  6
Continuous
 62
   136
370
    18
100
AcDbCircle
 10
446.9358983819675
 20
313.7589879389516
 30
0.0
 40
2.0
100
AcDbArc
 50
269.9999999999998
 51
329.99999999998
  0
ARC
  5
414
330
40F
100
AcDbEntity
  8
12
  6
Continuous
 62
   136
370
    18
100
AcDbCircle
 10
450.3999999971043
 20
311.7589879389518
 30
0.0
 40
2.0
100
AcDbArc
 50
89.99999999999991
 51
150.0000000000112
  0
LINE
  5
415
330
40F
100
AcDbEntity
  8
12
  6
Continuous
 62
   136
370
    18
100
AcDbLine
 10
445.9999999993106
 20
311.7589879389518
 30
0.0
 11
446.9358983819675
 21
311.7589879389518
 31
0.0
  0
ARC
  5
416
330
40F
100
AcDbEntity
  8
12
  6
Continuous
 62
   136
370
    18
100
AcDbCircle
 10
464.7999999948975
 20
309.7589879389515
 30
0.0
 40
2.0
100
AcDbArc
 50
0.0
 51
89.99999999999991
  0
ARC
  5
417
330
40F
100
AcDbEntity
  8
12
  6
Continuous
 62
   136
370
    18
100
AcDbCircle
 10
463.8641016122406
 20
313.7589879389516
 30
0.0
 40
2.0
100
AcDbArc
 50
209.9999999999997
 51
269.9999999999998
  0
ARC
  5
418
330
40F
100
AcDbEntity
  8
12
  6
Continuous
 62
   136
370
    18
100
AcDbCircle
 10
460.3999999971038
 20
311.7589879389518
 30
0.0
 40
2.0
100
AcDbArc
 50
30.00000000000837
 51
89.99999999999991
  0
LINE
  5
419
330
40F
100
AcDbEntity
  8
12
  6
Continuous
 62
   136
370
    18
100
AcDbLine
 10
464.7999999948975
 20
311.7589879389518
 30
0.0
 11
463.8641016122406
 21
311.7589879389518
 31
0.0
  0
ARC
  5
41A
330
40F
100
AcDbEntity
  8
12
  6
Continuous
 62
   136
370
    18
100
AcDbCircle
 10
444.9999999993111
 20
306.9589879389523
 30
0.0
 40
1.0
100
AcDbArc
 50
179.9999999999998
 51
269.9999999999998
  0
LINE
  5
41B
330
40F
100
AcDbEntity
  8
12
  6
Continuous
 62
   136
370
    18
100
AcDbLine
 10
443.9999999993101
 20
309.7589879389515
 30
0.0
 11
443.9999999993101
 21
306.9589879389523
 31
0.0
  0
ARC
  5
41C
330
40F
100
AcDbEntity
  8
12
  6
Continuous
 62
   136
370
    18
100
AcDbCircle
 10
465.799999994897
 20
306.9589879389523
 30
0.0
 40
1.0
100
AcDbArc
 50
269.9999999999998
 51
0.0
  0
LINE
  5
41D
330
40F
100
AcDbEntity
  8
12
  6
Continuous
 62
   136
370
    18
100
AcDbLine
 10
466.7999999948966
 20
309.7589879389515
 30
0.0
 11
466.7999999948966
 21
306.9589879389523
 31
0.0
  0
ARC
  5
41E
330
40F
100
AcDbEntity
  8
12
  6
Continuous
 62
   136
370
    18
100
AcDbCircle
 10
449.9999999993101
 20
303.9589879389523
 30
0.0
 40
2.0
100
AcDbArc
 50
0.0
 51
89.99999999999991
  0
LINE
  5
41F
330
40F
100
AcDbEntity
  8
12
  6
Continuous
 62
   136
370
    18
100
AcDbLine
 10
449.9999999993101
 20
305.9589879389522
 30
0.0
 11
444.9999999993111
 21
305.9589879389522
 31
0.0
  0
ARC
  5
420
330
40F
100
AcDbEntity
  8
12
  6
Continuous
 62
   136
370
    18
100
AcDbCircle
 10
460.7999999993103
 20
303.9589879389523
 30
0.0
 40
2.0
100
AcDbArc
 50
89.99999999999991
 51
179.9999999999998
  0
LINE
  5
421
330
40F
100
AcDbEntity
  8
12
  6
Continuous
 62
   136
370
    18
100
AcDbLine
 10
460.7999999948966
 20
305.9589879389522
 30
0.0
 11
465.799999994897
 21
305.9589879389522
 31
0.0
  0
LINE
  5
422
330
40F
100
AcDbEntity
  8
12
  6
Continuous
 62
   136
370
    18
100
AcDbLine
 10
460.3999999971038
 20
313.7589879389516
 30
0.0
 11
450.3999999971043
 21
313.7589879389516
 31
0.0
  0
LINE
  5
423
330
40F
100
AcDbEntity
  8
12
  6
Continuous
 62
   136
370
    18
100
AcDbLine
 10
451.9999999971028
 20
263.7589879389518
 30
0.0
 11
451.9999999993106
 21
303.9589879389523
 31
0.0
  0
LINE
  5
424
330
40F
100
AcDbEntity
  8
12
  6
Continuous
 62
   136
370
    18
100
AcDbLine
 10
458.7999999971053
 20
263.7589879389518
 30
0.0
 11
458.7999999993131
 21
303.9589879389523
 31
0.0
  0
LINE
  5
425
330
40F
100
AcDbEntity
  8
12
  6
Continuous
 62
   136
370
    18
100
AcDbLine
 10
458.7999999971053
 20
263.7589879389518
 30
0.0
 11
451.9999999971028
 21
263.7589879389518
 31
0.0
  0
ENDBLK
  5
411
330
40F
100
AcDbEntity
  8
0
100
AcDbBlockEnd
  0
BLOCK
  5
440
330
43F
100
AcDbEntity
  8
0
100
AcDbBlockBegin
  2
*G45
 70
     1
 71
     0
 10
0.0
 20
0.0
 30
0.0
  3
*G45
  1

  0
LINE
  5
442
330
43F
100
AcDbEntity
  8
12
  6
Continuous
 62
   136
370
    18
100
AcDbLine
 10
756.9935696143386
 20
290.9589434213515
 30
0.0
 11
763.0026016143404
 21
290.9589434213515
 31
0.0
  0
LINE
  5
443
330
43F
100
AcDbEntity
  8
12
  6
Continuous
 62
   136
370
    18
100
AcDbLine
 10
756.9935696143386
 20
283.958943421353
 30
0.0
 11
763.0026256143376
 21
283.958943421353
 31
0.0
  0
ARC
  5
444
330
43F
100
AcDbEntity
  8
12
  6
Continuous
 62
   136
370
    18
100
AcDbCircle
 10
763.0026256143376
 20
284.3589434213526
 30
0.0
 40
0.4000000000000002
100
AcDbArc
 50
269.9999999999998
 51
0.0
  0
ARC
  5
445
330
43F
100
AcDbEntity
  8
12
  6
Continuous
 62
   136
370
    18
100
AcDbCircle
 10
747.8866656143384
 20
287.4586514213527
 30
0.0
 40
15.515912
100
AcDbArc
 50
346.9643300000002
 51
13.03802199999268
  0
ARC
  5
446
330
43F
100
AcDbEntity
  8
12
  6
Continuous
 62
   136
370
    18
100
AcDbCircle
 10
763.0026256143376
 20
297.5589434213537
 30
0.0
 40
0.4000000000000002
100
AcDbArc
 50
0.0
 51
89.99999999999991
  0
ARC
  5
447
330
43F
100
AcDbEntity
  8
12
  6
Continuous
 62
   136
370
    18
100
AcDbCircle
 10
747.8866656143384
 20
294.4592314213522
 30
0.0
 40
15.515912
100
AcDbArc
 50
346.9619780000008
 51
13.03566999999941
  0
LINE
  5
448
330
43F
100
AcDbEntity
  8
12
  6
Continuous
 62
   136
370
    18
100
AcDbLine
 10
756.9935696143386
 20
297.9589434213533
 30
0.0
 11
763.0026256143376
 21
297.9589434213533
 31
0.0
  0
LINE
  5
449
330
43F
100
AcDbEntity
  8
12
  6
Continuous
 62
   136
370
    18
100
AcDbLine
 10
763.4026256143385
 20
284.3589434213526
 30
0.0
 11
763.4026256143385
 21
297.5589434213537
 31
0.0
  0
ENDBLK
  5
441
330
43F
100
AcDbEntity
  8
0
100
AcDbBlockEnd
  0
BLOCK
  5
44C
330
44B
100
AcDbEntity
  8
0
100
AcDbBlockBegin
  2
*G46
 70
     1
 71
     0
 10
0.0
 20
0.0
 30
0.0
  3
*G46
  1

  0
ARC
  5
44E
330
44B
100
AcDbEntity
  8
12
  6
Continuous
 62
   136
370
    18
100
AcDbCircle
 10
736.000000000686
 20
309.7589879389515
 30
0.0
 40
2.0
100
AcDbArc
 50
0.0
 51
89.99999999999991
  0
ARC
  5
44F
330
44B
100
AcDbEntity
  8
12
  6
Continuous
 62
   136
370
    18
100
AcDbCircle
 10
735.0641016180325
 20
313.7589879389516
 30
0.0
 40
2.0
100
AcDbArc
 50
210.000000000016
 51
269.9999999999998
  0
ARC
  5
450
330
44B
100
AcDbEntity
  8
12
  6
Continuous
 62
   136
370
    18
100
AcDbCircle
 10
731.6000000028926
 20
311.7589879389518
 30
0.0
 40
2.0
100
AcDbArc
 50
29.99999999994649
 51
89.99999999999991
  0
LINE
  5
451
330
44B
100
AcDbEntity
  8
12
  6
Continuous
 62
   136
370
    18
100
AcDbLine
 10
736.000000000686
 20
311.7589879389518
 30
0.0
 11
735.0641016180325
 21
311.7589879389518
 31
0.0
  0
ARC
  5
452
330
44B
100
AcDbEntity
  8
12
  6
Continuous
 62
   136
370
    18
100
AcDbCircle
 10
717.2000000051027
 20
309.7589879389515
 30
0.0
 40
2.0
100
AcDbArc
 50
89.99999999999991
 51
179.9999999999998
  0
ARC
  5
453
330
44B
100
AcDbEntity
  8
12
  6
Continuous
 62
   136
370
    18
100
AcDbCircle
 10
718.1358983877562
 20
313.7589879389516
 30
0.0
 40
2.0
100
AcDbArc
 50
269.9999999999998
 51
329.9999999999816
  0
ARC
  5
454
330
44B
100
AcDbEntity
  8
12
  6
Continuous
 62
   136
370
    18
100
AcDbCircle
 10
721.6000000028928
 20
311.7589879389518
 30
0.0
 40
2.0
100
AcDbArc
 50
89.99999999999991
 51
150.0000000000063
  0
LINE
  5
455
330
44B
100
AcDbEntity
  8
12
  6
Continuous
 62
   136
370
    18
100
AcDbLine
 10
717.2000000051027
 20
311.7589879389518
 30
0.0
 11
718.1358983877562
 21
311.7589879389518
 31
0.0
  0
ARC
  5
456
330
44B
100
AcDbEntity
  8
12
  6
Continuous
 62
   136
370
    18
100
AcDbCircle
 10
737.0000000006858
 20
306.9589879389523
 30
0.0
 40
1.0
100
AcDbArc
 50
269.9999999999998
 51
0.0
  0
LINE
  5
457
330
44B
100
AcDbEntity
  8
12
  6
Continuous
 62
   136
370
    18
100
AcDbLine
 10
738.0000000006854
 20
309.7589879389515
 30
0.0
 11
738.0000000006854
 21
306.9589879389523
 31
0.0
  0
ARC
  5
458
330
44B
100
AcDbEntity
  8
12
  6
Continuous
 62
   136
370
    18
100
AcDbCircle
 10
716.2000000050996
 20
306.9589879389523
 30
0.0
 40
1.0
100
AcDbArc
 50
179.9999999999998
 51
269.9999999999998
  0
LINE
  5
459
330
44B
100
AcDbEntity
  8
12
  6
Continuous
 62
   136
370
    18
100
AcDbLine
 10
715.200000005099
 20
309.7589879389515
 30
0.0
 11
715.200000005099
 21
306.9589879389523
 31
0.0
  0
ARC
  5
45A
330
44B
100
AcDbEntity
  8
12
  6
Continuous
 62
   136
370
    18
100
AcDbCircle
 10
732.0000000006854
 20
303.9589879389523
 30
0.0
 40
2.0
100
AcDbArc
 50
89.99999999999991
 51
179.9999999999998
  0
LINE
  5
45B
330
44B
100
AcDbEntity
  8
12
  6
Continuous
 62
   136
370
    18
100
AcDbLine
 10
732.0000000006854
 20
305.9589879389522
 30
0.0
 11
737.0000000006858
 21
305.9589879389522
 31
0.0
  0
ARC
  5
45C
330
44B
100
AcDbEntity
  8
12
  6
Continuous
 62
   136
370
    18
100
AcDbCircle
 10
721.2000000006865
 20
303.9589879389523
 30
0.0
 40
2.0
100
AcDbArc
 50
0.0
 51
89.99999999999991
  0
LINE
  5
45D
330
44B
100
AcDbEntity
  8
12
  6
Continuous
 62
   136
370
    18
100
AcDbLine
 10
721.2000000051032
 20
305.9589879389522
 30
0.0
 11
716.2000000050996
 21
305.9589879389522
 31
0.0
  0
LINE
  5
45E
330
44B
100
AcDbEntity
  8
12
  6
Continuous
 62
   136
370
    18
100
AcDbLine
 10
721.6000000028928
 20
313.7589879389516
 30
0.0
 11
731.6000000028926
 21
313.7589879389516
 31
0.0
  0
LINE
  5
45F
330
44B
100
AcDbEntity
  8
12
  6
Continuous
 62
   136
370
    18
100
AcDbLine
 10
730.000000002894
 20
263.7589879389518
 30
0.0
 11
730.000000000686
 21
303.9589879389523
 31
0.0
  0
LINE
  5
460
330
44B
100
AcDbEntity
  8
12
  6
Continuous
 62
   136
370
    18
100
AcDbLine
 10
723.2000000028947
 20
263.7589879389518
 30
0.0
 11
723.2000000006867
 21
303.9589879389523
 31
0.0
  0
LINE
  5
461
330
44B
100
AcDbEntity
  8
12
  6
Continuous
 62
   136
370
    18
100
AcDbLine
 10
723.2000000028947
 20
263.7589879389518
 30
0.0
 11
730.000000002894
 21
263.7589879389518
 31
0.0
  0
ENDBLK
  5
44D
330
44B
100
AcDbEntity
  8
0
100
AcDbBlockEnd
  0
BLOCK
  5
47F
330
47E
100
AcDbEntity
  8
0
100
AcDbBlockBegin
  2
*G47
 70
     1
 71
     0
 10
0.0
 20
0.0
 30
0.0
  3
*G47
  1

  0
INSERT
  5
48D
330
47E
100
AcDbEntity
  8
0
100
AcDbBlockReference
  2
*G48
 10
0.0
 20
0.0
 30
0.0
  0
ENDBLK
  5
480
330
47E
100
AcDbEntity
  8
0
100
AcDbBlockEnd
  0
BLOCK
  5
482
330
481
100
AcDbEntity
  8
0
100
AcDbBlockBegin
  2
*G48
 70
     1
 71
     0
 10
0.0
 20
0.0
 30
0.0
  3
*G48
  1

  0
LINE
  5
484
330
481
100
AcDbEntity
  8
11
  6
Continuous
 62
    16
370
     9
100
AcDbLine
 10
768.3947809663819
 20
204.8062341593816
 30
0.0
 11
840.9999877697223
 21
277.4114409627219
 31
0.0
  0
LINE
  5
485
330
481
100
AcDbEntity
  8
11
  6
Continuous
 62
    16
370
     9
100
AcDbLine
 10
362.8956434785989
 20
181.1447585123344
 30
0.0
 11
412.950071314069
 21
231.1991863478045
 31
0.0
  0
LINE
  5
486
330
481
100
AcDbEntity
  8
11
  6
Continuous
 62
    16
370
     9
100
AcDbLine
 10
341.0000122189522
 20
286.5283478662664
 30
0.0
 11
364.2306077740379
 21
309.7589434213519
 31
0.0
  0
LINE
  5
487
330
481
100
AcDbEntity
  8
11
  6
Continuous
 62
    16
370
     9
100
AcDbLine
 10
768.6107712478213
 20
213.5075058150595
 30
0.0
 11
840.9999877726932
 21
285.8967223399314
 31
0.0
  0
LINE
  5
488
330
481
100
AcDbEntity
  8
11
  6
Continuous
 62
    16
370
     9
100
AcDbLine
 10
354.4103621043603
 20
181.1447585123344
 30
0.0
 11
412.7445442554831
 21
239.4789406634573
 31
0.0
  0
LINE
  5
489
330
481
100
AcDbEntity
  8
11
  6
Continuous
 62
    16
370
     9
100
AcDbLine
 10
341.0000122189522
 20
295.013629240505
 30
0.0
 11
355.7453263997993
 21
309.7589434213519
 31
0.0
  0
LINE
  5
48A
330
481
100
AcDbEntity
  8
11
  6
Continuous
 62
    16
370
     9
100
AcDbLine
 10
768.1787906849427
 20
196.1049625037035
 30
0.0
 11
840.9999877667517
 21
268.9261595855126
 31
0.0
  0
LINE
  5
48B
330
481
100
AcDbEntity
  8
11
  6
Continuous
 62
    16
370
     9
100
AcDbLine
 10
371.3809248528376
 20
181.1447585123344
 30
0.0
 11
413.155598372655
 21
222.9194320321519
 31
0.0
  0
LINE
  5
48C
330
481
100
AcDbEntity
  8
11
  6
Continuous
 62
    16
370
     9
100
AcDbLine
 10
341.0000122189522
 20
278.0430664920277
 30
0.0
 11
372.7158891482766
 21
309.7589434213519
 31
0.0
  0
ENDBLK
  5
483
330
481
100
AcDbEntity
  8
0
100
AcDbBlockEnd
  0
BLOCK
  5
4A2
330
4A1
100
AcDbEntity
  8
0
100
AcDbBlockBegin
  2
Dim9
 70
     0
 71
     0
 10
0.0
 20
0.0
 30
0.0
  3
Dim9
  1

  0
LINE
  5
4A4
330
4A1
100
AcDbEntity
  8
14
  6
Continuous
 62
     7
370
     9
100
AcDbLine
 10
371.9999263856607
 20
443.7589879389519
 30
0.0
 11
810.00007361434
 21
443.7589879389519
 31
0.0
  0
LINE
  5
4A5
330
4A1
100
AcDbEntity
  8
14
  6
Continuous
 62
     7
370
     9
100
AcDbLine
 10
371.9999263856607
 20
449.7589879389519
 30
0.0
 11
371.9999263856603
 21
325.1589434213515
 31
0.0
  0
LINE
  5
4A6
330
4A1
100
AcDbEntity
  8
14
  6
Continuous
 62
     7
370
     9
100
AcDbLine
 10
810.00007361434
 20
449.7589879389519
 30
0.0
 11
810.0000736143395
 21
325.1589434213515
 31
0.0
  0
LINE
  5
4A7
330
4A1
100
AcDbEntity
  8
14
  6
Continuous
 62
     7
370
     9
100
AcDbLine
 10
371.9999263856607
 20
443.7589879389519
 30
0.0
 11
383.5910363011295
 21
446.8648164801821
 31
0.0
  0
LINE
  5
4A8
330
4A1
100
AcDbEntity
  8
14
  6
Continuous
 62
     7
370
     9
100
AcDbLine
 10
371.9999263856607
 20
443.7589879389519
 30
0.0
 11
383.5910363011295
 21
440.6531593977216
 31
0.0
  0
LINE
  5
4A9
330
4A1
100
AcDbEntity
  8
14
  6
Continuous
 62
     7
370
     9
100
AcDbLine
 10
810.00007361434
 20
443.7589879389519
 30
0.0
 11
798.4089636988712
 21
440.6531593977217
 31
0.0
  0
LINE
  5
4AA
330
4A1
100
AcDbEntity
  8
14
  6
Continuous
 62
     7
370
     9
100
AcDbLine
 10
810.00007361434
 20
443.7589879389519
 30
0.0
 11
798.4089636988712
 21
446.8648164801821
 31
0.0
  0
MTEXT
  5
4AB
330
4A1
100
AcDbEntity
  8
14
  6
Continuous
 62
     7
370
     9
100
AcDbMText
 10
591.0000000000003
 20
452.7589879389519
 30
0.0
 40
18.0
 41
0.0
 71
     8
 72
     1
  1
219
 73
     1
 44
1.0
  0
ENDBLK
  5
4A3
330
4A1
100
AcDbEntity
  8
0
100
AcDbBlockEnd
  0
BLOCK
  5
4AE
330
4AD
100
AcDbEntity
  8
0
100
AcDbBlockBegin
  2
Dim10
 70
     0
 71
     0
 10
0.0
 20
0.0
 30
0.0
  3
Dim10
  1

  0
LINE
  5
4B0
330
4AD
100
AcDbEntity
  8
14
  6
Continuous
 62
     7
370
     9
100
AcDbLine
 10
371.9999263856605
 20
401.7589879389519
 30
0.0
 11
431.9999263856605
 21
401.7589879389519
 31
0.0
  0
LINE
  5
4B1
330
4AD
100
AcDbEntity
  8
14
  6
Continuous
 62
     7
370
     9
100
AcDbLine
 10
431.9999263856605
 20
407.7589879389519
 30
0.0
 11
431.9999263856603
 21
321.7589434213513
 31
0.0
  0
LINE
  5
4B2
330
4AD
100
AcDbEntity
  8
14
  6
Continuous
 62
     7
370
     9
100
AcDbLine
 10
371.9999263856605
 20
401.7589879389519
 30
0.0
 11
383.5910363011293
 21
404.8648164801821
 31
0.0
  0
LINE
  5
4B3
330
4AD
100
AcDbEntity
  8
14
  6
Continuous
 62
     7
370
     9
100
AcDbLine
 10
371.9999263856605
 20
401.7589879389519
 30
0.0
 11
383.5910363011293
 21
398.6531593977216
 31
0.0
  0
LINE
  5
4B4
330
4AD
100
AcDbEntity
  8
14
  6
Continuous
 62
     7
370
     9
100
AcDbLine
 10
431.9999263856605
 20
401.7589879389519
 30
0.0
 11
420.4088164701917
 21
398.6531593977217
 31
0.0
  0
LINE
  5
4B5
330
4AD
100
AcDbEntity
  8
14
  6
Continuous
 62
     7
370
     9
100
AcDbLine
 10
431.9999263856605
 20
401.7589879389519
 30
0.0
 11
420.4088164701917
 21
404.8648164801821
 31
0.0
  0
MTEXT
  5
4B6
330
4AD
100
AcDbEntity
  8
14
  6
Continuous
 62
     7
370
     9
100
AcDbMText
 10
401.9999263856605
 20
410.7589879389519
 30
0.0
 40
18.0
 41
0.0
 71
     8
 72
     1
  1
30
 73
     1
 44
1.0
  0
ENDBLK
  5
4AF
330
4AD
100
AcDbEntity
  8
0
100
AcDbBlockEnd
  0
BLOCK
  5
4B9
330
4B8
100
AcDbEntity
  8
0
100
AcDbBlockBegin
  2
Dim11
 70
     0
 71
     0
 10
0.0
 20
0.0
 30
0.0
  3
Dim11
  1

  0
LINE
  5
4BB
330
4B8
100
AcDbEntity
  8
14
  6
Continuous
 62
     7
370
     9
100
AcDbLine
 10
431.9999263856605
 20
401.7589879389519
 30
0.0
 11
750.0000736143396
 21
401.7589879389519
 31
0.0
  0
LINE
  5
4BC
330
4B8
100
AcDbEntity
  8
14
  6
Continuous
 62
     7
370
     9
100
AcDbLine
 10
750.0000736143396
 20
407.7589879389519
 30
0.0
 11
750.0000736143395
 21
321.7589434213513
 31
0.0
  0
LINE
  5
4BD
330
4B8
100
AcDbEntity
  8
14
  6
Continuous
 62
     7
370
     9
100
AcDbLine
 10
431.9999263856605
 20
401.7589879389519
 30
0.0
 11
443.5910363011293
 21
404.8648164801821
 31
0.0
  0
LINE
  5
4BE
330
4B8
100
AcDbEntity
  8
14
  6
Continuous
 62
     7
370
     9
100
AcDbLine
 10
431.9999263856605
 20
401.7589879389519
 30
0.0
 11
443.5910363011293
 21
398.6531593977216
 31
0.0
  0
LINE
  5
4BF
330
4B8
100
AcDbEntity
  8
14
  6
Continuous
 62
     7
370
     9
100
AcDbLine
 10
750.0000736143396
 20
401.7589879389519
 30
0.0
 11
738.4089636988708
 21
398.6531593977217
 31
0.0
  0
LINE
  5
4C0
330
4B8
100
AcDbEntity
  8
14
  6
Continuous
 62
     7
370
     9
100
AcDbLine
 10
750.0000736143396
 20
401.7589879389519
 30
0.0
 11
738.4089636988708
 21
404.8648164801821
 31
0.0
  0
MTEXT
  5
4C1
330
4B8
100
AcDbEntity
  8
14
  6
Continuous
 62
     7
370
     9
100
AcDbMText
 10
591.0000000000001
 20
410.7589879389519
 30
0.0
 40
18.0
 41
0.0
 71
     8
 72
     1
  1
159
 73
     1
 44
1.0
  0
ENDBLK
  5
4BA
330
4B8
100
AcDbEntity
  8
0
100
AcDbBlockEnd
  0
BLOCK
  5
4C4
330
4C3
100
AcDbEntity
  8
0
100
AcDbBlockBegin
  2
Dim12
 70
     0
 71
     0
 10
0.0
 20
0.0
 30
0.0
  3
Dim12
  1

  0
LINE
  5
4C6
330
4C3
100
AcDbEntity
  8
14
  6
Continuous
 62
     7
370
     9
100
AcDbLine
 10
750.0000736143396
 20
401.7589879389519
 30
0.0
 11
810.0000736143396
 21
401.7589879389519
 31
0.0
  0
LINE
  5
4C7
330
4C3
100
AcDbEntity
  8
14
  6
Continuous
 62
     7
370
     9
100
AcDbLine
 10
750.0000736143396
 20
401.7589879389519
 30
0.0
 11
761.5911835298084
 21
404.8648164801821
 31
0.0
  0
LINE
  5
4C8
330
4C3
100
AcDbEntity
  8
14
  6
Continuous
 62
     7
370
     9
100
AcDbLine
 10
750.0000736143396
 20
401.7589879389519
 30
0.0
 11
761.5911835298084
 21
398.6531593977216
 31
0.0
  0
LINE
  5
4C9
330
4C3
100
AcDbEntity
  8
14
  6
Continuous
 62
     7
370
     9
100
AcDbLine
 10
810.0000736143396
 20
401.7589879389519
 30
0.0
 11
798.4089636988708
 21
398.6531593977217
 31
0.0
  0
LINE
  5
4CA
330
4C3
100
AcDbEntity
  8
14
  6
Continuous
 62
     7
370
     9
100
AcDbLine
 10
810.0000736143396
 20
401.7589879389519
 30
0.0
 11
798.4089636988708
 21
404.8648164801821
 31
0.0
  0
MTEXT
  5
4CB
330
4C3
100
AcDbEntity
  8
14
  6
Continuous
 62
     7
370
     9
100
AcDbMText
 10
780.0000736143396
 20
410.7589879389519
 30
0.0
 40
18.0
 41
0.0
 71
     8
 72
     1
  1
30
 73
     1
 44
1.0
  0
ENDBLK
  5
4C5
330
4C3
100
AcDbEntity
  8
0
100
AcDbBlockEnd
  0
BLOCK
  5
4CE
330
4CD
100
AcDbEntity
  8
0
100
AcDbBlockBegin
  2
Dim13
 70
     0
 71
     0
 10
0.0
 20
0.0
 30
0.0
  3
Dim13
  1

  0
LINE
  5
4D0
330
4CD
100
AcDbEntity
  8
14
  6
Continuous
 62
     7
370
     9
100
AcDbLine
 10
416.9999263747748
 20
200.1052272623301
 30
0.0
 11
765.0000736143384
 21
200.1052272623301
 31
0.0
  0
LINE
  5
4D1
330
4CD
100
AcDbEntity
  8
14
  6
Continuous
 62
     7
370
     9
100
AcDbLine
 10
416.9999263747746
 20
194.1052272623301
 30
0.0
 11
416.9999263747757
 21
258.2589434213542
 31
0.0
  0
LINE
  5
4D2
330
4CD
100
AcDbEntity
  8
14
  6
Continuous
 62
     7
370
     9
100
AcDbLine
 10
765.0000736143382
 20
194.1052272623301
 30
0.0
 11
765.0000736143393
 21
258.2589434213542
 31
0.0
  0
LINE
  5
4D3
330
4CD
100
AcDbEntity
  8
14
  6
Continuous
 62
     7
370
     9
100
AcDbLine
 10
416.9999263747748
 20
200.1052272623301
 30
0.0
 11
428.5910362902436
 21
203.2110558035604
 31
0.0
  0
LINE
  5
4D4
330
4CD
100
AcDbEntity
  8
14
  6
Continuous
 62
     7
370
     9
100
AcDbLine
 10
416.9999263747748
 20
200.1052272623301
 30
0.0
 11
428.5910362902436
 21
196.9993987210999
 31
0.0
  0
LINE
  5
4D5
330
4CD
100
AcDbEntity
  8
14
  6
Continuous
 62
     7
370
     9
100
AcDbLine
 10
765.0000736143384
 20
200.1052272623301
 30
0.0
 11
753.4089636988696
 21
196.9993987210999
 31
0.0
  0
LINE
  5
4D6
330
4CD
100
AcDbEntity
  8
14
  6
Continuous
 62
     7
370
     9
100
AcDbLine
 10
765.0000736143384
 20
200.1052272623301
 30
0.0
 11
753.4089636988696
 21
203.2110558035604
 31
0.0
  0
MTEXT
  5
4D7
330
4CD
100
AcDbEntity
  8
14
  6
Continuous
 62
     7
370
     9
100
AcDbMText
 10
590.9999999945566
 20
209.1052272623301
 30
0.0
 40
18.0
 41
0.0
 71
     8
 72
     1
  1
174
 73
     1
 44
1.0
  0
ENDBLK
  5
4CF
330
4CD
100
AcDbEntity
  8
0
100
AcDbBlockEnd
  0
BLOCK
  5
4DA
330
4D9
100
AcDbEntity
  8
0
100
AcDbBlockBegin
  2
Dim14
 70
     0
 71
     0
 10
0.0
 20
0.0
 30
0.0
  3
Dim14
  1

  0
LINE
  5
4DC
330
4D9
100
AcDbEntity
  8
14
  6
Continuous
 62
     7
370
     9
100
AcDbLine
 10
418.9678776111927
 20
359.7589879389519
 30
0.0
 11
511.599999996667
 21
359.7589879389519
 31
0.0
  0
LINE
  5
4DD
330
4D9
100
AcDbEntity
  8
14
  6
Continuous
 62
     7
370
     9
100
AcDbLine
 10
500.3999999956213
 20
365.7589879389519
 30
0.0
 11
500.3999999956213
 21
320.7589879389516
 31
0.0
  0
LINE
  5
4DE
330
4D9
100
AcDbEntity
  8
14
  6
Continuous
 62
     7
370
     9
100
AcDbLine
 10
511.599999996667
 20
365.7589879389519
 30
0.0
 11
511.5999999966669
 21
320.7589879389516
 31
0.0
  0
LINE
  5
4DF
330
4D9
100
AcDbEntity
  8
14
  6
Continuous
 62
     7
370
     9
100
AcDbLine
 10
500.3999999956213
 20
359.7589879389519
 30
0.0
 11
488.8088900801525
 21
356.6531593977217
 31
0.0
  0
LINE
  5
4E0
330
4D9
100
AcDbEntity
  8
14
  6
Continuous
 62
     7
370
     9
100
AcDbLine
 10
500.3999999956213
 20
359.7589879389519
 30
0.0
 11
488.8088900801525
 21
362.8648164801821
 31
0.0
  0
LINE
  5
4E1
330
4D9
100
AcDbEntity
  8
14
  6
Continuous
 62
     7
370
     9
100
AcDbLine
 10
511.599999996667
 20
359.7589879389519
 30
0.0
 11
523.1911099121357
 21
362.8648164801821
 31
0.0
  0
LINE
  5
4E2
330
4D9
100
AcDbEntity
  8
14
  6
Continuous
 62
     7
370
     9
100
AcDbLine
 10
511.599999996667
 20
359.7589879389519
 30
0.0
 11
523.1911099121357
 21
356.6531593977216
 31
0.0
  0
MTEXT
  5
4E3
330
4D9
100
AcDbEntity
  8
14
  6
Continuous
 62
     7
370
     9
100
AcDbMText
 10
459.4678776111928
 20
350.7589879389519
 30
0.0
 40
18.0
 41
0.0
 71
     8
 72
     1
  1
（6以下）
 73
     1
 44
1.0
  0
ENDBLK
  5
4DB
330
4D9
100
AcDbEntity
  8
0
100
AcDbBlockEnd
  0
BLOCK
  5
4E6
330
4E5
100
AcDbEntity
  8
0
100
AcDbBlockBegin
  2
Dim15
 70
     0
 71
     0
 10
0.0
 20
0.0
 30
0.0
  3
Dim15
  1

  0
LINE
  5
4E8
330
4E5
100
AcDbEntity
  8
14
  6
Continuous
 62
     7
370
     9
100
AcDbLine
 10
511.599999996667
 20
359.7589879389519
 30
0.0
 11
534.3999999922534
 21
359.7589879389519
 31
0.0
  0
LINE
  5
4E9
330
4E5
100
AcDbEntity
  8
14
  6
Continuous
 62
     7
370
     9
100
AcDbLine
 10
534.3999999922534
 20
365.7589879389519
 30
0.0
 11
534.3999999922532
 21
320.7589879389516
 31
0.0
  0
LINE
  5
4EA
330
4E5
100
AcDbEntity
  8
14
  6
Continuous
 62
     7
370
     9
100
AcDbLine
 10
511.599999996667
 20
359.7589879389519
 30
0.0
 11
523.1911099121357
 21
362.8648164801821
 31
0.0
  0
LINE
  5
4EB
330
4E5
100
AcDbEntity
  8
14
  6
Continuous
 62
     7
370
     9
100
AcDbLine
 10
511.599999996667
 20
359.7589879389519
 30
0.0
 11
523.1911099121357
 21
356.6531593977216
 31
0.0
  0
LINE
  5
4EC
330
4E5
100
AcDbEntity
  8
14
  6
Continuous
 62
     7
370
     9
100
AcDbLine
 10
534.3999999922534
 20
359.7589879389519
 30
0.0
 11
522.8088900767846
 21
356.6531593977217
 31
0.0
  0
LINE
  5
4ED
330
4E5
100
AcDbEntity
  8
14
  6
Continuous
 62
     7
370
     9
100
AcDbLine
 10
534.3999999922534
 20
359.7589879389519
 30
0.0
 11
522.8088900767846
 21
362.8648164801821
 31
0.0
  0
MTEXT
  5
4EE
330
4E5
100
AcDbEntity
  8
14
  6
Continuous
 62
     7
370
     9
100
AcDbMText
 10
522.9999999944602
 20
368.7589879389519
 30
0.0
 40
18.0
 41
0.0
 71
     8
 72
     1
  1
11.4
 73
     1
 44
1.0
  0
ENDBLK
  5
4E7
330
4E5
100
AcDbEntity
  8
0
100
AcDbBlockEnd
  0
BLOCK
  5
4F1
330
4F0
100
AcDbEntity
  8
0
100
AcDbBlockBegin
  2
Dim16
 70
     0
 71
     0
 10
0.0
 20
0.0
 30
0.0
  3
Dim16
  1

  0
LINE
  5
4F3
330
4F0
100
AcDbEntity
  8
14
  6
Continuous
 62
     7
370
     9
100
AcDbLine
 10
554.6358234837544
 20
359.7589879389519
 30
0.0
 11
659.0000000008943
 21
359.7589879389519
 31
0.0
  0
LINE
  5
4F4
330
4F0
100
AcDbEntity
  8
14
  6
Continuous
 62
     7
370
     9
100
AcDbLine
 10
624.9999999996182
 20
365.7589879389519
 30
0.0
 11
624.9999999996181
 21
325.7589879389516
 31
0.0
  0
LINE
  5
4F5
330
4F0
100
AcDbEntity
  8
14
  6
Continuous
 62
     7
370
     9
100
AcDbLine
 10
659.0000000008943
 20
365.7589879389519
 30
0.0
 11
659.0000000008941
 21
325.7589879389516
 31
0.0
  0
LINE
  5
4F6
330
4F0
100
AcDbEntity
  8
14
  6
Continuous
 62
     7
370
     9
100
AcDbLine
 10
624.9999999996182
 20
359.7589879389519
 30
0.0
 11
636.591109915087
 21
362.8648164801821
 31
0.0
  0
LINE
  5
4F7
330
4F0
100
AcDbEntity
  8
14
  6
Continuous
 62
     7
370
     9
100
AcDbLine
 10
624.9999999996182
 20
359.7589879389519
 30
0.0
 11
636.591109915087
 21
356.6531593977216
 31
0.0
  0
LINE
  5
4F8
330
4F0
100
AcDbEntity
  8
14
  6
Continuous
 62
     7
370
     9
100
AcDbLine
 10
659.0000000008943
 20
359.7589879389519
 30
0.0
 11
647.4088900854255
 21
356.6531593977217
 31
0.0
  0
LINE
  5
4F9
330
4F0
100
AcDbEntity
  8
14
  6
Continuous
 62
     7
370
     9
100
AcDbLine
 10
659.0000000008943
 20
359.7589879389519
 30
0.0
 11
647.4088900854255
 21
362.8648164801821
 31
0.0
  0
MTEXT
  5
4FA
330
4F0
100
AcDbEntity
  8
14
  6
Continuous
 62
     7
370
     9
100
AcDbMText
 10
608.6358234837543
 20
350.7589879389519
 30
0.0
 40
18.0
 41
0.0
 71
     8
 72
     1
  1
（17.4以下）
 73
     1
 44
1.0
  0
ENDBLK
  5
4F2
330
4F0
100
AcDbEntity
  8
0
100
AcDbBlockEnd
  0
BLOCK
  5
4FD
330
4FC
100
AcDbEntity
  8
0
100
AcDbBlockBegin
  2
Dim17
 70
     0
 71
     0
 10
0.0
 20
0.0
 30
0.0
  3
Dim17
  1

  0
LINE
  5
4FF
330
4FC
100
AcDbEntity
  8
14
  6
Continuous
 62
     7
370
     9
100
AcDbLine
 10
659.0000000008943
 20
359.7589879389519
 30
0.0
 11
756.1512584697225
 21
359.7589879389519
 31
0.0
  0
LINE
  5
500
330
4FC
100
AcDbEntity
  8
14
  6
Continuous
 62
     7
370
     9
100
AcDbLine
 10
693.0000000016178
 20
365.7589879389519
 30
0.0
 11
693.0000000016177
 21
325.7589879389516
 31
0.0
  0
LINE
  5
501
330
4FC
100
AcDbEntity
  8
14
  6
Continuous
 62
     7
370
     9
100
AcDbLine
 10
659.0000000008943
 20
359.7589879389519
 30
0.0
 11
670.591109916363
 21
362.8648164801821
 31
0.0
  0
LINE
  5
502
330
4FC
100
AcDbEntity
  8
14
  6
Continuous
 62
     7
370
     9
100
AcDbLine
 10
659.0000000008943
 20
359.7589879389519
 30
0.0
 11
670.591109916363
 21
356.6531593977216
 31
0.0
  0
LINE
  5
503
330
4FC
100
AcDbEntity
  8
14
  6
Continuous
 62
     7
370
     9
100
AcDbLine
 10
693.0000000016178
 20
359.7589879389519
 30
0.0
 11
681.408890086149
 21
356.6531593977217
 31
0.0
  0
LINE
  5
504
330
4FC
100
AcDbEntity
  8
14
  6
Continuous
 62
     7
370
     9
100
AcDbLine
 10
693.0000000016178
 20
359.7589879389519
 30
0.0
 11
681.408890086149
 21
362.8648164801821
 31
0.0
  0
MTEXT
  5
505
330
4FC
100
AcDbEntity
  8
14
  6
Continuous
 62
     7
370
     9
100
AcDbMText
 10
702.1512584697224
 20
368.7589879389519
 30
0.0
 40
18.0
 41
0.0
 71
     8
 72
     1
  1
（17.4以下）
 73
     1
 44
1.0
  0
ENDBLK
  5
4FE
330
4FC
100
AcDbEntity
  8
0
100
AcDbBlockEnd
  0
BLOCK
  5
50D
330
50C
100
AcDbEntity
  8
0
100
AcDbBlockBegin
  2
Dim18
 70
     0
 71
     0
 10
0.0
 20
0.0
 30
0.0
  3
Dim18
  1

  0
LINE
  5
50F
330
50C
100
AcDbEntity
  8
6
  6
Continuous
 62
     7
370
     9
100
AcDbLine
 10
392.0235484936843
 20
1090.274952773929
 30
0.0
 11
1391.023548493684
 21
1090.274952773929
 31
0.0
  0
LINE
  5
510
330
50C
100
AcDbEntity
  8
6
  6
Continuous
 62
     7
370
     9
100
AcDbLine
 10
392.0235484936843
 20
1096.274952773929
 30
0.0
 11
392.0235484936839
 21
990.274952773929
 31
0.0
  0
LINE
  5
511
330
50C
100
AcDbEntity
  8
6
  6
Continuous
 62
     7
370
     9
100
AcDbLine
 10
1391.023548493684
 20
1096.274952773929
 30
0.0
 11
1391.023548493684
 21
990.274952773929
 31
0.0
  0
LINE
  5
512
330
50C
100
AcDbEntity
  8
6
  6
Continuous
 62
     7
370
     9
100
AcDbLine
 10
392.0235484936843
 20
1090.274952773929
 30
0.0
 11
403.6146584091531
 21
1093.380781315159
 31
0.0
  0
LINE
  5
513
330
50C
100
AcDbEntity
  8
6
  6
Continuous
 62
     7
370
     9
100
AcDbLine
 10
392.0235484936843
 20
1090.274952773929
 30
0.0
 11
403.6146584091531
 21
1087.169124232699
 31
0.0
  0
LINE
  5
514
330
50C
100
AcDbEntity
  8
6
  6
Continuous
 62
     7
370
     9
100
AcDbLine
 10
1391.023548493684
 20
1090.274952773929
 30
0.0
 11
1379.432438578215
 21
1087.169124232699
 31
0.0
  0
LINE
  5
515
330
50C
100
AcDbEntity
  8
6
  6
Continuous
 62
     7
370
     9
100
AcDbLine
 10
1391.023548493684
 20
1090.274952773929
 30
0.0
 11
1379.432438578215
 21
1093.380781315159
 31
0.0
  0
MTEXT
  5
516
330
50C
100
AcDbEntity
  8
6
  6
Continuous
 62
     7
370
     9
100
AcDbMText
 10
891.5235484936844
 20
1099.274952773929
 30
0.0
 40
18.0
 41
0.0
 71
     8
 72
     1
  1
999
 73
     1
 44
1.0
  0
ENDBLK
  5
50E
330
50C
100
AcDbEntity
  8
0
100
AcDbBlockEnd
  0
BLOCK
  5
519
330
518
100
AcDbEntity
  8
0
100
AcDbBlockBegin
  2
Dim19
 70
     0
 71
     0
 10
0.0
 20
0.0
 30
0.0
  3
Dim19
  1

  0
LINE
  5
51B
330
518
100
AcDbEntity
  8
6
  6
Continuous
 62
     7
370
     9
100
AcDbLine
 10
362.0235484936842
 20
1048.274952773929
 30
0.0
 11
393.5235484936843
 21
1048.274952773929
 31
0.0
  0
LINE
  5
51C
330
518
100
AcDbEntity
  8
6
  6
Continuous
 62
     7
370
     9
100
AcDbLine
 10
393.5235484936844
 20
1054.274952773929
 30
0.0
 11
393.5235484936839
 21
970.274952773929
 31
0.0
  0
LINE
  5
51D
330
518
100
AcDbEntity
  8
6
  6
Continuous
 62
     7
370
     9
100
AcDbLine
 10
392.0235484936842
 20
1048.274952773929
 30
0.0
 11
380.4324385782154
 21
1045.169124232699
 31
0.0
  0
LINE
  5
51E
330
518
100
AcDbEntity
  8
6
  6
Continuous
 62
     7
370
     9
100
AcDbLine
 10
392.0235484936842
 20
1048.274952773929
 30
0.0
 11
380.4324385782155
 21
1051.380781315159
 31
0.0
  0
LINE
  5
51F
330
518
100
AcDbEntity
  8
6
  6
Continuous
 62
     7
370
     9
100
AcDbLine
 10
393.5235484936843
 20
1048.274952773929
 30
0.0
 11
405.1146584091531
 21
1051.380781315159
 31
0.0
  0
LINE
  5
520
330
518
100
AcDbEntity
  8
6
  6
Continuous
 62
     7
370
     9
100
AcDbLine
 10
393.5235484936843
 20
1048.274952773929
 30
0.0
 11
405.1146584091531
 21
1045.169124232699
 31
0.0
  0
MTEXT
  5
521
330
518
100
AcDbEntity
  8
6
  6
Continuous
 62
     7
370
     9
100
AcDbMText
 10
378.5090997942061
 20
1057.274952773929
 30
0.0
 40
18.0
 41
0.0
 71
     8
 72
     1
  1
1.5
 73
     1
 44
1.0
  0
ENDBLK
  5
51A
330
518
100
AcDbEntity
  8
0
100
AcDbBlockEnd
  0
BLOCK
  5
524
330
523
100
AcDbEntity
  8
0
100
AcDbBlockBegin
  2
Dim20
 70
     0
 71
     0
 10
0.0
 20
0.0
 30
0.0
  3
Dim20
  1

  0
LINE
  5
526
330
523
100
AcDbEntity
  8
6
  6
Continuous
 62
     7
370
     9
100
AcDbLine
 10
393.5235484936843
 20
1048.274952773929
 30
0.0
 11
1389.523548493684
 21
1048.274952773929
 31
0.0
  0
LINE
  5
527
330
523
100
AcDbEntity
  8
6
  6
Continuous
 62
     7
370
     9
100
AcDbLine
 10
1389.523548493684
 20
1054.274952773929
 30
0.0
 11
1389.523548493684
 21
970.274952773929
 31
0.0
  0
LINE
  5
528
330
523
100
AcDbEntity
  8
6
  6
Continuous
 62
     7
370
     9
100
AcDbLine
 10
393.5235484936843
 20
1048.274952773929
 30
0.0
 11
381.9324385782155
 21
1045.169124232699
 31
0.0
  0
LINE
  5
529
330
523
100
AcDbEntity
  8
6
  6
Continuous
 62
     7
370
     9
100
AcDbLine
 10
393.5235484936843
 20
1048.274952773929
 30
0.0
 11
381.9324385782155
 21
1051.380781315159
 31
0.0
  0
LINE
  5
52A
330
523
100
AcDbEntity
  8
6
  6
Continuous
 62
     7
370
     9
100
AcDbLine
 10
1389.523548493684
 20
1048.274952773929
 30
0.0
 11
1401.114658409153
 21
1051.380781315159
 31
0.0
  0
LINE
  5
52B
330
523
100
AcDbEntity
  8
6
  6
Continuous
 62
     7
370
     9
100
AcDbLine
 10
1389.523548493684
 20
1048.274952773929
 30
0.0
 11
1401.114658409153
 21
1045.169124232699
 31
0.0
  0
MTEXT
  5
52C
330
523
100
AcDbEntity
  8
6
  6
Continuous
 62
     7
370
     9
100
AcDbMText
 10
891.523548493684
 20
1057.274952773929
 30
0.0
 40
18.0
 41
0.0
 71
     8
 72
     1
  1
996
 73
     1
 44
1.0
  0
ENDBLK
  5
525
330
523
100
AcDbEntity
  8
0
100
AcDbBlockEnd
  0
BLOCK
  5
52F
330
52E
100
AcDbEntity
  8
0
100
AcDbBlockBegin
  2
Dim21
 70
     0
 71
     0
 10
0.0
 20
0.0
 30
0.0
  3
Dim21
  1

  0
LINE
  5
531
330
52E
100
AcDbEntity
  8
6
  6
Continuous
 62
     7
370
     9
100
AcDbLine
 10
1389.523548493684
 20
1048.274952773929
 30
0.0
 11
1421.023548493684
 21
1048.274952773929
 31
0.0
  0
LINE
  5
532
330
52E
100
AcDbEntity
  8
6
  6
Continuous
 62
     7
370
     9
100
AcDbLine
 10
1389.523548493684
 20
1048.274952773929
 30
0.0
 11
1377.932438578215
 21
1045.169124232699
 31
0.0
  0
LINE
  5
533
330
52E
100
AcDbEntity
  8
6
  6
Continuous
 62
     7
370
     9
100
AcDbLine
 10
1389.523548493684
 20
1048.274952773929
 30
0.0
 11
1377.932438578215
 21
1051.380781315159
 31
0.0
  0
LINE
  5
534
330
52E
100
AcDbEntity
  8
6
  6
Continuous
 62
     7
370
     9
100
AcDbLine
 10
1391.023548493684
 20
1048.274952773929
 30
0.0
 11
1402.614658409153
 21
1051.380781315159
 31
0.0
  0
LINE
  5
535
330
52E
100
AcDbEntity
  8
6
  6
Continuous
 62
     7
370
     9
100
AcDbLine
 10
1391.023548493684
 20
1048.274952773929
 30
0.0
 11
1402.614658409153
 21
1045.169124232699
 31
0.0
  0
MTEXT
  5
536
330
52E
100
AcDbEntity
  8
6
  6
Continuous
 62
     7
370
     9
100
AcDbMText
 10
1405.009099794228
 20
1057.274952773929
 30
0.0
 40
18.0
 41
0.0
 71
     8
 72
     1
  1
1.5
 73
     1
 44
1.0
  0
ENDBLK
  5
530
330
52E
100
AcDbEntity
  8
0
100
AcDbBlockEnd
  0
BLOCK
  5
539
330
538
100
AcDbEntity
  8
0
100
AcDbBlockBegin
  2
Dim22
 70
     0
 71
     0
 10
0.0
 20
0.0
 30
0.0
  3
Dim22
  1

  0
LINE
  5
53B
330
538
100
AcDbEntity
  8
6
  6
Continuous
 62
     7
370
     9
100
AcDbLine
 10
392.023548493683
 20
529.3667310990709
 30
0.0
 11
1391.023548493683
 21
529.3667310990709
 31
0.0
  0
LINE
  5
53C
330
538
100
AcDbEntity
  8
6
  6
Continuous
 62
     7
370
     9
100
AcDbLine
 10
392.0235484936829
 20
523.3667310990709
 30
0.0
 11
392.0235484936837
 21
621.3667310990709
 31
0.0
  0
LINE
  5
53D
330
538
100
AcDbEntity
  8
6
  6
Continuous
 62
     7
370
     9
100
AcDbLine
 10
1391.023548493683
 20
523.3667310990709
 30
0.0
 11
1391.023548493684
 21
621.3667310990709
 31
0.0
  0
LINE
  5
53E
330
538
100
AcDbEntity
  8
6
  6
Continuous
 62
     7
370
     9
100
AcDbLine
 10
392.023548493683
 20
529.3667310990709
 30
0.0
 11
403.6146584091518
 21
532.4725596403011
 31
0.0
  0
LINE
  5
53F
330
538
100
AcDbEntity
  8
6
  6
Continuous
 62
     7
370
     9
100
AcDbLine
 10
392.023548493683
 20
529.3667310990709
 30
0.0
 11
403.6146584091518
 21
526.2609025578406
 31
0.0
  0
LINE
  5
540
330
538
100
AcDbEntity
  8
6
  6
Continuous
 62
     7
370
     9
100
AcDbLine
 10
1391.023548493683
 20
529.3667310990709
 30
0.0
 11
1379.432438578214
 21
526.2609025578407
 31
0.0
  0
LINE
  5
541
330
538
100
AcDbEntity
  8
6
  6
Continuous
 62
     7
370
     9
100
AcDbLine
 10
1391.023548493683
 20
529.3667310990709
 30
0.0
 11
1379.432438578214
 21
532.4725596403011
 31
0.0
  0
MTEXT
  5
542
330
538
100
AcDbEntity
  8
6
  6
Continuous
 62
     7
370
     9
100
AcDbMText
 10
891.523548493683
 20
538.3667310990709
 30
0.0
 40
18.0
 41
0.0
 71
     8
 72
     1
  1
999
 73
     1
 44
1.0
  0
ENDBLK
  5
53A
330
538
100
AcDbEntity
  8
0
100
AcDbBlockEnd
  0
BLOCK
  5
545
330
544
100
AcDbEntity
  8
0
100
AcDbBlockBegin
  2
Dim23
 70
     0
 71
     0
 10
0.0
 20
0.0
 30
0.0
  3
Dim23
  1

  0
LINE
  5
547
330
544
100
AcDbEntity
  8
6
  6
Continuous
 62
     7
370
     9
100
AcDbLine
 10
355.788994984558
 20
571.3667310990709
 30
0.0
 11
408.5235484936838
 21
571.3667310990709
 31
0.0
  0
LINE
  5
548
330
544
100
AcDbEntity
  8
6
  6
Continuous
 62
     7
370
     9
100
AcDbLine
 10
408.5235484936838
 20
565.3667310990709
 30
0.0
 11
408.5235484936838
 21
616.4493378334766
 31
0.0
  0
LINE
  5
549
330
544
100
AcDbEntity
  8
6
  6
Continuous
 62
     7
370
     9
100
AcDbLine
 10
392.0235484936838
 20
571.3667310990709
 30
0.0
 11
380.432438578215
 21
568.2609025578407
 31
0.0
  0
LINE
  5
54A
330
544
100
AcDbEntity
  8
6
  6
Continuous
 62
     7
370
     9
100
AcDbLine
 10
392.0235484936838
 20
571.3667310990709
 30
0.0
 11
380.4324385782151
 21
574.4725596403011
 31
0.0
  0
LINE
  5
54B
330
544
100
AcDbEntity
  8
6
  6
Continuous
 62
     7
370
     9
100
AcDbLine
 10
408.5235484936838
 20
571.3667310990709
 30
0.0
 11
420.1146584091526
 21
574.4725596403011
 31
0.0
  0
LINE
  5
54C
330
544
100
AcDbEntity
  8
6
  6
Continuous
 62
     7
370
     9
100
AcDbLine
 10
408.5235484936838
 20
571.3667310990709
 30
0.0
 11
420.1146584091526
 21
568.2609025578406
 31
0.0
  0
MTEXT
  5
54D
330
544
100
AcDbEntity
  8
6
  6
Continuous
 62
     7
370
     9
100
AcDbMText
 10
373.788994984558
 20
580.3667310990709
 30
0.0
 40
18.0
 41
0.0
 71
     8
 72
     1
  1
16.5
 73
     1
 44
1.0
  0
ENDBLK
  5
546
330
544
100
AcDbEntity
  8
0
100
AcDbBlockEnd
  0
BLOCK
  5
550
330
54F
100
AcDbEntity
  8
0
100
AcDbBlockBegin
  2
Dim24
 70
     0
 71
     0
 10
0.0
 20
0.0
 30
0.0
  3
Dim24
  1

  0
LINE
  5
552
330
54F
100
AcDbEntity
  8
6
  6
Continuous
 62
     7
370
     9
100
AcDbLine
 10
408.5235484936838
 20
571.3667310990709
 30
0.0
 11
691.523548493684
 21
571.3667310990709
 31
0.0
  0
LINE
  5
553
330
54F
100
AcDbEntity
  8
6
  6
Continuous
 62
     7
370
     9
100
AcDbLine
 10
691.523548493684
 20
565.3667310990709
 30
0.0
 11
691.523548493684
 21
616.4493378334766
 31
0.0
  0
LINE
  5
554
330
54F
100
AcDbEntity
  8
6
  6
Continuous
 62
     7
370
     9
100
AcDbLine
 10
408.5235484936838
 20
571.3667310990709
 30
0.0
 11
396.932438578215
 21
568.2609025578407
 31
0.0
  0
LINE
  5
555
330
54F
100
AcDbEntity
  8
6
  6
Continuous
 62
     7
370
     9
100
AcDbLine
 10
408.5235484936838
 20
571.3667310990709
 30
0.0
 11
396.9324385782151
 21
574.4725596403011
 31
0.0
  0
LINE
  5
556
330
54F
100
AcDbEntity
  8
6
  6
Continuous
 62
     7
370
     9
100
AcDbLine
 10
691.523548493684
 20
571.3667310990709
 30
0.0
 11
703.1146584091528
 21
574.4725596403011
 31
0.0
  0
LINE
  5
557
330
54F
100
AcDbEntity
  8
6
  6
Continuous
 62
     7
370
     9
100
AcDbLine
 10
691.523548493684
 20
571.3667310990709
 30
0.0
 11
703.1146584091528
 21
568.2609025578406
 31
0.0
  0
MTEXT
  5
558
330
54F
100
AcDbEntity
  8
6
  6
Continuous
 62
     7
370
     9
100
AcDbMText
 10
550.0235484936841
 20
580.3667310990709
 30
0.0
 40
18.0
 41
0.0
 71
     8
 72
     1
  1
283
 73
     1
 44
1.0
  0
ENDBLK
  5
551
330
54F
100
AcDbEntity
  8
0
100
AcDbBlockEnd
  0
BLOCK
  5
55B
330
55A
100
AcDbEntity
  8
0
100
AcDbBlockBegin
  2
Dim25
 70
     0
 71
     0
 10
0.0
 20
0.0
 30
0.0
  3
Dim25
  1

  0
LINE
  5
55D
330
55A
100
AcDbEntity
  8
6
  6
Continuous
 62
     7
370
     9
100
AcDbLine
 10
691.523548493684
 20
571.3667310990709
 30
0.0
 11
1091.523548493684
 21
571.3667310990709
 31
0.0
  0
LINE
  5
55E
330
55A
100
AcDbEntity
  8
6
  6
Continuous
 62
     7
370
     9
100
AcDbLine
 10
1091.523548493684
 20
565.3667310990709
 30
0.0
 11
1091.523548493684
 21
616.4493378334766
 31
0.0
  0
LINE
  5
55F
330
55A
100
AcDbEntity
  8
6
  6
Continuous
 62
     7
370
     9
100
AcDbLine
 10
691.523548493684
 20
571.3667310990709
 30
0.0
 11
679.9324385782152
 21
568.2609025578407
 31
0.0
  0
LINE
  5
560
330
55A
100
AcDbEntity
  8
6
  6
Continuous
 62
     7
370
     9
100
AcDbLine
 10
691.523548493684
 20
571.3667310990709
 30
0.0
 11
679.9324385782152
 21
574.4725596403011
 31
0.0
  0
LINE
  5
561
330
55A
100
AcDbEntity
  8
6
  6
Continuous
 62
     7
370
     9
100
AcDbLine
 10
1091.523548493684
 20
571.3667310990709
 30
0.0
 11
1103.114658409153
 21
574.4725596403011
 31
0.0
  0
LINE
  5
562
330
55A
100
AcDbEntity
  8
6
  6
Continuous
 62
     7
370
     9
100
AcDbLine
 10
1091.523548493684
 20
571.3667310990709
 30
0.0
 11
1103.114658409153
 21
568.2609025578406
 31
0.0
  0
MTEXT
  5
563
330
55A
100
AcDbEntity
  8
6
  6
Continuous
 62
     7
370
     9
100
AcDbMText
 10
891.523548493684
 20
580.3667310990709
 30
0.0
 40
18.0
 41
0.0
 71
     8
 72
     1
  1
400
 73
     1
 44
1.0
  0
ENDBLK
  5
55C
330
55A
100
AcDbEntity
  8
0
100
AcDbBlockEnd
  0
BLOCK
  5
566
330
565
100
AcDbEntity
  8
0
100
AcDbBlockBegin
  2
Dim26
 70
     0
 71
     0
 10
0.0
 20
0.0
 30
0.0
  3
Dim26
  1

  0
LINE
  5
568
330
565
100
AcDbEntity
  8
6
  6
Continuous
 62
     7
370
     9
100
AcDbLine
 10
1091.523548493684
 20
571.3667310990709
 30
0.0
 11
1374.523548493684
 21
571.3667310990709
 31
0.0
  0
LINE
  5
569
330
565
100
AcDbEntity
  8
6
  6
Continuous
 62
     7
370
     9
100
AcDbLine
 10
1374.523548493684
 20
565.3667310990709
 30
0.0
 11
1374.523548493684
 21
616.4493378334766
 31
0.0
  0
LINE
  5
56A
330
565
100
AcDbEntity
  8
6
  6
Continuous
 62
     7
370
     9
100
AcDbLine
 10
1091.523548493684
 20
571.3667310990709
 30
0.0
 11
1079.932438578215
 21
568.2609025578407
 31
0.0
  0
LINE
  5
56B
330
565
100
AcDbEntity
  8
6
  6
Continuous
 62
     7
370
     9
100
AcDbLine
 10
1091.523548493684
 20
571.3667310990709
 30
0.0
 11
1079.932438578215
 21
574.4725596403011
 31
0.0
  0
LINE
  5
56C
330
565
100
AcDbEntity
  8
6
  6
Continuous
 62
     7
370
     9
100
AcDbLine
 10
1374.523548493684
 20
571.3667310990709
 30
0.0
 11
1386.114658409153
 21
574.4725596403011
 31
0.0
  0
LINE
  5
56D
330
565
100
AcDbEntity
  8
6
  6
Continuous
 62
     7
370
     9
100
AcDbLine
 10
1374.523548493684
 20
571.3667310990709
 30
0.0
 11
1386.114658409153
 21
568.2609025578406
 31
0.0
  0
MTEXT
  5
56E
330
565
100
AcDbEntity
  8
6
  6
Continuous
 62
     7
370
     9
100
AcDbMText
 10
1233.023548493684
 20
580.3667310990709
 30
0.0
 40
18.0
 41
0.0
 71
     8
 72
     1
  1
283
 73
     1
 44
1.0
  0
ENDBLK
  5
567
330
565
100
AcDbEntity
  8
0
100
AcDbBlockEnd
  0
BLOCK
  5
571
330
570
100
AcDbEntity
  8
0
100
AcDbBlockBegin
  2
Dim27
 70
     0
 71
     0
 10
0.0
 20
0.0
 30
0.0
  3
Dim27
  1

  0
LINE
  5
573
330
570
100
AcDbEntity
  8
6
  6
Continuous
 62
     7
370
     9
100
AcDbLine
 10
1374.523548493684
 20
571.3667310990709
 30
0.0
 11
1426.600106095688
 21
571.3667310990709
 31
0.0
  0
LINE
  5
574
330
570
100
AcDbEntity
  8
6
  6
Continuous
 62
     7
370
     9
100
AcDbLine
 10
1374.523548493684
 20
571.3667310990709
 30
0.0
 11
1362.932438578215
 21
568.2609025578407
 31
0.0
  0
LINE
  5
575
330
570
100
AcDbEntity
  8
6
  6
Continuous
 62
     7
370
     9
100
AcDbLine
 10
1374.523548493684
 20
571.3667310990709
 30
0.0
 11
1362.932438578215
 21
574.4725596403011
 31
0.0
  0
LINE
  5
576
330
570
100
AcDbEntity
  8
6
  6
Continuous
 62
     7
370
     9
100
AcDbLine
 10
1391.023548493684
 20
571.3667310990709
 30
0.0
 11
1402.614658409153
 21
574.4725596403011
 31
0.0
  0
LINE
  5
577
330
570
100
AcDbEntity
  8
6
  6
Continuous
 62
     7
370
     9
100
AcDbLine
 10
1391.023548493684
 20
571.3667310990709
 30
0.0
 11
1402.614658409153
 21
568.2609025578406
 31
0.0
  0
MTEXT
  5
578
330
570
100
AcDbEntity
  8
6
  6
Continuous
 62
     7
370
     9
100
AcDbMText
 10
1408.600106095688
 20
580.3667310990709
 30
0.0
 40
18.0
 41
0.0
 71
     8
 72
     1
  1
16.5
 73
     1
 44
1.0
  0
ENDBLK
  5
572
330
570
100
AcDbEntity
  8
0
100
AcDbBlockEnd
  0
ENDSEC
  0
SECTION
  2
ENTITIES
  0
LINE
  5
87
330
1F
100
AcDbEntity
  8
11
  6
DASHDOT
 62
    16
370
     9
100
AcDbLine
 10
-7853.400379102917
 20
-2473.884999999997
 30
0.0
 11
-7853.400379102917
 21
-11616.000625
 31
0.0
  0
TEXT
  5
88
330
1F
100
AcDbEntity
  8
11
  6
Continuous
 62
    16
370
     9
100
AcDbText
 10
-8261.786186592604
 20
-11116.07658120515
 30
0.0
 40
119.0000143647194
  1
U-360-B
100
AcDbText
  0
LINE
  5
89
330
1F
100
AcDbEntity
  8
11
  6
Continuous
 62
    16
370
     9
100
AcDbLine
 10
-8313.400358390303
 20
-9655.719104515603
 30
0.0
 11
-8213.400345575305
 21
-9655.719104515603
 31
0.0
  0
LINE
  5
8A
330
1F
100
AcDbEntity
  8
11
  6
Continuous
 62
    16
370
     9
100
AcDbLine
 10
-7493.400324117632
 20
-9655.719104515603
 30
0.0
 11
-7393.400399815531
 21
-9655.719104515603
 31
0.0
  0
LINE
  5
8B
330
1F
100
AcDbEntity
  8
11
  6
Continuous
 62
    16
370
     9
100
AcDbLine
 10
-8313.400358390303
 20
-9655.719104515603
 30
0.0
 11
-8313.400358390303
 21
-10405.71915637164
 31
0.0
  0
LINE
  5
8C
330
1F
100
AcDbEntity
  8
11
  6
Continuous
 62
    16
370
     9
100
AcDbLine
 10
-8313.400358390303
 20
-10405.71915637164
 30
0.0
 11
-8213.400345575305
 21
-10505.71916918664
 31
0.0
  0
LINE
  5
8D
330
1F
100
AcDbEntity
  8
11
  6
Continuous
 62
    16
370
     9
100
AcDbLine
 10
-8213.400345575305
 20
-10505.71916918664
 30
0.0
 11
-7493.400324117632
 21
-10505.71916918664
 31
0.0
  0
LINE
  5
8E
330
1F
100
AcDbEntity
  8
11
  6
Continuous
 62
    16
370
     9
100
AcDbLine
 10
-7393.400399815531
 20
-9655.719104515603
 30
0.0
 11
-7393.400399815531
 21
-10406.7191750875
 31
0.0
  0
LINE
  5
8F
330
1F
100
AcDbEntity
  8
11
  6
Continuous
 62
    16
370
     9
100
AcDbLine
 10
-7493.400324117632
 20
-10505.71916918664
 30
0.0
 11
-7393.400399815531
 21
-10406.7191750875
 31
0.0
  0
ARC
  5
90
330
1F
100
AcDbEntity
  8
11
  6
Continuous
 62
    16
370
     9
100
AcDbCircle
 10
-8071.400343310328
 20
-10275.71911315828
 30
0.0
 40
100.0000128149986
100
AcDbArc
 50
185.1226640241716
 51
269.9777130352506
  0
LINE
  5
91
330
1F
100
AcDbEntity
  8
11
  6
Continuous
 62
    16
370
     9
100
AcDbLine
 10
-8213.400345575305
 20
-9655.719104515603
 30
0.0
 11
-8171.400356125327
 21
-10284.71919308811
 31
0.0
  0
ARC
  5
92
330
1F
100
AcDbEntity
  8
11
  6
Continuous
 62
    16
370
     9
100
AcDbCircle
 10
-7635.400326382609
 20
-10275.71911315828
 30
0.0
 40
100.0000128149986
100
AcDbArc
 50
269.9777130352506
 51
354.8327630463299
  0
LINE
  5
93
330
1F
100
AcDbEntity
  8
11
  6
Continuous
 62
    16
370
     9
100
AcDbLine
 10
-7493.400324117632
 20
-9655.719104515603
 30
0.0
 11
-7535.40031356761
 21
-10284.71919308811
 31
0.0
  0
LINE
  5
94
330
1F
100
AcDbEntity
  8
11
  6
Continuous
 62
    16
370
     9
100
AcDbLine
 10
-8071.400343310328
 20
-10375.71921448617
 30
0.0
 11
-7635.400326382609
 21
-10375.71921448617
 31
0.0
  0
TEXT
  5
95
330
1F
100
AcDbEntity
  8
11
  6
Continuous
 62
    16
370
     9
100
AcDbText
 10
-8155.786149995352
 20
-8616.223394693146
 30
0.0
 40
119.0000143647194
  1
U-300B
100
AcDbText
  0
LINE
  5
96
330
1F
100
AcDbEntity
  8
11
  6
Continuous
 62
    16
370
     9
100
AcDbLine
 10
-8253.400386106463
 20
-7338.865979515595
 30
0.0
 11
-8153.400461804362
 21
-7338.865979515595
 31
0.0
  0
LINE
  5
97
330
1F
100
AcDbEntity
  8
11
  6
Continuous
 62
    16
370
     9
100
AcDbLine
 10
-7553.40038491437
 20
-7338.865979515595
 30
0.0
 11
-7453.400372099371
 21
-7338.865979515595
 31
0.0
  0
ARC
  5
98
330
1F
100
AcDbEntity
  8
11
  6
Continuous
 62
    16
370
     9
100
AcDbCircle
 10
-8021.400381159277
 20
-7838.866043590589
 30
0.0
 40
100.0000128149986
100
AcDbArc
 50
185.1226640241711
 51
269.9777130352506
  0
LINE
  5
99
330
1F
100
AcDbEntity
  8
11
  6
Continuous
 62
    16
370
     9
100
AcDbLine
 10
-8153.400461804362
 20
-7338.865979515595
 30
0.0
 11
-8121.400305461379
 21
-7847.86603500752
 31
0.0
  0
ARC
  5
9A
330
1F
100
AcDbEntity
  8
11
  6
Continuous
 62
    16
370
     9
100
AcDbCircle
 10
-7685.400377046557
 20
-7838.866043590589
 30
0.0
 40
100.0000128149986
100
AcDbArc
 50
269.9777130352506
 51
354.8327630463305
  0
LINE
  5
9B
330
1F
100
AcDbEntity
  8
11
  6
Continuous
 62
    16
370
     9
100
AcDbLine
 10
-7553.40038491437
 20
-7338.865979515595
 30
0.0
 11
-7585.400364231558
 21
-7847.86603500752
 31
0.0
  0
LINE
  5
9C
330
1F
100
AcDbEntity
  8
11
  6
Continuous
 62
    16
370
     9
100
AcDbLine
 10
-8021.400381159277
 20
-7938.86596789269
 30
0.0
 11
-7685.400377046557
 21
-7938.86596789269
 31
0.0
  0
LINE
  5
9D
330
1F
100
AcDbEntity
  8
11
  6
Continuous
 62
    16
370
     9
100
AcDbLine
 10
-8253.400386106463
 20
-7338.865979515595
 30
0.0
 11
-8253.400386106463
 21
-7958.865988158269
 31
0.0
  0
LINE
  5
9E
330
1F
100
AcDbEntity
  8
11
  6
Continuous
 62
    16
370
     9
100
AcDbLine
 10
-8253.400386106463
 20
-7958.865988158269
 30
0.0
 11
-8153.400461804362
 21
-8058.866089486165
 31
0.0
  0
LINE
  5
9F
330
1F
100
AcDbEntity
  8
11
  6
Continuous
 62
    16
370
     9
100
AcDbLine
 10
-8153.400461804362
 20
-8058.866089486165
 30
0.0
 11
-7553.40038491437
 21
-8058.866089486165
 31
0.0
  0
LINE
  5
A0
330
1F
100
AcDbEntity
  8
11
  6
Continuous
 62
    16
370
     9
100
AcDbLine
 10
-7453.400372099371
 20
-7338.865979515595
 30
0.0
 11
-7453.400372099371
 21
-7959.866006874127
 31
0.0
  0
LINE
  5
A1
330
1F
100
AcDbEntity
  8
11
  6
Continuous
 62
    16
370
     9
100
AcDbLine
 10
-7553.40038491437
 20
-8058.866089486165
 30
0.0
 11
-7453.400372099371
 21
-7959.866006874127
 31
0.0
  0
TEXT
  5
A2
330
1F
100
AcDbEntity
  8
11
  6
Continuous
 62
    16
370
     9
100
AcDbText
 10
-8122.786107705857
 20
-6709.206245876543
 30
0.0
 40
119.0000143647194
  1
U-240
100
AcDbText
  0
LINE
  5
A3
330
1F
100
AcDbEntity
  8
11
  6
Continuous
 62
    16
370
     9
100
AcDbLine
 10
-8183.400359433384
 20
-5585.848792015579
 30
0.0
 11
-8093.400356751175
 21
-5585.848792015579
 31
0.0
  0
LINE
  5
A4
330
1F
100
AcDbEntity
  8
11
  6
Continuous
 62
    16
370
     9
100
AcDbLine
 10
-7613.400312941762
 20
-5585.848792015579
 30
0.0
 11
-7523.40039877245
 21
-5585.848792015579
 31
0.0
  0
ARC
  5
A5
330
1F
100
AcDbEntity
  8
11
  6
Continuous
 62
    16
370
     9
100
AcDbCircle
 10
-7977.400398534031
 20
-5965.848823009994
 30
0.0
 40
100.0000128149986
100
AcDbArc
 50
182.3724660238122
 51
269.9777130352506
  0
LINE
  5
A6
330
1F
100
AcDbEntity
  8
11
  6
Continuous
 62
    16
370
     9
100
AcDbLine
 10
-8093.400356751175
 20
-5585.848792015579
 30
0.0
 11
-8077.400322836133
 21
-5969.84880936053
 31
0.0
  0
ARC
  5
A7
330
1F
100
AcDbEntity
  8
11
  6
Continuous
 62
    16
370
     9
100
AcDbCircle
 10
-7729.400359671803
 20
-5965.848823009994
 30
0.0
 40
100.0000128149986
100
AcDbArc
 50
269.9777130352506
 51
357.6402560466982
  0
LINE
  5
A8
330
1F
100
AcDbEntity
  8
11
  6
Continuous
 62
    16
370
     9
100
AcDbLine
 10
-7613.400312941762
 20
-5585.848792015579
 30
0.0
 11
-7629.400346856804
 21
-5969.84880936053
 31
0.0
  0
LINE
  5
A9
330
1F
100
AcDbEntity
  8
11
  6
Continuous
 62
    16
370
     9
100
AcDbLine
 10
-7977.400398534031
 20
-6065.848835824992
 30
0.0
 11
-7729.400359671803
 21
-6065.848835824992
 31
0.0
  0
LINE
  5
AA
330
1F
100
AcDbEntity
  8
11
  6
Continuous
 62
    16
370
     9
100
AcDbLine
 10
-7523.40039877245
 20
-5585.848792015579
 30
0.0
 11
-7523.40039877245
 21
-6075.848845957782
 31
0.0
  0
LINE
  5
AB
330
1F
100
AcDbEntity
  8
11
  6
Continuous
 62
    16
370
     9
100
AcDbLine
 10
-7523.40039877245
 20
-6075.848845957782
 30
0.0
 11
-7613.400312941762
 21
-6165.848848639991
 31
0.0
  0
LINE
  5
AC
330
1F
100
AcDbEntity
  8
11
  6
Continuous
 62
    16
370
     9
100
AcDbLine
 10
-8183.400359433384
 20
-5585.848792015579
 30
0.0
 11
-8183.400359433384
 21
-6075.848845957782
 31
0.0
  0
LINE
  5
AD
330
1F
100
AcDbEntity
  8
11
  6
Continuous
 62
    16
370
     9
100
AcDbLine
 10
-7613.400312941762
 20
-6165.848848639991
 30
0.0
 11
-8093.400356751175
 21
-6165.848848639991
 31
0.0
  0
LINE
  5
AE
330
1F
100
AcDbEntity
  8
11
  6
Continuous
 62
    16
370
     9
100
AcDbLine
 10
-8183.400359433384
 20
-6075.848845957782
 30
0.0
 11
-8093.400356751175
 21
-6165.848848639991
 31
0.0
  0
TEXT
  5
AF
330
1F
100
AcDbEntity
  8
11
  6
Continuous
 62
    16
370
     9
100
AcDbText
 10
-8089.786109672808
 20
-5062.889086509926
 30
0.0
 40
119.0000143647194
  1
U-180
100
AcDbText
  0
LINE
  5
B0
330
1F
100
AcDbEntity
  8
11
  6
Continuous
 62
    16
370
     9
100
AcDbLine
 10
-8103.400366883965
 20
-4051.531604515568
 30
0.0
 11
-8033.400384467335
 21
-4051.531604515568
 31
0.0
  0
LINE
  5
B1
330
1F
100
AcDbEntity
  8
11
  6
Continuous
 62
    16
370
     9
100
AcDbLine
 10
-7673.400373738499
 20
-4051.531604515568
 30
0.0
 11
-7603.400391321869
 21
-4051.531604515568
 31
0.0
  0
LINE
  5
B2
330
1F
100
AcDbEntity
  8
11
  6
Continuous
 62
    16
370
     9
100
AcDbLine
 10
-8103.400366883965
 20
-4051.531604515568
 30
0.0
 11
-8103.400366883965
 21
-4431.531635509983
 31
0.0
  0
LINE
  5
B3
330
1F
100
AcDbEntity
  8
11
  6
Continuous
 62
    16
370
     9
100
AcDbLine
 10
-8103.400366883965
 20
-4431.531635509983
 30
0.0
 11
-8043.400394600125
 21
-4491.531607793823
 31
0.0
  0
LINE
  5
B4
330
1F
100
AcDbEntity
  8
11
  6
Continuous
 62
    16
370
     9
100
AcDbLine
 10
-8043.400394600125
 20
-4491.531607793823
 30
0.0
 11
-7663.40036360571
 21
-4491.531607793823
 31
0.0
  0
LINE
  5
B5
330
1F
100
AcDbEntity
  8
11
  6
Continuous
 62
    16
370
     9
100
AcDbLine
 10
-7603.400391321869
 20
-4051.531604515568
 30
0.0
 11
-7603.400391321869
 21
-4432.531654225842
 31
0.0
  0
LINE
  5
B6
330
1F
100
AcDbEntity
  8
11
  6
Continuous
 62
    16
370
     9
100
AcDbLine
 10
-7663.40036360571
 20
-4491.531607793823
 30
0.0
 11
-7603.400391321869
 21
-4432.531654225842
 31
0.0
  0
ARC
  5
B7
330
1F
100
AcDbEntity
  8
11
  6
Continuous
 62
    16
370
     9
100
AcDbCircle
 10
-7946.400349419804
 20
-4331.531711207882
 30
0.0
 40
79.9999925494194
100
AcDbArc
 50
181.4557340236922
 51
269.9777130352516
  0
LINE
  5
B8
330
1F
100
AcDbEntity
  8
11
  6
Continuous
 62
    16
370
     9
100
AcDbLine
 10
-8033.400384467335
 20
-4051.531604515568
 30
0.0
 11
-8026.400341969224
 21
-4333.531660126701
 31
0.0
  0
ARC
  5
B9
330
1F
100
AcDbEntity
  8
11
  6
Continuous
 62
    16
370
     9
100
AcDbCircle
 10
-7760.40040878603
 20
-4331.531711207882
 30
0.0
 40
79.9999925494194
100
AcDbArc
 50
269.9777130352516
 51
358.5569880468175
  0
LINE
  5
BA
330
1F
100
AcDbEntity
  8
11
  6
Continuous
 62
    16
370
     9
100
AcDbLine
 10
-7673.400373738499
 20
-4051.531604515568
 30
0.0
 11
-7680.400416236611
 21
-4333.531660126701
 31
0.0
  0
LINE
  5
BB
330
1F
100
AcDbEntity
  8
11
  6
Continuous
 62
    16
370
     9
100
AcDbLine
 10
-7946.400349419804
 20
-4411.531615244404
 30
0.0
 11
-7760.40040878603
 21
-4411.531615244404
 31
0.0
  0
TEXT
  5
BC
330
1F
100
AcDbEntity
  8
11
  6
Continuous
 62
    16
370
     9
100
AcDbText
 10
-8081.786225484633
 20
-3624.906283427445
 30
0.0
 40
119.0000143647194
  1
U-150
100
AcDbText
  0
LINE
  5
BD
330
1F
100
AcDbEntity
  8
11
  6
Continuous
 62
    16
370
     9
100
AcDbLine
 10
-8063.400414865704
 20
-2726.548792015555
 30
0.0
 11
-8003.400354068966
 21
-2726.548792015555
 31
0.0
  0
LINE
  5
BE
330
1F
100
AcDbEntity
  8
11
  6
Continuous
 62
    16
370
     9
100
AcDbLine
 10
-7703.400404136868
 20
-2726.548792015555
 30
0.0
 11
-7643.400431853028
 21
-2726.548792015555
 31
0.0
  0
ARC
  5
BF
330
1F
100
AcDbEntity
  8
11
  6
Continuous
 62
    16
370
     9
100
AcDbCircle
 10
-7935.400409084054
 20
-2966.54885817671
 30
0.0
 40
59.99997228384018
100
AcDbArc
 50
181.9141000237526
 51
269.9777130352525
  0
LINE
  5
C0
330
1F
100
AcDbEntity
  8
11
  6
Continuous
 62
    16
370
     9
100
AcDbLine
 10
-8003.400354068966
 20
-2726.548792015555
 30
0.0
 11
-7995.400381367894
 21
-2968.548895608427
 31
0.0
  0
ARC
  5
C1
330
1F
100
AcDbEntity
  8
11
  6
Continuous
 62
    16
370
     9
100
AcDbCircle
 10
-7771.400437634678
 20
-2966.54885817671
 30
0.0
 40
59.99997228384018
100
AcDbArc
 50
269.9777130352525
 51
358.0986220467584
  0
LINE
  5
C2
330
1F
100
AcDbEntity
  8
11
  6
Continuous
 62
    16
370
     9
100
AcDbLine
 10
-7703.400404136868
 20
-2726.548792015555
 30
0.0
 11
-7711.400465350838
 21
-2968.548895608427
 31
0.0
  0
LINE
  5
C3
330
1F
100
AcDbEntity
  8
11
  6
Continuous
 62
    16
370
     9
100
AcDbLine
 10
-7935.400409084054
 20
-3026.548830460551
 30
0.0
 11
-7771.400437634678
 21
-3026.548830460551
 31
0.0
  0
LINE
  5
C4
330
1F
100
AcDbEntity
  8
11
  6
Continuous
 62
    16
370
     9
100
AcDbLine
 10
-8063.400414865704
 20
-2726.548792015555
 30
0.0
 11
-8063.400414865704
 21
-3060.548847209456
 31
0.0
  0
LINE
  5
C5
330
1F
100
AcDbEntity
  8
11
  6
Continuous
 62
    16
370
     9
100
AcDbLine
 10
-8027.400360685082
 20
-3096.54881287718
 30
0.0
 11
-8063.400414865704
 21
-3060.548847209456
 31
0.0
  0
LINE
  5
C6
330
1F
100
AcDbEntity
  8
11
  6
Continuous
 62
    16
370
     9
100
AcDbLine
 10
-7643.400431853028
 20
-2726.548792015555
 30
0.0
 11
-7643.400431853028
 21
-3060.548847209456
 31
0.0
  0
LINE
  5
C7
330
1F
100
AcDbEntity
  8
11
  6
Continuous
 62
    16
370
     9
100
AcDbLine
 10
-8027.400360685082
 20
-3096.54881287718
 30
0.0
 11
-7679.400397520752
 21
-3096.54881287718
 31
0.0
  0
LINE
  5
C8
330
1F
100
AcDbEntity
  8
11
  6
Continuous
 62
    16
370
     9
100
AcDbLine
 10
-7643.400431853028
 20
-3060.548847209456
 30
0.0
 11
-7679.400397520752
 21
-3096.54881287718
 31
0.0
  0
INSERT
  5
D0
330
1F
100
AcDbEntity
  8
0
100
AcDbBlockReference
  2
*G12
 10
0.0
 20
0.0
 30
0.0
  0
LINE
  5
D1
330
1F
100
AcDbEntity
  8
8
  6
Continuous
 62
   171
370
    18
100
AcDbLine
 10
1710.0
 20
1131.0
 30
0.0
 11
1068.0
 21
1131.0
 31
0.0
  0
TEXT
  5
D2
330
1F
100
AcDbEntity
  8
8
  6
Continuous
 62
   171
370
     9
100
AcDbText
 10
1074.0
 20
1134.0
 30
0.0
 40
15.0
  1
記号
100
AcDbText
  0
TEXT
  5
D3
330
1F
100
AcDbEntity
  8
8
  6
Continuous
 62
   171
370
     9
100
AcDbText
 10
1196.25
 20
1134.0
 30
0.0
 40
15.0
  1
訂　 正　 記　 事
100
AcDbText
  0
TEXT
  5
D4
330
1F
100
AcDbEntity
  8
8
  6
Continuous
 62
   171
370
     9
100
AcDbText
 10
1417.5
 20
1134.0
 30
0.0
 40
15.0
  1
訂 正 年 月 日
100
AcDbText
  0
TEXT
  5
D5
330
1F
100
AcDbEntity
  8
8
  6
Continuous
 62
   171
370
     9
100
AcDbText
 10
1567.5
 20
1134.0
 30
0.0
 40
15.0
  1
備　　　　　考
100
AcDbText
  0
LINE
  5
D6
330
1F
100
AcDbEntity
  8
8
  6
Continuous
 62
   171
370
    18
100
AcDbLine
 10
1422.0
 20
216.0
 30
0.0
 11
1422.0
 21
120.0
 31
0.0
  0
TEXT
  5
D7
330
1F
100
AcDbEntity
  8
8
  6
Continuous
 62
   171
370
     9
100
AcDbText
 10
1125.0
 20
117.0
 30
0.0
 40
21.0
  1
備考
 50
-0.0000000000000891
  7
T_STANDARD
100
AcDbText
  0
TEXT
  5
D8
330
1F
100
AcDbEntity
  8
8
  6
Continuous
 62
   171
370
     9
100
AcDbText
 10
1125.0
 20
165.0
 30
0.0
 40
21.0
  1
品番
 50
-0.0000000000000891
  7
T_STANDARD
100
AcDbText
  0
TEXT
  5
D9
330
1F
100
AcDbEntity
  8
8
  6
Continuous
 62
   171
370
     9
100
AcDbText
 10
1125.0
 20
213.0
 30
0.0
 40
21.0
  1
品名
 50
-0.0000000000000891
  7
T_STANDARD
100
AcDbText
  0
LINE
  5
DA
330
1F
100
AcDbEntity
  8
8
  6
Continuous
 62
   171
370
    18
100
AcDbLine
 10
1422.0
 20
168.0
 30
0.0
 11
1110.0
 21
168.0
 31
0.0
  0
LINE
  5
DB
330
1F
100
AcDbEntity
  8
8
  6
Continuous
 62
   171
370
    18
100
AcDbLine
 10
1140.0
 20
216.0
 30
0.0
 11
1140.0
 21
72.0
 31
0.0
  0
LINE
  5
DC
330
1F
100
AcDbEntity
  8
9
  6
Continuous
 62
   170
370
    30
100
AcDbLine
 10
1710.0
 20
216.0
 30
0.0
 11
1110.0
 21
216.0
 31
0.0
  0
LINE
  5
DD
330
1F
100
AcDbEntity
  8
9
  6
Continuous
 62
   170
370
    30
100
AcDbLine
 10
1110.0
 20
216.0
 30
0.0
 11
1110.0
 21
72.0
 31
0.0
  0
LINE
  5
DE
330
1F
100
AcDbEntity
  8
8
  6
Continuous
 62
   171
370
    18
100
AcDbLine
 10
1494.0
 20
216.0
 30
0.0
 11
1494.0
 21
72.0
 31
0.0
  0
TEXT
  5
DF
330
1F
100
AcDbEntity
  8
8
  6
Continuous
 62
   171
370
     9
100
AcDbText
 10
1431.0
 20
192.0
 30
0.0
 40
18.0
  1
縮　尺
100
AcDbText
  0
LINE
  5
E0
330
1F
100
AcDbEntity
  8
8
  6
Continuous
 62
   171
370
    18
100
AcDbLine
 10
1422.0
 20
186.0
 30
0.0
 11
1494.0
 21
186.0
 31
0.0
  0
LINE
  5
E1
330
1F
100
AcDbEntity
  8
8
  6
Continuous
 62
   171
370
    18
100
AcDbLine
 10
1494.0
 20
120.0
 30
0.0
 11
1110.0
 21
120.0
 31
0.0
  0
LINE
  5
E2
330
1F
100
AcDbEntity
  8
8
  6
Continuous
 62
   171
370
    18
100
AcDbLine
 10
1710.0
 20
108.0
 30
0.0
 11
1494.0
 21
108.0
 31
0.0
  0
LINE
  5
E3
330
1F
100
AcDbEntity
  8
8
  6
Continuous
 62
   171
370
    18
100
AcDbLine
 10
1494.0
 20
144.0
 30
0.0
 11
1710.0
 21
144.0
 31
0.0
  0
LINE
  5
E4
330
1F
100
AcDbEntity
  8
8
  6
Continuous
 62
   171
370
    18
100
AcDbLine
 10
1710.0
 20
168.0
 30
0.0
 11
1494.0
 21
168.0
 31
0.0
  0
TEXT
  5
E5
330
1F
100
AcDbEntity
  8
8
  6
Continuous
 62
   171
370
     9
100
AcDbText
 10
1506.0
 20
177.0
 30
0.0
 40
30.0
  1
株式会社シマブン
 41
0.8
100
AcDbText
  0
TEXT
  5
E6
330
1F
100
AcDbEntity
  8
8
  6
Continuous
 62
   171
370
     9
100
AcDbText
 10
1503.0
 20
72.0
 30
0.0
 40
18.0
  1
年月日
100
AcDbText
  0
TEXT
  5
E7
330
1F
100
AcDbEntity
  8
8
  6
Continuous
 62
   171
370
     9
100
AcDbText
 10
1503.0
 20
90.0
 30
0.0
 40
18.0
  1
作　成
100
AcDbText
  0
TEXT
  5
E8
330
1F
100
AcDbEntity
  8
8
  6
Continuous
 62
   171
370
     9
100
AcDbText
 10
1507.5
 20
147.0
 30
0.0
 40
18.0
  1
承 認
100
AcDbText
  0
LINE
  5
E9
330
1F
100
AcDbEntity
  8
8
  6
Continuous
 62
   171
370
    18
100
AcDbLine
 10
1566.0
 20
168.0
 30
0.0
 11
1566.0
 21
72.0
 31
0.0
  0
TEXT
  5
EA
330
1F
100
AcDbEntity
  8
8
  6
Continuous
 62
   171
370
     9
100
AcDbText
 10
1579.5
 20
147.0
 30
0.0
 40
18.0
  1
検 図
100
AcDbText
  0
LINE
  5
EB
330
1F
100
AcDbEntity
  8
8
  6
Continuous
 62
   171
370
    18
100
AcDbLine
 10
1638.0
 20
168.0
 30
0.0
 11
1638.0
 21
108.0
 31
0.0
  0
TEXT
  5
EC
330
1F
100
AcDbEntity
  8
8
  6
Continuous
 62
   171
370
     9
100
AcDbText
 10
1650.0
 20
114.0
 30
0.0
 40
24.0
  1
藤戸
100
AcDbText
  0
TEXT
  5
ED
330
1F
100
AcDbEntity
  8
8
  6
Continuous
 62
   171
370
     9
100
AcDbText
 10
1651.5
 20
147.0
 30
0.0
 40
18.0
  1
設 計
100
AcDbText
  0
TEXT
  5
EE
330
1F
100
AcDbEntity
  8
8
  6
Continuous
 62
   171
370
     9
100
AcDbText
 10
1432.8
 20
141.0
 30
0.0
 40
24.0
  1
１：６
 41
0.7000000000000001
100
AcDbText
  0
TEXT
  5
EF
330
1F
100
AcDbEntity
  8
8
  6
Continuous
 62
   171
370
     9
100
AcDbText
 10
1158.6
 20
180.0
 30
0.0
 40
24.0
  1
Ｕ字溝用樹脂グレーチング（歩道用）
 41
0.6
100
AcDbText
  0
TEXT
  5
F0
330
1F
100
AcDbEntity
  8
8
  6
Continuous
 62
   171
370
     9
100
AcDbText
 10
1572.0
 20
81.0
 30
0.0
 40
18.0
  1
２００９年０４月１０日
 41
0.6666666666666666
100
AcDbText
  0
LINE
  5
F1
330
1F
100
AcDbEntity
  8
3
  6
Continuous
 62
     6
370
    18
100
AcDbLine
 10
392.0235484936838
 20
958.274952773929
 30
0.0
 11
1391.023548493684
 21
958.274952773929
 31
0.0
  0
LINE
  5
F2
330
1F
100
AcDbEntity
  8
1
  6
Continuous
 62
    45
370
     9
100
AcDbLine
 10
1389.523548493684
 20
955.274952773929
 30
0.0
 11
1359.523548493684
 21
955.274952773929
 31
0.0
  0
LINE
  5
F3
330
1F
100
AcDbEntity
  8
1
  6
Continuous
 62
    45
370
     9
100
AcDbLine
 10
423.5235484936838
 20
955.274952773929
 30
0.0
 11
393.5235484936838
 21
955.274952773929
 31
0.0
  0
LINE
  5
F4
330
1F
100
AcDbEntity
  8
3
  6
Continuous
 62
     6
370
    18
100
AcDbLine
 10
392.0235484936838
 20
799.2748791595893
 30
0.0
 11
1391.023548493684
 21
799.2748791595893
 31
0.0
  0
LINE
  5
F5
330
1F
100
AcDbEntity
  8
1
  6
Continuous
 62
    45
370
     9
100
AcDbLine
 10
1389.523548493684
 20
802.2748791595893
 30
0.0
 11
1359.523548493684
 21
802.2748791595893
 31
0.0
  0
LINE
  5
F6
330
1F
100
AcDbEntity
  8
1
  6
Continuous
 62
    45
370
     9
100
AcDbLine
 10
423.5235484936838
 20
802.2748791595893
 30
0.0
 11
393.5235484936838
 21
802.2748791595893
 31
0.0
  0
LINE
  5
F7
330
1F
100
AcDbEntity
  8
1
  6
Continuous
 62
    45
370
     9
100
AcDbLine
 10
1359.523548493684
 20
958.274952773929
 30
0.0
 11
1359.523548493684
 21
799.2748791595893
 31
0.0
  0
LINE
  5
F8
330
1F
100
AcDbEntity
  8
1
  6
Continuous
 62
    45
370
     9
100
AcDbLine
 10
1389.523548493684
 20
799.2748791595893
 30
0.0
 11
1389.523548493684
 21
958.274952773929
 31
0.0
  0
LINE
  5
F9
330
1F
100
AcDbEntity
  8
1
  6
Continuous
 62
    45
370
     9
100
AcDbLine
 10
393.5235484936838
 20
958.274952773929
 30
0.0
 11
393.5235484936838
 21
799.2748791595893
 31
0.0
  0
LINE
  5
FA
330
1F
100
AcDbEntity
  8
1
  6
Continuous
 62
    45
370
     9
100
AcDbLine
 10
423.5235484936838
 20
799.2748791595893
 30
0.0
 11
423.5235484936838
 21
958.274952773929
 31
0.0
  0
LINE
  5
FB
330
1F
100
AcDbEntity
  8
1
  6
DASHDOT
 62
    45
370
     9
100
AcDbLine
 10
408.5235484936838
 20
992.0378858024694
 30
0.0
 11
408.5235484936838
 21
765.6912191358019
 31
0.0
  0
LINE
  5
FC
330
1F
100
AcDbEntity
  8
1
  6
DASHDOT
 62
    45
370
     9
100
AcDbLine
 10
1374.523548493684
 20
992.0378858024694
 30
0.0
 11
1374.523548493684
 21
765.6912191358019
 31
0.0
  0
LINE
  5
FD
330
1F
100
AcDbEntity
  8
1
  6
DASHDOT
 62
    45
370
     9
100
AcDbLine
 10
441.5235484936838
 20
992.0378858024694
 30
0.0
 11
441.5235484936838
 21
765.6912191358019
 31
0.0
  0
LINE
  5
FE
330
1F
100
AcDbEntity
  8
1
  6
DASHDOT
 62
    45
370
     9
100
AcDbLine
 10
1341.523548493684
 20
992.0378858024694
 30
0.0
 11
1341.523548493684
 21
765.6912191358019
 31
0.0
  0
LINE
  5
FF
330
1F
100
AcDbEntity
  8
1
  6
Continuous
 62
    45
370
     9
100
AcDbLine
 10
706.523548493684
 20
955.274952773929
 30
0.0
 11
676.523548493684
 21
955.274952773929
 31
0.0
  0
LINE
  5
100
330
1F
100
AcDbEntity
  8
1
  6
Continuous
 62
    45
370
     9
100
AcDbLine
 10
706.523548493684
 20
802.2748791595893
 30
0.0
 11
676.523548493684
 21
802.2748791595893
 31
0.0
  0
LINE
  5
101
330
1F
100
AcDbEntity
  8
1
  6
Continuous
 62
    45
370
     9
100
AcDbLine
 10
676.523548493684
 20
958.274952773929
 30
0.0
 11
676.523548493684
 21
799.2748791595893
 31
0.0
  0
LINE
  5
102
330
1F
100
AcDbEntity
  8
1
  6
Continuous
 62
    45
370
     9
100
AcDbLine
 10
706.523548493684
 20
799.2748791595893
 30
0.0
 11
706.523548493684
 21
958.274952773929
 31
0.0
  0
LINE
  5
103
330
1F
100
AcDbEntity
  8
1
  6
DASHDOT
 62
    45
370
     9
100
AcDbLine
 10
691.523548493684
 20
992.0378858024694
 30
0.0
 11
691.523548493684
 21
765.6912191358019
 31
0.0
  0
LINE
  5
104
330
1F
100
AcDbEntity
  8
1
  6
Continuous
 62
    45
370
     9
100
AcDbLine
 10
1106.523548493684
 20
955.274952773929
 30
0.0
 11
1076.523548493684
 21
955.274952773929
 31
0.0
  0
LINE
  5
105
330
1F
100
AcDbEntity
  8
1
  6
Continuous
 62
    45
370
     9
100
AcDbLine
 10
1106.523548493684
 20
802.2748791595893
 30
0.0
 11
1076.523548493684
 21
802.2748791595893
 31
0.0
  0
LINE
  5
106
330
1F
100
AcDbEntity
  8
1
  6
Continuous
 62
    45
370
     9
100
AcDbLine
 10
1076.523548493684
 20
958.274952773929
 30
0.0
 11
1076.523548493684
 21
799.2748791595893
 31
0.0
  0
LINE
  5
107
330
1F
100
AcDbEntity
  8
1
  6
Continuous
 62
    45
370
     9
100
AcDbLine
 10
1106.523548493684
 20
799.2748791595893
 30
0.0
 11
1106.523548493684
 21
958.274952773929
 31
0.0
  0
LINE
  5
108
330
1F
100
AcDbEntity
  8
1
  6
DASHDOT
 62
    45
370
     9
100
AcDbLine
 10
1091.523548493684
 20
992.0378858024694
 30
0.0
 11
1091.523548493684
 21
765.6912191358019
 31
0.0
  0
LINE
  5
109
330
1F
100
AcDbEntity
  8
1
  6
DASHDOT
 62
    45
370
     9
100
AcDbLine
 10
541.5235484936841
 20
992.0378858024694
 30
0.0
 11
541.5235484936841
 21
765.6912191358019
 31
0.0
  0
LINE
  5
10A
330
1F
100
AcDbEntity
  8
1
  6
DASHDOT
 62
    45
370
     9
100
AcDbLine
 10
641.5235484936841
 20
992.0378858024694
 30
0.0
 11
641.5235484936841
 21
765.6912191358019
 31
0.0
  0
LINE
  5
10B
330
1F
100
AcDbEntity
  8
1
  6
DASHDOT
 62
    45
370
     9
100
AcDbLine
 10
741.5235484936841
 20
992.0378858024694
 30
0.0
 11
741.5235484936841
 21
765.6912191358019
 31
0.0
  0
LINE
  5
10C
330
1F
100
AcDbEntity
  8
1
  6
DASHDOT
 62
    45
370
     9
100
AcDbLine
 10
841.5235484936841
 20
992.0378858024694
 30
0.0
 11
841.5235484936841
 21
765.6912191358019
 31
0.0
  0
LINE
  5
10D
330
1F
100
AcDbEntity
  8
1
  6
DASHDOT
 62
    45
370
     9
100
AcDbLine
 10
941.5235484936841
 20
992.0378858024694
 30
0.0
 11
941.5235484936841
 21
765.6912191358019
 31
0.0
  0
LINE
  5
10E
330
1F
100
AcDbEntity
  8
1
  6
DASHDOT
 62
    45
370
     9
100
AcDbLine
 10
1041.523548493684
 20
992.0378858024694
 30
0.0
 11
1041.523548493684
 21
765.6912191358019
 31
0.0
  0
LINE
  5
10F
330
1F
100
AcDbEntity
  8
1
  6
DASHDOT
 62
    45
370
     9
100
AcDbLine
 10
1141.523548493684
 20
992.0378858024694
 30
0.0
 11
1141.523548493684
 21
765.6912191358019
 31
0.0
  0
LINE
  5
110
330
1F
100
AcDbEntity
  8
1
  6
DASHDOT
 62
    45
370
     9
100
AcDbLine
 10
1241.523548493684
 20
992.0378858024694
 30
0.0
 11
1241.523548493684
 21
765.6912191358019
 31
0.0
  0
LINE
  5
111
330
1F
100
AcDbEntity
  8
3
  6
Continuous
 62
     6
370
    18
100
AcDbLine
 10
392.0235484936838
 20
958.274952773929
 30
0.0
 11
392.0235484936838
 21
986.274952773929
 31
0.0
  0
LINE
  5
112
330
1F
100
AcDbEntity
  8
3
  6
Continuous
 62
     6
370
    18
100
AcDbLine
 10
392.0235484936838
 20
986.274952773929
 30
0.0
 11
394.0235484936838
 21
988.274952773929
 31
0.0
  0
LINE
  5
113
330
1F
100
AcDbEntity
  8
3
  6
Continuous
 62
     6
370
    18
100
AcDbLine
 10
392.0235484936838
 20
799.2748791595893
 30
0.0
 11
392.0235484936838
 21
771.2748791595893
 31
0.0
  0
LINE
  5
114
330
1F
100
AcDbEntity
  8
3
  6
Continuous
 62
     6
370
    18
100
AcDbLine
 10
392.0235484936838
 20
771.2748791595893
 30
0.0
 11
394.0235484936838
 21
769.2748791595893
 31
0.0
  0
LINE
  5
115
330
1F
100
AcDbEntity
  8
3
  6
Continuous
 62
     6
370
    18
100
AcDbLine
 10
394.0235484936838
 20
769.2748791595893
 30
0.0
 11
1389.023548493684
 21
769.2748791595893
 31
0.0
  0
LINE
  5
116
330
1F
100
AcDbEntity
  8
3
  6
Continuous
 62
     6
370
    18
100
AcDbLine
 10
1391.023548493684
 20
799.2748791595893
 30
0.0
 11
1391.023548493684
 21
771.2748791595893
 31
0.0
  0
LINE
  5
117
330
1F
100
AcDbEntity
  8
3
  6
Continuous
 62
     6
370
    18
100
AcDbLine
 10
1389.023548493684
 20
769.2748791595893
 30
0.0
 11
1391.023548493684
 21
771.2748791595893
 31
0.0
  0
LINE
  5
118
330
1F
100
AcDbEntity
  8
3
  6
Continuous
 62
     6
370
    18
100
AcDbLine
 10
394.0235484936838
 20
988.274952773929
 30
0.0
 11
1389.023548493684
 21
988.274952773929
 31
0.0
  0
LINE
  5
119
330
1F
100
AcDbEntity
  8
3
  6
Continuous
 62
     6
370
    18
100
AcDbLine
 10
1391.023548493684
 20
958.274952773929
 30
0.0
 11
1391.023548493684
 21
986.274952773929
 31
0.0
  0
LINE
  5
11A
330
1F
100
AcDbEntity
  8
3
  6
Continuous
 62
     6
370
    18
100
AcDbLine
 10
1389.023548493684
 20
988.274952773929
 30
0.0
 11
1391.023548493684
 21
986.274952773929
 31
0.0
  0
LINE
  5
11B
330
1F
100
AcDbEntity
  8
1
  6
Continuous
 62
    45
370
     9
100
AcDbLine
 10
393.5235484936838
 20
830.274897563901
 30
0.0
 11
1389.523548493684
 21
830.274897563901
 31
0.0
  0
LINE
  5
11C
330
1F
100
AcDbEntity
  8
1
  6
Continuous
 62
    45
370
     9
100
AcDbLine
 10
393.5235484936838
 20
825.274897563901
 30
0.0
 11
1389.523548493684
 21
825.274897563901
 31
0.0
  0
LINE
  5
11D
330
1F
100
AcDbEntity
  8
1
  6
Continuous
 62
    45
370
     9
100
AcDbLine
 10
393.5235484936838
 20
842.274897563902
 30
0.0
 11
1389.523548493684
 21
842.274897563902
 31
0.0
  0
LINE
  5
11E
330
1F
100
AcDbEntity
  8
1
  6
Continuous
 62
    45
370
     9
100
AcDbLine
 10
393.5235484936838
 20
847.274897563902
 30
0.0
 11
1389.523548493684
 21
847.274897563902
 31
0.0
  0
LINE
  5
11F
330
1F
100
AcDbEntity
  8
1
  6
Continuous
 62
    45
370
     9
100
AcDbLine
 10
393.5235484936838
 20
859.2748975638979
 30
0.0
 11
1389.523548493684
 21
859.2748975638979
 31
0.0
  0
LINE
  5
120
330
1F
100
AcDbEntity
  8
1
  6
Continuous
 62
    45
370
     9
100
AcDbLine
 10
393.5235484936838
 20
864.2748975638979
 30
0.0
 11
1389.523548493684
 21
864.2748975638979
 31
0.0
  0
LINE
  5
121
330
1F
100
AcDbEntity
  8
1
  6
Continuous
 62
    45
370
     9
100
AcDbLine
 10
393.5235484936838
 20
881.2748975638988
 30
0.0
 11
1389.523548493684
 21
881.2748975638988
 31
0.0
  0
LINE
  5
122
330
1F
100
AcDbEntity
  8
1
  6
Continuous
 62
    45
370
     9
100
AcDbLine
 10
393.5235484936838
 20
876.2748975638988
 30
0.0
 11
1389.523548493684
 21
876.2748975638988
 31
0.0
  0
LINE
  5
123
330
1F
100
AcDbEntity
  8
1
  6
Continuous
 62
    45
370
     9
100
AcDbLine
 10
393.5235484936838
 20
898.2748975638992
 30
0.0
 11
1389.523548493684
 21
898.2748975638992
 31
0.0
  0
LINE
  5
124
330
1F
100
AcDbEntity
  8
1
  6
Continuous
 62
    45
370
     9
100
AcDbLine
 10
393.5235484936838
 20
893.2748975638992
 30
0.0
 11
1389.523548493684
 21
893.2748975638992
 31
0.0
  0
LINE
  5
125
330
1F
100
AcDbEntity
  8
1
  6
Continuous
 62
    45
370
     9
100
AcDbLine
 10
393.5235484936838
 20
915.2748975639001
 30
0.0
 11
1389.523548493684
 21
915.2748975639001
 31
0.0
  0
LINE
  5
126
330
1F
100
AcDbEntity
  8
1
  6
Continuous
 62
    45
370
     9
100
AcDbLine
 10
393.5235484936838
 20
910.2748975639001
 30
0.0
 11
1389.523548493684
 21
910.2748975639001
 31
0.0
  0
LINE
  5
127
330
1F
100
AcDbEntity
  8
1
  6
Continuous
 62
    45
370
     9
100
AcDbLine
 10
393.5235484936838
 20
927.2748975638992
 30
0.0
 11
1389.523548493684
 21
927.2748975638992
 31
0.0
  0
LINE
  5
128
330
1F
100
AcDbEntity
  8
1
  6
Continuous
 62
    45
370
     9
100
AcDbLine
 10
393.5235484936838
 20
932.2748975638992
 30
0.0
 11
1389.523548493684
 21
932.2748975638992
 31
0.0
  0
LINE
  5
129
330
1F
100
AcDbEntity
  8
1
  6
Continuous
 62
    45
370
     9
100
AcDbLine
 10
393.5235484936838
 20
944.0748975638983
 30
0.0
 11
1389.523548493684
 21
944.0748975638983
 31
0.0
  0
LINE
  5
12A
330
1F
100
AcDbEntity
  8
1
  6
Continuous
 62
    45
370
     9
100
AcDbLine
 10
393.5235484936838
 20
949.0748975638983
 30
0.0
 11
1389.523548493684
 21
949.0748975638983
 31
0.0
  0
LINE
  5
12B
330
1F
100
AcDbEntity
  8
1
  6
Continuous
 62
    45
370
     9
100
AcDbLine
 10
393.5235484936838
 20
808.4748975639006
 30
0.0
 11
1389.523548493684
 21
808.4748975639006
 31
0.0
  0
LINE
  5
12C
330
1F
100
AcDbEntity
  8
1
  6
Continuous
 62
    45
370
     9
100
AcDbLine
 10
393.5235484936838
 20
813.4748975639006
 30
0.0
 11
1389.523548493684
 21
813.4748975639006
 31
0.0
  0
LINE
  5
12D
330
1F
100
AcDbEntity
  8
1
  6
Continuous
 62
    45
370
     9
100
AcDbLine
 10
435.0235484936838
 20
833.4748975639018
 30
0.0
 11
435.0235484936838
 21
839.0748975639017
 31
0.0
  0
LINE
  5
12E
330
1F
100
AcDbEntity
  8
1
  6
Continuous
 62
    45
370
     9
100
AcDbLine
 10
448.0235484936838
 20
833.4748975639018
 30
0.0
 11
448.0235484936838
 21
839.0748975639017
 31
0.0
  0
LINE
  5
12F
330
1F
100
AcDbEntity
  8
1
  6
Continuous
 62
    45
370
     9
100
AcDbLine
 10
435.0235484936838
 20
856.0748975638976
 30
0.0
 11
435.0235484936838
 21
850.4748975638977
 31
0.0
  0
LINE
  5
130
330
1F
100
AcDbEntity
  8
1
  6
Continuous
 62
    45
370
     9
100
AcDbLine
 10
448.0235484936838
 20
856.0748975638976
 30
0.0
 11
448.0235484936838
 21
850.4748975638977
 31
0.0
  0
LINE
  5
131
330
1F
100
AcDbEntity
  8
1
  6
Continuous
 62
    45
370
     9
100
AcDbLine
 10
435.0235484936838
 20
873.0748975638985
 30
0.0
 11
435.0235484936838
 21
867.4748975638981
 31
0.0
  0
LINE
  5
132
330
1F
100
AcDbEntity
  8
1
  6
Continuous
 62
    45
370
     9
100
AcDbLine
 10
435.0235484936838
 20
890.074897563899
 30
0.0
 11
435.0235484936838
 21
884.474897563899
 31
0.0
  0
LINE
  5
133
330
1F
100
AcDbEntity
  8
1
  6
Continuous
 62
    45
370
     9
100
AcDbLine
 10
448.0235484936838
 20
890.074897563899
 30
0.0
 11
448.0235484936838
 21
884.474897563899
 31
0.0
  0
LINE
  5
134
330
1F
100
AcDbEntity
  8
1
  6
Continuous
 62
    45
370
     9
100
AcDbLine
 10
435.0235484936838
 20
907.0748975638999
 30
0.0
 11
435.0235484936838
 21
901.4748975638995
 31
0.0
  0
LINE
  5
135
330
1F
100
AcDbEntity
  8
1
  6
Continuous
 62
    45
370
     9
100
AcDbLine
 10
448.0235484936838
 20
907.0748975638999
 30
0.0
 11
448.0235484936838
 21
901.4748975638995
 31
0.0
  0
LINE
  5
136
330
1F
100
AcDbEntity
  8
1
  6
Continuous
 62
    45
370
     9
100
AcDbLine
 10
435.0235484936838
 20
924.0748975639003
 30
0.0
 11
435.0235484936838
 21
918.4748975639004
 31
0.0
  0
LINE
  5
137
330
1F
100
AcDbEntity
  8
1
  6
Continuous
 62
    45
370
     9
100
AcDbLine
 10
448.0235484936838
 20
924.0748975639003
 30
0.0
 11
448.0235484936838
 21
918.4748975639004
 31
0.0
  0
LINE
  5
138
330
1F
100
AcDbEntity
  8
1
  6
Continuous
 62
    45
370
     9
100
AcDbLine
 10
448.0235484936838
 20
873.0748975638985
 30
0.0
 11
448.0235484936838
 21
870.2748975639006
 31
0.0
  0
LINE
  5
139
330
1F
100
AcDbEntity
  8
1
  6
Continuous
 62
    45
370
     9
100
AcDbLine
 10
448.0235484936838
 20
870.2748975639006
 30
0.0
 11
448.0235484936838
 21
867.4748975638981
 31
0.0
  0
LINE
  5
13A
330
1F
100
AcDbEntity
  8
1
  6
Continuous
 62
    45
370
     9
100
AcDbLine
 10
435.0235484936838
 20
940.8748975638994
 30
0.0
 11
435.0235484936838
 21
935.4748975638995
 31
0.0
  0
LINE
  5
13B
330
1F
100
AcDbEntity
  8
1
  6
Continuous
 62
    45
370
     9
100
AcDbLine
 10
448.0235484936838
 20
940.8748975638994
 30
0.0
 11
448.0235484936838
 21
935.4748975638995
 31
0.0
  0
LINE
  5
13C
330
1F
100
AcDbEntity
  8
1
  6
Continuous
 62
    45
370
     9
100
AcDbLine
 10
448.0235484936838
 20
958.274952773929
 30
0.0
 11
448.0235484936838
 21
952.2748975632092
 31
0.0
  0
LINE
  5
13D
330
1F
100
AcDbEntity
  8
1
  6
Continuous
 62
    45
370
     9
100
AcDbLine
 10
435.0235484936838
 20
958.274952773929
 30
0.0
 11
435.0235484936838
 21
952.2748975632092
 31
0.0
  0
LINE
  5
13E
330
1F
100
AcDbEntity
  8
1
  6
Continuous
 62
    45
370
     9
100
AcDbLine
 10
435.0235484936838
 20
816.6748975639009
 30
0.0
 11
435.0235484936838
 21
822.0748975639012
 31
0.0
  0
LINE
  5
13F
330
1F
100
AcDbEntity
  8
1
  6
Continuous
 62
    45
370
     9
100
AcDbLine
 10
448.0235484936838
 20
816.6748975639009
 30
0.0
 11
448.0235484936838
 21
822.0748975639012
 31
0.0
  0
LINE
  5
140
330
1F
100
AcDbEntity
  8
1
  6
Continuous
 62
    45
370
     9
100
AcDbLine
 10
448.0235484936838
 20
799.2748791595893
 30
0.0
 11
448.0235484936838
 21
805.2748975639008
 31
0.0
  0
LINE
  5
141
330
1F
100
AcDbEntity
  8
1
  6
Continuous
 62
    45
370
     9
100
AcDbLine
 10
435.0235484936838
 20
799.2748791595893
 30
0.0
 11
435.0235484936838
 21
805.2748975639008
 31
0.0
  0
LINE
  5
142
330
1F
100
AcDbEntity
  8
1
  6
Continuous
 62
    45
370
     9
100
AcDbLine
 10
1348.023548493684
 20
833.4748975639018
 30
0.0
 11
1348.023548493684
 21
839.0748975639017
 31
0.0
  0
LINE
  5
143
330
1F
100
AcDbEntity
  8
1
  6
Continuous
 62
    45
370
     9
100
AcDbLine
 10
1335.023548493684
 20
833.4748975639018
 30
0.0
 11
1335.023548493684
 21
839.0748975639017
 31
0.0
  0
LINE
  5
144
330
1F
100
AcDbEntity
  8
1
  6
Continuous
 62
    45
370
     9
100
AcDbLine
 10
1348.023548493684
 20
856.0748975638976
 30
0.0
 11
1348.023548493684
 21
850.4748975638977
 31
0.0
  0
LINE
  5
145
330
1F
100
AcDbEntity
  8
1
  6
Continuous
 62
    45
370
     9
100
AcDbLine
 10
1335.023548493684
 20
856.0748975638976
 30
0.0
 11
1335.023548493684
 21
850.4748975638977
 31
0.0
  0
LINE
  5
146
330
1F
100
AcDbEntity
  8
1
  6
Continuous
 62
    45
370
     9
100
AcDbLine
 10
1348.023548493684
 20
873.0748975638985
 30
0.0
 11
1348.023548493684
 21
867.4748975638981
 31
0.0
  0
LINE
  5
147
330
1F
100
AcDbEntity
  8
1
  6
Continuous
 62
    45
370
     9
100
AcDbLine
 10
1348.023548493684
 20
890.074897563899
 30
0.0
 11
1348.023548493684
 21
884.474897563899
 31
0.0
  0
LINE
  5
148
330
1F
100
AcDbEntity
  8
1
  6
Continuous
 62
    45
370
     9
100
AcDbLine
 10
1335.023548493684
 20
890.074897563899
 30
0.0
 11
1335.023548493684
 21
884.474897563899
 31
0.0
  0
LINE
  5
149
330
1F
100
AcDbEntity
  8
1
  6
Continuous
 62
    45
370
     9
100
AcDbLine
 10
1348.023548493684
 20
907.0748975638999
 30
0.0
 11
1348.023548493684
 21
901.4748975638995
 31
0.0
  0
LINE
  5
14A
330
1F
100
AcDbEntity
  8
1
  6
Continuous
 62
    45
370
     9
100
AcDbLine
 10
1335.023548493684
 20
907.0748975638999
 30
0.0
 11
1335.023548493684
 21
901.4748975638995
 31
0.0
  0
LINE
  5
14B
330
1F
100
AcDbEntity
  8
1
  6
Continuous
 62
    45
370
     9
100
AcDbLine
 10
1348.023548493684
 20
924.0748975639003
 30
0.0
 11
1348.023548493684
 21
918.4748975639004
 31
0.0
  0
LINE
  5
14C
330
1F
100
AcDbEntity
  8
1
  6
Continuous
 62
    45
370
     9
100
AcDbLine
 10
1335.023548493684
 20
924.0748975639003
 30
0.0
 11
1335.023548493684
 21
918.4748975639004
 31
0.0
  0
LINE
  5
14D
330
1F
100
AcDbEntity
  8
1
  6
Continuous
 62
    45
370
     9
100
AcDbLine
 10
1335.023548493684
 20
873.0748975638985
 30
0.0
 11
1335.023548493684
 21
870.2748975639006
 31
0.0
  0
LINE
  5
14E
330
1F
100
AcDbEntity
  8
1
  6
Continuous
 62
    45
370
     9
100
AcDbLine
 10
1335.023548493684
 20
870.2748975639006
 30
0.0
 11
1335.023548493684
 21
867.4748975638981
 31
0.0
  0
LINE
  5
14F
330
1F
100
AcDbEntity
  8
1
  6
Continuous
 62
    45
370
     9
100
AcDbLine
 10
1348.023548493684
 20
940.8748975638994
 30
0.0
 11
1348.023548493684
 21
935.4748975638995
 31
0.0
  0
LINE
  5
150
330
1F
100
AcDbEntity
  8
1
  6
Continuous
 62
    45
370
     9
100
AcDbLine
 10
1335.023548493684
 20
940.8748975638994
 30
0.0
 11
1335.023548493684
 21
935.4748975638995
 31
0.0
  0
LINE
  5
151
330
1F
100
AcDbEntity
  8
1
  6
Continuous
 62
    45
370
     9
100
AcDbLine
 10
1335.023548493684
 20
958.274952773929
 30
0.0
 11
1335.023548493684
 21
952.2748975632092
 31
0.0
  0
LINE
  5
152
330
1F
100
AcDbEntity
  8
1
  6
Continuous
 62
    45
370
     9
100
AcDbLine
 10
1348.023548493684
 20
958.274952773929
 30
0.0
 11
1348.023548493684
 21
952.2748975632092
 31
0.0
  0
LINE
  5
153
330
1F
100
AcDbEntity
  8
1
  6
Continuous
 62
    45
370
     9
100
AcDbLine
 10
1348.023548493684
 20
816.6748975639009
 30
0.0
 11
1348.023548493684
 21
822.0748975639012
 31
0.0
  0
LINE
  5
154
330
1F
100
AcDbEntity
  8
1
  6
Continuous
 62
    45
370
     9
100
AcDbLine
 10
1335.023548493684
 20
816.6748975639009
 30
0.0
 11
1335.023548493684
 21
822.0748975639012
 31
0.0
  0
LINE
  5
155
330
1F
100
AcDbEntity
  8
1
  6
Continuous
 62
    45
370
     9
100
AcDbLine
 10
1335.023548493684
 20
799.2748791595893
 30
0.0
 11
1335.023548493684
 21
805.2748975639008
 31
0.0
  0
LINE
  5
156
330
1F
100
AcDbEntity
  8
1
  6
Continuous
 62
    45
370
     9
100
AcDbLine
 10
1348.023548493684
 20
799.2748791595893
 30
0.0
 11
1348.023548493684
 21
805.2748975639008
 31
0.0
  0
LINE
  5
157
330
1F
100
AcDbEntity
  8
1
  6
Continuous
 62
    45
370
     9
100
AcDbLine
 10
535.0235484936841
 20
833.4748975639018
 30
0.0
 11
535.0235484936841
 21
839.0748975639017
 31
0.0
  0
LINE
  5
158
330
1F
100
AcDbEntity
  8
1
  6
Continuous
 62
    45
370
     9
100
AcDbLine
 10
548.0235484936841
 20
833.4748975639018
 30
0.0
 11
548.0235484936841
 21
839.0748975639017
 31
0.0
  0
LINE
  5
159
330
1F
100
AcDbEntity
  8
1
  6
Continuous
 62
    45
370
     9
100
AcDbLine
 10
535.0235484936841
 20
856.0748975638976
 30
0.0
 11
535.0235484936841
 21
850.4748975638977
 31
0.0
  0
LINE
  5
15A
330
1F
100
AcDbEntity
  8
1
  6
Continuous
 62
    45
370
     9
100
AcDbLine
 10
548.0235484936841
 20
856.0748975638976
 30
0.0
 11
548.0235484936841
 21
850.4748975638977
 31
0.0
  0
LINE
  5
15B
330
1F
100
AcDbEntity
  8
1
  6
Continuous
 62
    45
370
     9
100
AcDbLine
 10
535.0235484936841
 20
873.0748975638985
 30
0.0
 11
535.0235484936841
 21
867.4748975638981
 31
0.0
  0
LINE
  5
15C
330
1F
100
AcDbEntity
  8
1
  6
Continuous
 62
    45
370
     9
100
AcDbLine
 10
535.0235484936841
 20
890.074897563899
 30
0.0
 11
535.0235484936841
 21
884.474897563899
 31
0.0
  0
LINE
  5
15D
330
1F
100
AcDbEntity
  8
1
  6
Continuous
 62
    45
370
     9
100
AcDbLine
 10
548.0235484936841
 20
890.074897563899
 30
0.0
 11
548.0235484936841
 21
884.474897563899
 31
0.0
  0
LINE
  5
15E
330
1F
100
AcDbEntity
  8
1
  6
Continuous
 62
    45
370
     9
100
AcDbLine
 10
535.0235484936841
 20
907.0748975638999
 30
0.0
 11
535.0235484936841
 21
901.4748975638995
 31
0.0
  0
LINE
  5
15F
330
1F
100
AcDbEntity
  8
1
  6
Continuous
 62
    45
370
     9
100
AcDbLine
 10
548.0235484936841
 20
907.0748975638999
 30
0.0
 11
548.0235484936841
 21
901.4748975638995
 31
0.0
  0
LINE
  5
160
330
1F
100
AcDbEntity
  8
1
  6
Continuous
 62
    45
370
     9
100
AcDbLine
 10
535.0235484936841
 20
924.0748975639003
 30
0.0
 11
535.0235484936841
 21
918.4748975639004
 31
0.0
  0
LINE
  5
161
330
1F
100
AcDbEntity
  8
1
  6
Continuous
 62
    45
370
     9
100
AcDbLine
 10
548.0235484936841
 20
924.0748975639003
 30
0.0
 11
548.0235484936841
 21
918.4748975639004
 31
0.0
  0
LINE
  5
162
330
1F
100
AcDbEntity
  8
1
  6
Continuous
 62
    45
370
     9
100
AcDbLine
 10
548.0235484936841
 20
873.0748975638985
 30
0.0
 11
548.0235484936841
 21
870.2748975639006
 31
0.0
  0
LINE
  5
163
330
1F
100
AcDbEntity
  8
1
  6
Continuous
 62
    45
370
     9
100
AcDbLine
 10
548.0235484936841
 20
870.2748975639006
 30
0.0
 11
548.0235484936841
 21
867.4748975638981
 31
0.0
  0
LINE
  5
164
330
1F
100
AcDbEntity
  8
1
  6
Continuous
 62
    45
370
     9
100
AcDbLine
 10
535.0235484936841
 20
940.8748975638994
 30
0.0
 11
535.0235484936841
 21
935.4748975638995
 31
0.0
  0
LINE
  5
165
330
1F
100
AcDbEntity
  8
1
  6
Continuous
 62
    45
370
     9
100
AcDbLine
 10
548.0235484936841
 20
940.8748975638994
 30
0.0
 11
548.0235484936841
 21
935.4748975638995
 31
0.0
  0
LINE
  5
166
330
1F
100
AcDbEntity
  8
1
  6
Continuous
 62
    45
370
     9
100
AcDbLine
 10
548.0235484936841
 20
958.274952773929
 30
0.0
 11
548.0235484936841
 21
952.2748975632092
 31
0.0
  0
LINE
  5
167
330
1F
100
AcDbEntity
  8
1
  6
Continuous
 62
    45
370
     9
100
AcDbLine
 10
535.0235484936841
 20
958.274952773929
 30
0.0
 11
535.0235484936841
 21
952.2748975632092
 31
0.0
  0
LINE
  5
168
330
1F
100
AcDbEntity
  8
1
  6
Continuous
 62
    45
370
     9
100
AcDbLine
 10
535.0235484936841
 20
816.6748975639009
 30
0.0
 11
535.0235484936841
 21
822.0748975639012
 31
0.0
  0
LINE
  5
169
330
1F
100
AcDbEntity
  8
1
  6
Continuous
 62
    45
370
     9
100
AcDbLine
 10
548.0235484936841
 20
816.6748975639009
 30
0.0
 11
548.0235484936841
 21
822.0748975639012
 31
0.0
  0
LINE
  5
16A
330
1F
100
AcDbEntity
  8
1
  6
Continuous
 62
    45
370
     9
100
AcDbLine
 10
548.0235484936841
 20
799.2748791595893
 30
0.0
 11
548.0235484936841
 21
805.2748975639008
 31
0.0
  0
LINE
  5
16B
330
1F
100
AcDbEntity
  8
1
  6
Continuous
 62
    45
370
     9
100
AcDbLine
 10
535.0235484936841
 20
799.2748791595893
 30
0.0
 11
535.0235484936841
 21
805.2748975639008
 31
0.0
  0
LINE
  5
16C
330
1F
100
AcDbEntity
  8
1
  6
Continuous
 62
    45
370
     9
100
AcDbLine
 10
635.0235484936841
 20
833.4748975639018
 30
0.0
 11
635.0235484936841
 21
839.0748975639017
 31
0.0
  0
LINE
  5
16D
330
1F
100
AcDbEntity
  8
1
  6
Continuous
 62
    45
370
     9
100
AcDbLine
 10
648.0235484936841
 20
833.4748975639018
 30
0.0
 11
648.0235484936841
 21
839.0748975639017
 31
0.0
  0
LINE
  5
16E
330
1F
100
AcDbEntity
  8
1
  6
Continuous
 62
    45
370
     9
100
AcDbLine
 10
635.0235484936841
 20
856.0748975638976
 30
0.0
 11
635.0235484936841
 21
850.4748975638977
 31
0.0
  0
LINE
  5
16F
330
1F
100
AcDbEntity
  8
1
  6
Continuous
 62
    45
370
     9
100
AcDbLine
 10
648.0235484936841
 20
856.0748975638976
 30
0.0
 11
648.0235484936841
 21
850.4748975638977
 31
0.0
  0
LINE
  5
170
330
1F
100
AcDbEntity
  8
1
  6
Continuous
 62
    45
370
     9
100
AcDbLine
 10
635.0235484936841
 20
873.0748975638985
 30
0.0
 11
635.0235484936841
 21
867.4748975638981
 31
0.0
  0
LINE
  5
171
330
1F
100
AcDbEntity
  8
1
  6
Continuous
 62
    45
370
     9
100
AcDbLine
 10
635.0235484936841
 20
890.074897563899
 30
0.0
 11
635.0235484936841
 21
884.474897563899
 31
0.0
  0
LINE
  5
172
330
1F
100
AcDbEntity
  8
1
  6
Continuous
 62
    45
370
     9
100
AcDbLine
 10
648.0235484936841
 20
890.074897563899
 30
0.0
 11
648.0235484936841
 21
884.474897563899
 31
0.0
  0
LINE
  5
173
330
1F
100
AcDbEntity
  8
1
  6
Continuous
 62
    45
370
     9
100
AcDbLine
 10
635.0235484936841
 20
907.0748975638999
 30
0.0
 11
635.0235484936841
 21
901.4748975638995
 31
0.0
  0
LINE
  5
174
330
1F
100
AcDbEntity
  8
1
  6
Continuous
 62
    45
370
     9
100
AcDbLine
 10
648.0235484936841
 20
907.0748975638999
 30
0.0
 11
648.0235484936841
 21
901.4748975638995
 31
0.0
  0
LINE
  5
175
330
1F
100
AcDbEntity
  8
1
  6
Continuous
 62
    45
370
     9
100
AcDbLine
 10
635.0235484936841
 20
924.0748975639003
 30
0.0
 11
635.0235484936841
 21
918.4748975639004
 31
0.0
  0
LINE
  5
176
330
1F
100
AcDbEntity
  8
1
  6
Continuous
 62
    45
370
     9
100
AcDbLine
 10
648.0235484936841
 20
924.0748975639003
 30
0.0
 11
648.0235484936841
 21
918.4748975639004
 31
0.0
  0
LINE
  5
177
330
1F
100
AcDbEntity
  8
1
  6
Continuous
 62
    45
370
     9
100
AcDbLine
 10
648.0235484936841
 20
873.0748975638985
 30
0.0
 11
648.0235484936841
 21
870.2748975639006
 31
0.0
  0
LINE
  5
178
330
1F
100
AcDbEntity
  8
1
  6
Continuous
 62
    45
370
     9
100
AcDbLine
 10
648.0235484936841
 20
870.2748975639006
 30
0.0
 11
648.0235484936841
 21
867.4748975638981
 31
0.0
  0
LINE
  5
179
330
1F
100
AcDbEntity
  8
1
  6
Continuous
 62
    45
370
     9
100
AcDbLine
 10
635.0235484936841
 20
940.8748975638994
 30
0.0
 11
635.0235484936841
 21
935.4748975638995
 31
0.0
  0
LINE
  5
17A
330
1F
100
AcDbEntity
  8
1
  6
Continuous
 62
    45
370
     9
100
AcDbLine
 10
648.0235484936841
 20
940.8748975638994
 30
0.0
 11
648.0235484936841
 21
935.4748975638995
 31
0.0
  0
LINE
  5
17B
330
1F
100
AcDbEntity
  8
1
  6
Continuous
 62
    45
370
     9
100
AcDbLine
 10
648.0235484936841
 20
958.274952773929
 30
0.0
 11
648.0235484936841
 21
952.2748975632092
 31
0.0
  0
LINE
  5
17C
330
1F
100
AcDbEntity
  8
1
  6
Continuous
 62
    45
370
     9
100
AcDbLine
 10
635.0235484936841
 20
958.274952773929
 30
0.0
 11
635.0235484936841
 21
952.2748975632092
 31
0.0
  0
LINE
  5
17D
330
1F
100
AcDbEntity
  8
1
  6
Continuous
 62
    45
370
     9
100
AcDbLine
 10
635.0235484936841
 20
816.6748975639009
 30
0.0
 11
635.0235484936841
 21
822.0748975639012
 31
0.0
  0
LINE
  5
17E
330
1F
100
AcDbEntity
  8
1
  6
Continuous
 62
    45
370
     9
100
AcDbLine
 10
648.0235484936841
 20
816.6748975639009
 30
0.0
 11
648.0235484936841
 21
822.0748975639012
 31
0.0
  0
LINE
  5
17F
330
1F
100
AcDbEntity
  8
1
  6
Continuous
 62
    45
370
     9
100
AcDbLine
 10
648.0235484936841
 20
799.2748791595893
 30
0.0
 11
648.0235484936841
 21
805.2748975639008
 31
0.0
  0
LINE
  5
180
330
1F
100
AcDbEntity
  8
1
  6
Continuous
 62
    45
370
     9
100
AcDbLine
 10
635.0235484936841
 20
799.2748791595893
 30
0.0
 11
635.0235484936841
 21
805.2748975639008
 31
0.0
  0
LINE
  5
181
330
1F
100
AcDbEntity
  8
1
  6
Continuous
 62
    45
370
     9
100
AcDbLine
 10
735.0235484936841
 20
833.4748975639018
 30
0.0
 11
735.0235484936841
 21
839.0748975639017
 31
0.0
  0
LINE
  5
182
330
1F
100
AcDbEntity
  8
1
  6
Continuous
 62
    45
370
     9
100
AcDbLine
 10
748.0235484936841
 20
833.4748975639018
 30
0.0
 11
748.0235484936841
 21
839.0748975639017
 31
0.0
  0
LINE
  5
183
330
1F
100
AcDbEntity
  8
1
  6
Continuous
 62
    45
370
     9
100
AcDbLine
 10
735.0235484936841
 20
856.0748975638976
 30
0.0
 11
735.0235484936841
 21
850.4748975638977
 31
0.0
  0
LINE
  5
184
330
1F
100
AcDbEntity
  8
1
  6
Continuous
 62
    45
370
     9
100
AcDbLine
 10
748.0235484936841
 20
856.0748975638976
 30
0.0
 11
748.0235484936841
 21
850.4748975638977
 31
0.0
  0
LINE
  5
185
330
1F
100
AcDbEntity
  8
1
  6
Continuous
 62
    45
370
     9
100
AcDbLine
 10
735.0235484936841
 20
873.0748975638985
 30
0.0
 11
735.0235484936841
 21
867.4748975638981
 31
0.0
  0
LINE
  5
186
330
1F
100
AcDbEntity
  8
1
  6
Continuous
 62
    45
370
     9
100
AcDbLine
 10
735.0235484936841
 20
890.074897563899
 30
0.0
 11
735.0235484936841
 21
884.474897563899
 31
0.0
  0
LINE
  5
187
330
1F
100
AcDbEntity
  8
1
  6
Continuous
 62
    45
370
     9
100
AcDbLine
 10
748.0235484936841
 20
890.074897563899
 30
0.0
 11
748.0235484936841
 21
884.474897563899
 31
0.0
  0
LINE
  5
188
330
1F
100
AcDbEntity
  8
1
  6
Continuous
 62
    45
370
     9
100
AcDbLine
 10
735.0235484936841
 20
907.0748975638999
 30
0.0
 11
735.0235484936841
 21
901.4748975638995
 31
0.0
  0
LINE
  5
189
330
1F
100
AcDbEntity
  8
1
  6
Continuous
 62
    45
370
     9
100
AcDbLine
 10
748.0235484936841
 20
907.0748975638999
 30
0.0
 11
748.0235484936841
 21
901.4748975638995
 31
0.0
  0
LINE
  5
18A
330
1F
100
AcDbEntity
  8
1
  6
Continuous
 62
    45
370
     9
100
AcDbLine
 10
735.0235484936841
 20
924.0748975639003
 30
0.0
 11
735.0235484936841
 21
918.4748975639004
 31
0.0
  0
LINE
  5
18B
330
1F
100
AcDbEntity
  8
1
  6
Continuous
 62
    45
370
     9
100
AcDbLine
 10
748.0235484936841
 20
924.0748975639003
 30
0.0
 11
748.0235484936841
 21
918.4748975639004
 31
0.0
  0
LINE
  5
18C
330
1F
100
AcDbEntity
  8
1
  6
Continuous
 62
    45
370
     9
100
AcDbLine
 10
748.0235484936841
 20
873.0748975638985
 30
0.0
 11
748.0235484936841
 21
870.2748975639006
 31
0.0
  0
LINE
  5
18D
330
1F
100
AcDbEntity
  8
1
  6
Continuous
 62
    45
370
     9
100
AcDbLine
 10
748.0235484936841
 20
870.2748975639006
 30
0.0
 11
748.0235484936841
 21
867.4748975638981
 31
0.0
  0
LINE
  5
18E
330
1F
100
AcDbEntity
  8
1
  6
Continuous
 62
    45
370
     9
100
AcDbLine
 10
735.0235484936841
 20
940.8748975638994
 30
0.0
 11
735.0235484936841
 21
935.4748975638995
 31
0.0
  0
LINE
  5
18F
330
1F
100
AcDbEntity
  8
1
  6
Continuous
 62
    45
370
     9
100
AcDbLine
 10
748.0235484936841
 20
940.8748975638994
 30
0.0
 11
748.0235484936841
 21
935.4748975638995
 31
0.0
  0
LINE
  5
190
330
1F
100
AcDbEntity
  8
1
  6
Continuous
 62
    45
370
     9
100
AcDbLine
 10
748.0235484936841
 20
958.274952773929
 30
0.0
 11
748.0235484936841
 21
952.2748975632092
 31
0.0
  0
LINE
  5
191
330
1F
100
AcDbEntity
  8
1
  6
Continuous
 62
    45
370
     9
100
AcDbLine
 10
735.0235484936841
 20
958.274952773929
 30
0.0
 11
735.0235484936841
 21
952.2748975632092
 31
0.0
  0
LINE
  5
192
330
1F
100
AcDbEntity
  8
1
  6
Continuous
 62
    45
370
     9
100
AcDbLine
 10
735.0235484936841
 20
816.6748975639009
 30
0.0
 11
735.0235484936841
 21
822.0748975639012
 31
0.0
  0
LINE
  5
193
330
1F
100
AcDbEntity
  8
1
  6
Continuous
 62
    45
370
     9
100
AcDbLine
 10
748.0235484936841
 20
816.6748975639009
 30
0.0
 11
748.0235484936841
 21
822.0748975639012
 31
0.0
  0
LINE
  5
194
330
1F
100
AcDbEntity
  8
1
  6
Continuous
 62
    45
370
     9
100
AcDbLine
 10
748.0235484936841
 20
799.2748791595893
 30
0.0
 11
748.0235484936841
 21
805.2748975639008
 31
0.0
  0
LINE
  5
195
330
1F
100
AcDbEntity
  8
1
  6
Continuous
 62
    45
370
     9
100
AcDbLine
 10
735.0235484936841
 20
799.2748791595893
 30
0.0
 11
735.0235484936841
 21
805.2748975639008
 31
0.0
  0
LINE
  5
196
330
1F
100
AcDbEntity
  8
1
  6
Continuous
 62
    45
370
     9
100
AcDbLine
 10
835.0235484936841
 20
833.4748975639018
 30
0.0
 11
835.0235484936841
 21
839.0748975639017
 31
0.0
  0
LINE
  5
197
330
1F
100
AcDbEntity
  8
1
  6
Continuous
 62
    45
370
     9
100
AcDbLine
 10
848.0235484936841
 20
833.4748975639018
 30
0.0
 11
848.0235484936841
 21
839.0748975639017
 31
0.0
  0
LINE
  5
198
330
1F
100
AcDbEntity
  8
1
  6
Continuous
 62
    45
370
     9
100
AcDbLine
 10
835.0235484936841
 20
856.0748975638976
 30
0.0
 11
835.0235484936841
 21
850.4748975638977
 31
0.0
  0
LINE
  5
199
330
1F
100
AcDbEntity
  8
1
  6
Continuous
 62
    45
370
     9
100
AcDbLine
 10
848.0235484936841
 20
856.0748975638976
 30
0.0
 11
848.0235484936841
 21
850.4748975638977
 31
0.0
  0
LINE
  5
19A
330
1F
100
AcDbEntity
  8
1
  6
Continuous
 62
    45
370
     9
100
AcDbLine
 10
835.0235484936841
 20
873.0748975638985
 30
0.0
 11
835.0235484936841
 21
867.4748975638981
 31
0.0
  0
LINE
  5
19B
330
1F
100
AcDbEntity
  8
1
  6
Continuous
 62
    45
370
     9
100
AcDbLine
 10
835.0235484936841
 20
890.074897563899
 30
0.0
 11
835.0235484936841
 21
884.474897563899
 31
0.0
  0
LINE
  5
19C
330
1F
100
AcDbEntity
  8
1
  6
Continuous
 62
    45
370
     9
100
AcDbLine
 10
848.0235484936841
 20
890.074897563899
 30
0.0
 11
848.0235484936841
 21
884.474897563899
 31
0.0
  0
LINE
  5
19D
330
1F
100
AcDbEntity
  8
1
  6
Continuous
 62
    45
370
     9
100
AcDbLine
 10
835.0235484936841
 20
907.0748975638999
 30
0.0
 11
835.0235484936841
 21
901.4748975638995
 31
0.0
  0
LINE
  5
19E
330
1F
100
AcDbEntity
  8
1
  6
Continuous
 62
    45
370
     9
100
AcDbLine
 10
848.0235484936841
 20
907.0748975638999
 30
0.0
 11
848.0235484936841
 21
901.4748975638995
 31
0.0
  0
LINE
  5
19F
330
1F
100
AcDbEntity
  8
1
  6
Continuous
 62
    45
370
     9
100
AcDbLine
 10
835.0235484936841
 20
924.0748975639003
 30
0.0
 11
835.0235484936841
 21
918.4748975639004
 31
0.0
  0
LINE
  5
1A0
330
1F
100
AcDbEntity
  8
1
  6
Continuous
 62
    45
370
     9
100
AcDbLine
 10
848.0235484936841
 20
924.0748975639003
 30
0.0
 11
848.0235484936841
 21
918.4748975639004
 31
0.0
  0
LINE
  5
1A1
330
1F
100
AcDbEntity
  8
1
  6
Continuous
 62
    45
370
     9
100
AcDbLine
 10
848.0235484936841
 20
873.0748975638985
 30
0.0
 11
848.0235484936841
 21
870.2748975639006
 31
0.0
  0
LINE
  5
1A2
330
1F
100
AcDbEntity
  8
1
  6
Continuous
 62
    45
370
     9
100
AcDbLine
 10
848.0235484936841
 20
870.2748975639006
 30
0.0
 11
848.0235484936841
 21
867.4748975638981
 31
0.0
  0
LINE
  5
1A3
330
1F
100
AcDbEntity
  8
1
  6
Continuous
 62
    45
370
     9
100
AcDbLine
 10
835.0235484936841
 20
940.8748975638994
 30
0.0
 11
835.0235484936841
 21
935.4748975638995
 31
0.0
  0
LINE
  5
1A4
330
1F
100
AcDbEntity
  8
1
  6
Continuous
 62
    45
370
     9
100
AcDbLine
 10
848.0235484936841
 20
940.8748975638994
 30
0.0
 11
848.0235484936841
 21
935.4748975638995
 31
0.0
  0
LINE
  5
1A5
330
1F
100
AcDbEntity
  8
1
  6
Continuous
 62
    45
370
     9
100
AcDbLine
 10
848.0235484936841
 20
958.274952773929
 30
0.0
 11
848.0235484936841
 21
952.2748975632092
 31
0.0
  0
LINE
  5
1A6
330
1F
100
AcDbEntity
  8
1
  6
Continuous
 62
    45
370
     9
100
AcDbLine
 10
835.0235484936841
 20
958.274952773929
 30
0.0
 11
835.0235484936841
 21
952.2748975632092
 31
0.0
  0
LINE
  5
1A7
330
1F
100
AcDbEntity
  8
1
  6
Continuous
 62
    45
370
     9
100
AcDbLine
 10
835.0235484936841
 20
816.6748975639009
 30
0.0
 11
835.0235484936841
 21
822.0748975639012
 31
0.0
  0
LINE
  5
1A8
330
1F
100
AcDbEntity
  8
1
  6
Continuous
 62
    45
370
     9
100
AcDbLine
 10
848.0235484936841
 20
816.6748975639009
 30
0.0
 11
848.0235484936841
 21
822.0748975639012
 31
0.0
  0
LINE
  5
1A9
330
1F
100
AcDbEntity
  8
1
  6
Continuous
 62
    45
370
     9
100
AcDbLine
 10
848.0235484936841
 20
799.2748791595893
 30
0.0
 11
848.0235484936841
 21
805.2748975639008
 31
0.0
  0
LINE
  5
1AA
330
1F
100
AcDbEntity
  8
1
  6
Continuous
 62
    45
370
     9
100
AcDbLine
 10
835.0235484936841
 20
799.2748791595893
 30
0.0
 11
835.0235484936841
 21
805.2748975639008
 31
0.0
  0
LINE
  5
1AB
330
1F
100
AcDbEntity
  8
1
  6
Continuous
 62
    45
370
     9
100
AcDbLine
 10
935.0235484936841
 20
833.4748975639018
 30
0.0
 11
935.0235484936841
 21
839.0748975639017
 31
0.0
  0
LINE
  5
1AC
330
1F
100
AcDbEntity
  8
1
  6
Continuous
 62
    45
370
     9
100
AcDbLine
 10
948.0235484936841
 20
833.4748975639018
 30
0.0
 11
948.0235484936841
 21
839.0748975639017
 31
0.0
  0
LINE
  5
1AD
330
1F
100
AcDbEntity
  8
1
  6
Continuous
 62
    45
370
     9
100
AcDbLine
 10
935.0235484936841
 20
856.0748975638976
 30
0.0
 11
935.0235484936841
 21
850.4748975638977
 31
0.0
  0
LINE
  5
1AE
330
1F
100
AcDbEntity
  8
1
  6
Continuous
 62
    45
370
     9
100
AcDbLine
 10
948.0235484936841
 20
856.0748975638976
 30
0.0
 11
948.0235484936841
 21
850.4748975638977
 31
0.0
  0
LINE
  5
1AF
330
1F
100
AcDbEntity
  8
1
  6
Continuous
 62
    45
370
     9
100
AcDbLine
 10
935.0235484936841
 20
873.0748975638985
 30
0.0
 11
935.0235484936841
 21
867.4748975638981
 31
0.0
  0
LINE
  5
1B0
330
1F
100
AcDbEntity
  8
1
  6
Continuous
 62
    45
370
     9
100
AcDbLine
 10
935.0235484936841
 20
890.074897563899
 30
0.0
 11
935.0235484936841
 21
884.474897563899
 31
0.0
  0
LINE
  5
1B1
330
1F
100
AcDbEntity
  8
1
  6
Continuous
 62
    45
370
     9
100
AcDbLine
 10
948.0235484936841
 20
890.074897563899
 30
0.0
 11
948.0235484936841
 21
884.474897563899
 31
0.0
  0
LINE
  5
1B2
330
1F
100
AcDbEntity
  8
1
  6
Continuous
 62
    45
370
     9
100
AcDbLine
 10
935.0235484936841
 20
907.0748975638999
 30
0.0
 11
935.0235484936841
 21
901.4748975638995
 31
0.0
  0
LINE
  5
1B3
330
1F
100
AcDbEntity
  8
1
  6
Continuous
 62
    45
370
     9
100
AcDbLine
 10
948.0235484936841
 20
907.0748975638999
 30
0.0
 11
948.0235484936841
 21
901.4748975638995
 31
0.0
  0
LINE
  5
1B4
330
1F
100
AcDbEntity
  8
1
  6
Continuous
 62
    45
370
     9
100
AcDbLine
 10
935.0235484936841
 20
924.0748975639003
 30
0.0
 11
935.0235484936841
 21
918.4748975639004
 31
0.0
  0
LINE
  5
1B5
330
1F
100
AcDbEntity
  8
1
  6
Continuous
 62
    45
370
     9
100
AcDbLine
 10
948.0235484936841
 20
924.0748975639003
 30
0.0
 11
948.0235484936841
 21
918.4748975639004
 31
0.0
  0
LINE
  5
1B6
330
1F
100
AcDbEntity
  8
1
  6
Continuous
 62
    45
370
     9
100
AcDbLine
 10
948.0235484936841
 20
873.0748975638985
 30
0.0
 11
948.0235484936841
 21
870.2748975639006
 31
0.0
  0
LINE
  5
1B7
330
1F
100
AcDbEntity
  8
1
  6
Continuous
 62
    45
370
     9
100
AcDbLine
 10
948.0235484936841
 20
870.2748975639006
 30
0.0
 11
948.0235484936841
 21
867.4748975638981
 31
0.0
  0
LINE
  5
1B8
330
1F
100
AcDbEntity
  8
1
  6
Continuous
 62
    45
370
     9
100
AcDbLine
 10
935.0235484936841
 20
940.8748975638994
 30
0.0
 11
935.0235484936841
 21
935.4748975638995
 31
0.0
  0
LINE
  5
1B9
330
1F
100
AcDbEntity
  8
1
  6
Continuous
 62
    45
370
     9
100
AcDbLine
 10
948.0235484936841
 20
940.8748975638994
 30
0.0
 11
948.0235484936841
 21
935.4748975638995
 31
0.0
  0
LINE
  5
1BA
330
1F
100
AcDbEntity
  8
1
  6
Continuous
 62
    45
370
     9
100
AcDbLine
 10
948.0235484936841
 20
958.274952773929
 30
0.0
 11
948.0235484936841
 21
952.2748975632092
 31
0.0
  0
LINE
  5
1BB
330
1F
100
AcDbEntity
  8
1
  6
Continuous
 62
    45
370
     9
100
AcDbLine
 10
935.0235484936841
 20
958.274952773929
 30
0.0
 11
935.0235484936841
 21
952.2748975632092
 31
0.0
  0
LINE
  5
1BC
330
1F
100
AcDbEntity
  8
1
  6
Continuous
 62
    45
370
     9
100
AcDbLine
 10
935.0235484936841
 20
816.6748975639009
 30
0.0
 11
935.0235484936841
 21
822.0748975639012
 31
0.0
  0
LINE
  5
1BD
330
1F
100
AcDbEntity
  8
1
  6
Continuous
 62
    45
370
     9
100
AcDbLine
 10
948.0235484936841
 20
816.6748975639009
 30
0.0
 11
948.0235484936841
 21
822.0748975639012
 31
0.0
  0
LINE
  5
1BE
330
1F
100
AcDbEntity
  8
1
  6
Continuous
 62
    45
370
     9
100
AcDbLine
 10
948.0235484936841
 20
799.2748791595893
 30
0.0
 11
948.0235484936841
 21
805.2748975639008
 31
0.0
  0
LINE
  5
1BF
330
1F
100
AcDbEntity
  8
1
  6
Continuous
 62
    45
370
     9
100
AcDbLine
 10
935.0235484936841
 20
799.2748791595893
 30
0.0
 11
935.0235484936841
 21
805.2748975639008
 31
0.0
  0
LINE
  5
1C0
330
1F
100
AcDbEntity
  8
1
  6
Continuous
 62
    45
370
     9
100
AcDbLine
 10
1035.023548493684
 20
833.4748975639018
 30
0.0
 11
1035.023548493684
 21
839.0748975639017
 31
0.0
  0
LINE
  5
1C1
330
1F
100
AcDbEntity
  8
1
  6
Continuous
 62
    45
370
     9
100
AcDbLine
 10
1048.023548493684
 20
833.4748975639018
 30
0.0
 11
1048.023548493684
 21
839.0748975639017
 31
0.0
  0
LINE
  5
1C2
330
1F
100
AcDbEntity
  8
1
  6
Continuous
 62
    45
370
     9
100
AcDbLine
 10
1035.023548493684
 20
856.0748975638976
 30
0.0
 11
1035.023548493684
 21
850.4748975638977
 31
0.0
  0
LINE
  5
1C3
330
1F
100
AcDbEntity
  8
1
  6
Continuous
 62
    45
370
     9
100
AcDbLine
 10
1048.023548493684
 20
856.0748975638976
 30
0.0
 11
1048.023548493684
 21
850.4748975638977
 31
0.0
  0
LINE
  5
1C4
330
1F
100
AcDbEntity
  8
1
  6
Continuous
 62
    45
370
     9
100
AcDbLine
 10
1035.023548493684
 20
873.0748975638985
 30
0.0
 11
1035.023548493684
 21
867.4748975638981
 31
0.0
  0
LINE
  5
1C5
330
1F
100
AcDbEntity
  8
1
  6
Continuous
 62
    45
370
     9
100
AcDbLine
 10
1035.023548493684
 20
890.074897563899
 30
0.0
 11
1035.023548493684
 21
884.474897563899
 31
0.0
  0
LINE
  5
1C6
330
1F
100
AcDbEntity
  8
1
  6
Continuous
 62
    45
370
     9
100
AcDbLine
 10
1048.023548493684
 20
890.074897563899
 30
0.0
 11
1048.023548493684
 21
884.474897563899
 31
0.0
  0
LINE
  5
1C7
330
1F
100
AcDbEntity
  8
1
  6
Continuous
 62
    45
370
     9
100
AcDbLine
 10
1035.023548493684
 20
907.0748975638999
 30
0.0
 11
1035.023548493684
 21
901.4748975638995
 31
0.0
  0
LINE
  5
1C8
330
1F
100
AcDbEntity
  8
1
  6
Continuous
 62
    45
370
     9
100
AcDbLine
 10
1048.023548493684
 20
907.0748975638999
 30
0.0
 11
1048.023548493684
 21
901.4748975638995
 31
0.0
  0
LINE
  5
1C9
330
1F
100
AcDbEntity
  8
1
  6
Continuous
 62
    45
370
     9
100
AcDbLine
 10
1035.023548493684
 20
924.0748975639003
 30
0.0
 11
1035.023548493684
 21
918.4748975639004
 31
0.0
  0
LINE
  5
1CA
330
1F
100
AcDbEntity
  8
1
  6
Continuous
 62
    45
370
     9
100
AcDbLine
 10
1048.023548493684
 20
924.0748975639003
 30
0.0
 11
1048.023548493684
 21
918.4748975639004
 31
0.0
  0
LINE
  5
1CB
330
1F
100
AcDbEntity
  8
1
  6
Continuous
 62
    45
370
     9
100
AcDbLine
 10
1048.023548493684
 20
873.0748975638985
 30
0.0
 11
1048.023548493684
 21
870.2748975639006
 31
0.0
  0
LINE
  5
1CC
330
1F
100
AcDbEntity
  8
1
  6
Continuous
 62
    45
370
     9
100
AcDbLine
 10
1048.023548493684
 20
870.2748975639006
 30
0.0
 11
1048.023548493684
 21
867.4748975638981
 31
0.0
  0
LINE
  5
1CD
330
1F
100
AcDbEntity
  8
1
  6
Continuous
 62
    45
370
     9
100
AcDbLine
 10
1035.023548493684
 20
940.8748975638994
 30
0.0
 11
1035.023548493684
 21
935.4748975638995
 31
0.0
  0
LINE
  5
1CE
330
1F
100
AcDbEntity
  8
1
  6
Continuous
 62
    45
370
     9
100
AcDbLine
 10
1048.023548493684
 20
940.8748975638994
 30
0.0
 11
1048.023548493684
 21
935.4748975638995
 31
0.0
  0
LINE
  5
1CF
330
1F
100
AcDbEntity
  8
1
  6
Continuous
 62
    45
370
     9
100
AcDbLine
 10
1048.023548493684
 20
958.274952773929
 30
0.0
 11
1048.023548493684
 21
952.2748975632092
 31
0.0
  0
LINE
  5
1D0
330
1F
100
AcDbEntity
  8
1
  6
Continuous
 62
    45
370
     9
100
AcDbLine
 10
1035.023548493684
 20
958.274952773929
 30
0.0
 11
1035.023548493684
 21
952.2748975632092
 31
0.0
  0
LINE
  5
1D1
330
1F
100
AcDbEntity
  8
1
  6
Continuous
 62
    45
370
     9
100
AcDbLine
 10
1035.023548493684
 20
816.6748975639009
 30
0.0
 11
1035.023548493684
 21
822.0748975639012
 31
0.0
  0
LINE
  5
1D2
330
1F
100
AcDbEntity
  8
1
  6
Continuous
 62
    45
370
     9
100
AcDbLine
 10
1048.023548493684
 20
816.6748975639009
 30
0.0
 11
1048.023548493684
 21
822.0748975639012
 31
0.0
  0
LINE
  5
1D3
330
1F
100
AcDbEntity
  8
1
  6
Continuous
 62
    45
370
     9
100
AcDbLine
 10
1048.023548493684
 20
799.2748791595893
 30
0.0
 11
1048.023548493684
 21
805.2748975639008
 31
0.0
  0
LINE
  5
1D4
330
1F
100
AcDbEntity
  8
1
  6
Continuous
 62
    45
370
     9
100
AcDbLine
 10
1035.023548493684
 20
799.2748791595893
 30
0.0
 11
1035.023548493684
 21
805.2748975639008
 31
0.0
  0
LINE
  5
1D5
330
1F
100
AcDbEntity
  8
1
  6
Continuous
 62
    45
370
     9
100
AcDbLine
 10
1135.023548493684
 20
833.4748975639018
 30
0.0
 11
1135.023548493684
 21
839.0748975639017
 31
0.0
  0
LINE
  5
1D6
330
1F
100
AcDbEntity
  8
1
  6
Continuous
 62
    45
370
     9
100
AcDbLine
 10
1148.023548493684
 20
833.4748975639018
 30
0.0
 11
1148.023548493684
 21
839.0748975639017
 31
0.0
  0
LINE
  5
1D7
330
1F
100
AcDbEntity
  8
1
  6
Continuous
 62
    45
370
     9
100
AcDbLine
 10
1135.023548493684
 20
856.0748975638976
 30
0.0
 11
1135.023548493684
 21
850.4748975638977
 31
0.0
  0
LINE
  5
1D8
330
1F
100
AcDbEntity
  8
1
  6
Continuous
 62
    45
370
     9
100
AcDbLine
 10
1148.023548493684
 20
856.0748975638976
 30
0.0
 11
1148.023548493684
 21
850.4748975638977
 31
0.0
  0
LINE
  5
1D9
330
1F
100
AcDbEntity
  8
1
  6
Continuous
 62
    45
370
     9
100
AcDbLine
 10
1135.023548493684
 20
873.0748975638985
 30
0.0
 11
1135.023548493684
 21
867.4748975638981
 31
0.0
  0
LINE
  5
1DA
330
1F
100
AcDbEntity
  8
1
  6
Continuous
 62
    45
370
     9
100
AcDbLine
 10
1135.023548493684
 20
890.074897563899
 30
0.0
 11
1135.023548493684
 21
884.474897563899
 31
0.0
  0
LINE
  5
1DB
330
1F
100
AcDbEntity
  8
1
  6
Continuous
 62
    45
370
     9
100
AcDbLine
 10
1148.023548493684
 20
890.074897563899
 30
0.0
 11
1148.023548493684
 21
884.474897563899
 31
0.0
  0
LINE
  5
1DC
330
1F
100
AcDbEntity
  8
1
  6
Continuous
 62
    45
370
     9
100
AcDbLine
 10
1135.023548493684
 20
907.0748975638999
 30
0.0
 11
1135.023548493684
 21
901.4748975638995
 31
0.0
  0
LINE
  5
1DD
330
1F
100
AcDbEntity
  8
1
  6
Continuous
 62
    45
370
     9
100
AcDbLine
 10
1148.023548493684
 20
907.0748975638999
 30
0.0
 11
1148.023548493684
 21
901.4748975638995
 31
0.0
  0
LINE
  5
1DE
330
1F
100
AcDbEntity
  8
1
  6
Continuous
 62
    45
370
     9
100
AcDbLine
 10
1135.023548493684
 20
924.0748975639003
 30
0.0
 11
1135.023548493684
 21
918.4748975639004
 31
0.0
  0
LINE
  5
1DF
330
1F
100
AcDbEntity
  8
1
  6
Continuous
 62
    45
370
     9
100
AcDbLine
 10
1148.023548493684
 20
924.0748975639003
 30
0.0
 11
1148.023548493684
 21
918.4748975639004
 31
0.0
  0
LINE
  5
1E0
330
1F
100
AcDbEntity
  8
1
  6
Continuous
 62
    45
370
     9
100
AcDbLine
 10
1148.023548493684
 20
873.0748975638985
 30
0.0
 11
1148.023548493684
 21
870.2748975639006
 31
0.0
  0
LINE
  5
1E1
330
1F
100
AcDbEntity
  8
1
  6
Continuous
 62
    45
370
     9
100
AcDbLine
 10
1148.023548493684
 20
870.2748975639006
 30
0.0
 11
1148.023548493684
 21
867.4748975638981
 31
0.0
  0
LINE
  5
1E2
330
1F
100
AcDbEntity
  8
1
  6
Continuous
 62
    45
370
     9
100
AcDbLine
 10
1135.023548493684
 20
940.8748975638994
 30
0.0
 11
1135.023548493684
 21
935.4748975638995
 31
0.0
  0
LINE
  5
1E3
330
1F
100
AcDbEntity
  8
1
  6
Continuous
 62
    45
370
     9
100
AcDbLine
 10
1148.023548493684
 20
940.8748975638994
 30
0.0
 11
1148.023548493684
 21
935.4748975638995
 31
0.0
  0
LINE
  5
1E4
330
1F
100
AcDbEntity
  8
1
  6
Continuous
 62
    45
370
     9
100
AcDbLine
 10
1148.023548493684
 20
958.274952773929
 30
0.0
 11
1148.023548493684
 21
952.2748975632092
 31
0.0
  0
LINE
  5
1E5
330
1F
100
AcDbEntity
  8
1
  6
Continuous
 62
    45
370
     9
100
AcDbLine
 10
1135.023548493684
 20
958.274952773929
 30
0.0
 11
1135.023548493684
 21
952.2748975632092
 31
0.0
  0
LINE
  5
1E6
330
1F
100
AcDbEntity
  8
1
  6
Continuous
 62
    45
370
     9
100
AcDbLine
 10
1135.023548493684
 20
816.6748975639009
 30
0.0
 11
1135.023548493684
 21
822.0748975639012
 31
0.0
  0
LINE
  5
1E7
330
1F
100
AcDbEntity
  8
1
  6
Continuous
 62
    45
370
     9
100
AcDbLine
 10
1148.023548493684
 20
816.6748975639009
 30
0.0
 11
1148.023548493684
 21
822.0748975639012
 31
0.0
  0
LINE
  5
1E8
330
1F
100
AcDbEntity
  8
1
  6
Continuous
 62
    45
370
     9
100
AcDbLine
 10
1148.023548493684
 20
799.2748791595893
 30
0.0
 11
1148.023548493684
 21
805.2748975639008
 31
0.0
  0
LINE
  5
1E9
330
1F
100
AcDbEntity
  8
1
  6
Continuous
 62
    45
370
     9
100
AcDbLine
 10
1135.023548493684
 20
799.2748791595893
 30
0.0
 11
1135.023548493684
 21
805.2748975639008
 31
0.0
  0
LINE
  5
1EA
330
1F
100
AcDbEntity
  8
1
  6
Continuous
 62
    45
370
     9
100
AcDbLine
 10
1235.023548493684
 20
833.4748975639018
 30
0.0
 11
1235.023548493684
 21
839.0748975639017
 31
0.0
  0
LINE
  5
1EB
330
1F
100
AcDbEntity
  8
1
  6
Continuous
 62
    45
370
     9
100
AcDbLine
 10
1248.023548493684
 20
833.4748975639018
 30
0.0
 11
1248.023548493684
 21
839.0748975639017
 31
0.0
  0
LINE
  5
1EC
330
1F
100
AcDbEntity
  8
1
  6
Continuous
 62
    45
370
     9
100
AcDbLine
 10
1235.023548493684
 20
856.0748975638976
 30
0.0
 11
1235.023548493684
 21
850.4748975638977
 31
0.0
  0
LINE
  5
1ED
330
1F
100
AcDbEntity
  8
1
  6
Continuous
 62
    45
370
     9
100
AcDbLine
 10
1248.023548493684
 20
856.0748975638976
 30
0.0
 11
1248.023548493684
 21
850.4748975638977
 31
0.0
  0
LINE
  5
1EE
330
1F
100
AcDbEntity
  8
1
  6
Continuous
 62
    45
370
     9
100
AcDbLine
 10
1235.023548493684
 20
873.0748975638985
 30
0.0
 11
1235.023548493684
 21
867.4748975638981
 31
0.0
  0
LINE
  5
1EF
330
1F
100
AcDbEntity
  8
1
  6
Continuous
 62
    45
370
     9
100
AcDbLine
 10
1235.023548493684
 20
890.074897563899
 30
0.0
 11
1235.023548493684
 21
884.474897563899
 31
0.0
  0
LINE
  5
1F0
330
1F
100
AcDbEntity
  8
1
  6
Continuous
 62
    45
370
     9
100
AcDbLine
 10
1248.023548493684
 20
890.074897563899
 30
0.0
 11
1248.023548493684
 21
884.474897563899
 31
0.0
  0
LINE
  5
1F1
330
1F
100
AcDbEntity
  8
1
  6
Continuous
 62
    45
370
     9
100
AcDbLine
 10
1235.023548493684
 20
907.0748975638999
 30
0.0
 11
1235.023548493684
 21
901.4748975638995
 31
0.0
  0
LINE
  5
1F2
330
1F
100
AcDbEntity
  8
1
  6
Continuous
 62
    45
370
     9
100
AcDbLine
 10
1248.023548493684
 20
907.0748975638999
 30
0.0
 11
1248.023548493684
 21
901.4748975638995
 31
0.0
  0
LINE
  5
1F3
330
1F
100
AcDbEntity
  8
1
  6
Continuous
 62
    45
370
     9
100
AcDbLine
 10
1235.023548493684
 20
924.0748975639003
 30
0.0
 11
1235.023548493684
 21
918.4748975639004
 31
0.0
  0
LINE
  5
1F4
330
1F
100
AcDbEntity
  8
1
  6
Continuous
 62
    45
370
     9
100
AcDbLine
 10
1248.023548493684
 20
924.0748975639003
 30
0.0
 11
1248.023548493684
 21
918.4748975639004
 31
0.0
  0
LINE
  5
1F5
330
1F
100
AcDbEntity
  8
1
  6
Continuous
 62
    45
370
     9
100
AcDbLine
 10
1248.023548493684
 20
873.0748975638985
 30
0.0
 11
1248.023548493684
 21
870.2748975639006
 31
0.0
  0
LINE
  5
1F6
330
1F
100
AcDbEntity
  8
1
  6
Continuous
 62
    45
370
     9
100
AcDbLine
 10
1248.023548493684
 20
870.2748975639006
 30
0.0
 11
1248.023548493684
 21
867.4748975638981
 31
0.0
  0
LINE
  5
1F7
330
1F
100
AcDbEntity
  8
1
  6
Continuous
 62
    45
370
     9
100
AcDbLine
 10
1235.023548493684
 20
940.8748975638994
 30
0.0
 11
1235.023548493684
 21
935.4748975638995
 31
0.0
  0
LINE
  5
1F8
330
1F
100
AcDbEntity
  8
1
  6
Continuous
 62
    45
370
     9
100
AcDbLine
 10
1248.023548493684
 20
940.8748975638994
 30
0.0
 11
1248.023548493684
 21
935.4748975638995
 31
0.0
  0
LINE
  5
1F9
330
1F
100
AcDbEntity
  8
1
  6
Continuous
 62
    45
370
     9
100
AcDbLine
 10
1248.023548493684
 20
958.274952773929
 30
0.0
 11
1248.023548493684
 21
952.2748975632092
 31
0.0
  0
LINE
  5
1FA
330
1F
100
AcDbEntity
  8
1
  6
Continuous
 62
    45
370
     9
100
AcDbLine
 10
1235.023548493684
 20
958.274952773929
 30
0.0
 11
1235.023548493684
 21
952.2748975632092
 31
0.0
  0
LINE
  5
1FB
330
1F
100
AcDbEntity
  8
1
  6
Continuous
 62
    45
370
     9
100
AcDbLine
 10
1235.023548493684
 20
816.6748975639009
 30
0.0
 11
1235.023548493684
 21
822.0748975639012
 31
0.0
  0
LINE
  5
1FC
330
1F
100
AcDbEntity
  8
1
  6
Continuous
 62
    45
370
     9
100
AcDbLine
 10
1248.023548493684
 20
816.6748975639009
 30
0.0
 11
1248.023548493684
 21
822.0748975639012
 31
0.0
  0
LINE
  5
1FD
330
1F
100
AcDbEntity
  8
1
  6
Continuous
 62
    45
370
     9
100
AcDbLine
 10
1248.023548493684
 20
799.2748791595893
 30
0.0
 11
1248.023548493684
 21
805.2748975639008
 31
0.0
  0
LINE
  5
1FE
330
1F
100
AcDbEntity
  8
1
  6
Continuous
 62
    45
370
     9
100
AcDbLine
 10
1235.023548493684
 20
799.2748791595893
 30
0.0
 11
1235.023548493684
 21
805.2748975639008
 31
0.0
  0
LINE
  5
1FF
330
1F
100
AcDbEntity
  8
2
  6
Continuous
 62
    90
370
    18
100
AcDbLine
 10
393.5235484936838
 20
805.2748975639004
 30
0.0
 11
393.5235484936838
 21
816.6748975639009
 31
0.0
  0
LINE
  5
200
330
1F
100
AcDbEntity
  8
2
  6
Continuous
 62
    90
370
    18
100
AcDbLine
 10
1389.523548493684
 20
805.2748975639004
 30
0.0
 11
1389.523548493684
 21
816.6748975639009
 31
0.0
  0
LINE
  5
201
330
1F
100
AcDbEntity
  8
2
  6
Continuous
 62
    90
370
    18
100
AcDbLine
 10
393.5235484936838
 20
805.2748975639004
 30
0.0
 11
1389.523548493684
 21
805.2748975639004
 31
0.0
  0
LINE
  5
202
330
1F
100
AcDbEntity
  8
2
  6
Continuous
 62
    90
370
    18
100
AcDbLine
 10
393.5235484936838
 20
816.6748975639009
 30
0.0
 11
1389.523548493684
 21
816.6748975639009
 31
0.0
  0
LINE
  5
203
330
1F
100
AcDbEntity
  8
2
  6
Continuous
 62
    90
370
    18
100
AcDbLine
 10
393.5235484936838
 20
952.2748975638985
 30
0.0
 11
393.5235484936838
 21
940.874897563898
 31
0.0
  0
LINE
  5
204
330
1F
100
AcDbEntity
  8
2
  6
Continuous
 62
    90
370
    18
100
AcDbLine
 10
1389.523548493684
 20
952.2748975638985
 30
0.0
 11
1389.523548493684
 21
940.874897563898
 31
0.0
  0
LINE
  5
205
330
1F
100
AcDbEntity
  8
2
  6
Continuous
 62
    90
370
    18
100
AcDbLine
 10
393.5235484936838
 20
952.2748975638985
 30
0.0
 11
1389.523548493684
 21
952.2748975638985
 31
0.0
  0
LINE
  5
206
330
1F
100
AcDbEntity
  8
2
  6
Continuous
 62
    90
370
    18
100
AcDbLine
 10
393.5235484936838
 20
940.874897563898
 30
0.0
 11
1389.523548493684
 21
940.874897563898
 31
0.0
  0
LINE
  5
207
330
1F
100
AcDbEntity
  8
2
  6
Continuous
 62
    90
370
    18
100
AcDbLine
 10
393.5235484936838
 20
935.4748975638995
 30
0.0
 11
393.5235484936838
 21
924.074897563899
 31
0.0
  0
LINE
  5
208
330
1F
100
AcDbEntity
  8
2
  6
Continuous
 62
    90
370
    18
100
AcDbLine
 10
393.5235484936838
 20
918.4748975639004
 30
0.0
 11
393.5235484936838
 21
907.0748975638999
 31
0.0
  0
LINE
  5
209
330
1F
100
AcDbEntity
  8
2
  6
Continuous
 62
    90
370
    18
100
AcDbLine
 10
393.5235484936838
 20
901.4748975638995
 30
0.0
 11
393.5235484936838
 21
890.074897563899
 31
0.0
  0
LINE
  5
20A
330
1F
100
AcDbEntity
  8
2
  6
Continuous
 62
    90
370
    18
100
AcDbLine
 10
393.5235484936838
 20
884.474897563899
 30
0.0
 11
393.5235484936838
 21
873.0748975638985
 31
0.0
  0
LINE
  5
20B
330
1F
100
AcDbEntity
  8
2
  6
Continuous
 62
    90
370
    18
100
AcDbLine
 10
393.5235484936838
 20
867.4748975638981
 30
0.0
 11
393.5235484936838
 21
856.0748975638976
 31
0.0
  0
LINE
  5
20C
330
1F
100
AcDbEntity
  8
2
  6
Continuous
 62
    90
370
    18
100
AcDbLine
 10
393.5235484936838
 20
839.0748975639017
 30
0.0
 11
393.5235484936838
 21
850.4748975639022
 31
0.0
  0
LINE
  5
20D
330
1F
100
AcDbEntity
  8
2
  6
Continuous
 62
    90
370
    18
100
AcDbLine
 10
393.5235484936838
 20
822.0748975639012
 30
0.0
 11
393.5235484936838
 21
833.4748975639018
 31
0.0
  0
LINE
  5
20E
330
1F
100
AcDbEntity
  8
2
  6
Continuous
 62
    90
370
    18
100
AcDbLine
 10
1389.523548493684
 20
935.4748975638995
 30
0.0
 11
1389.523548493684
 21
924.074897563899
 31
0.0
  0
LINE
  5
20F
330
1F
100
AcDbEntity
  8
2
  6
Continuous
 62
    90
370
    18
100
AcDbLine
 10
1389.523548493684
 20
918.4748975639004
 30
0.0
 11
1389.523548493684
 21
907.0748975638999
 31
0.0
  0
LINE
  5
210
330
1F
100
AcDbEntity
  8
2
  6
Continuous
 62
    90
370
    18
100
AcDbLine
 10
1389.523548493684
 20
901.4748975638995
 30
0.0
 11
1389.523548493684
 21
890.074897563899
 31
0.0
  0
LINE
  5
211
330
1F
100
AcDbEntity
  8
2
  6
Continuous
 62
    90
370
    18
100
AcDbLine
 10
1389.523548493684
 20
884.474897563899
 30
0.0
 11
1389.523548493684
 21
873.0748975638985
 31
0.0
  0
LINE
  5
212
330
1F
100
AcDbEntity
  8
2
  6
Continuous
 62
    90
370
    18
100
AcDbLine
 10
1389.523548493684
 20
867.4748975638981
 30
0.0
 11
1389.523548493684
 21
856.0748975638976
 31
0.0
  0
LINE
  5
213
330
1F
100
AcDbEntity
  8
2
  6
Continuous
 62
    90
370
    18
100
AcDbLine
 10
1389.523548493684
 20
839.0748975639017
 30
0.0
 11
1389.523548493684
 21
850.4748975639022
 31
0.0
  0
LINE
  5
214
330
1F
100
AcDbEntity
  8
2
  6
Continuous
 62
    90
370
    18
100
AcDbLine
 10
1389.523548493684
 20
822.0748975639012
 30
0.0
 11
1389.523548493684
 21
833.4748975639018
 31
0.0
  0
LINE
  5
215
330
1F
100
AcDbEntity
  8
2
  6
Continuous
 62
    90
370
    18
100
AcDbLine
 10
393.5235484936838
 20
822.0748975639012
 30
0.0
 11
1389.523548493684
 21
822.0748975639012
 31
0.0
  0
LINE
  5
216
330
1F
100
AcDbEntity
  8
2
  6
Continuous
 62
    90
370
    18
100
AcDbLine
 10
393.5235484936838
 20
833.4748975639018
 30
0.0
 11
1389.523548493684
 21
833.4748975639018
 31
0.0
  0
LINE
  5
217
330
1F
100
AcDbEntity
  8
2
  6
Continuous
 62
    90
370
    18
100
AcDbLine
 10
393.5235484936838
 20
839.0748975639017
 30
0.0
 11
1389.523548493684
 21
839.0748975639017
 31
0.0
  0
LINE
  5
218
330
1F
100
AcDbEntity
  8
2
  6
Continuous
 62
    90
370
    18
100
AcDbLine
 10
393.5235484936838
 20
850.4748975639022
 30
0.0
 11
1389.523548493684
 21
850.4748975639022
 31
0.0
  0
LINE
  5
219
330
1F
100
AcDbEntity
  8
2
  6
Continuous
 62
    90
370
    18
100
AcDbLine
 10
393.5235484936838
 20
856.0748975638976
 30
0.0
 11
1389.523548493684
 21
856.0748975638976
 31
0.0
  0
LINE
  5
21A
330
1F
100
AcDbEntity
  8
2
  6
Continuous
 62
    90
370
    18
100
AcDbLine
 10
393.5235484936838
 20
867.4748975638981
 30
0.0
 11
1389.523548493684
 21
867.4748975638981
 31
0.0
  0
LINE
  5
21B
330
1F
100
AcDbEntity
  8
2
  6
Continuous
 62
    90
370
    18
100
AcDbLine
 10
393.5235484936838
 20
873.0748975638985
 30
0.0
 11
1389.523548493684
 21
873.0748975638985
 31
0.0
  0
LINE
  5
21C
330
1F
100
AcDbEntity
  8
2
  6
Continuous
 62
    90
370
    18
100
AcDbLine
 10
393.5235484936838
 20
884.474897563899
 30
0.0
 11
1389.523548493684
 21
884.474897563899
 31
0.0
  0
LINE
  5
21D
330
1F
100
AcDbEntity
  8
2
  6
Continuous
 62
    90
370
    18
100
AcDbLine
 10
393.5235484936838
 20
890.074897563899
 30
0.0
 11
1389.523548493684
 21
890.074897563899
 31
0.0
  0
LINE
  5
21E
330
1F
100
AcDbEntity
  8
2
  6
Continuous
 62
    90
370
    18
100
AcDbLine
 10
393.5235484936838
 20
901.4748975638995
 30
0.0
 11
1389.523548493684
 21
901.4748975638995
 31
0.0
  0
LINE
  5
21F
330
1F
100
AcDbEntity
  8
2
  6
Continuous
 62
    90
370
    18
100
AcDbLine
 10
393.5235484936838
 20
907.0748975638999
 30
0.0
 11
1389.523548493684
 21
907.0748975638999
 31
0.0
  0
LINE
  5
220
330
1F
100
AcDbEntity
  8
2
  6
Continuous
 62
    90
370
    18
100
AcDbLine
 10
393.5235484936838
 20
918.4748975639004
 30
0.0
 11
1389.523548493684
 21
918.4748975639004
 31
0.0
  0
LINE
  5
221
330
1F
100
AcDbEntity
  8
2
  6
Continuous
 62
    90
370
    18
100
AcDbLine
 10
393.5235484936838
 20
924.074897563899
 30
0.0
 11
1389.523548493684
 21
924.074897563899
 31
0.0
  0
LINE
  5
222
330
1F
100
AcDbEntity
  8
2
  6
Continuous
 62
    90
370
    18
100
AcDbLine
 10
393.5235484936838
 20
935.4748975638995
 30
0.0
 11
1389.523548493684
 21
935.4748975638995
 31
0.0
  0
LINE
  5
223
330
1F
100
AcDbEntity
  8
3
  6
Continuous
 62
     6
370
    18
100
AcDbLine
 10
392.0235484936838
 20
661.3667310990709
 30
0.0
 11
1391.023548493684
 21
661.3667310990709
 31
0.0
  0
LINE
  5
224
330
1F
100
AcDbEntity
  8
1
  6
DASHDOT
 62
    45
370
     9
100
AcDbLine
 10
408.5235484936838
 20
658.6978975042593
 30
0.0
 11
408.5235484936838
 21
628.4493378334766
 31
0.0
  0
LINE
  5
225
330
1F
100
AcDbEntity
  8
1
  6
DASHDOT
 62
    45
370
     9
100
AcDbLine
 10
441.5235484936838
 20
664.1234119075523
 30
0.0
 11
441.5235484936838
 21
633.4271156112545
 31
0.0
  0
LINE
  5
226
330
1F
100
AcDbEntity
  8
1
  6
DASHDOT
 62
    45
370
     9
100
AcDbLine
 10
1341.523548493684
 20
664.1234119075523
 30
0.0
 11
1341.523548493684
 21
633.4271156112545
 31
0.0
  0
LINE
  5
227
330
1F
100
AcDbEntity
  8
1
  6
DASHDOT
 62
    45
370
     9
100
AcDbLine
 10
541.5235484936841
 20
664.1234119075523
 30
0.0
 11
541.5235484936841
 21
633.4271156112545
 31
0.0
  0
LINE
  5
228
330
1F
100
AcDbEntity
  8
1
  6
DASHDOT
 62
    45
370
     9
100
AcDbLine
 10
641.5235484936841
 20
664.1234119075523
 30
0.0
 11
641.5235484936841
 21
633.4271156112545
 31
0.0
  0
LINE
  5
229
330
1F
100
AcDbEntity
  8
1
  6
DASHDOT
 62
    45
370
     9
100
AcDbLine
 10
741.5235484936841
 20
664.1234119075523
 30
0.0
 11
741.5235484936841
 21
633.4271156112545
 31
0.0
  0
LINE
  5
22A
330
1F
100
AcDbEntity
  8
1
  6
DASHDOT
 62
    45
370
     9
100
AcDbLine
 10
841.5235484936841
 20
664.1234119075523
 30
0.0
 11
841.5235484936841
 21
633.4271156112545
 31
0.0
  0
LINE
  5
22B
330
1F
100
AcDbEntity
  8
1
  6
DASHDOT
 62
    45
370
     9
100
AcDbLine
 10
941.5235484936841
 20
664.1234119075523
 30
0.0
 11
941.5235484936841
 21
633.4271156112545
 31
0.0
  0
LINE
  5
22C
330
1F
100
AcDbEntity
  8
1
  6
DASHDOT
 62
    45
370
     9
100
AcDbLine
 10
1041.523548493684
 20
664.1234119075523
 30
0.0
 11
1041.523548493684
 21
633.4271156112545
 31
0.0
  0
LINE
  5
22D
330
1F
100
AcDbEntity
  8
1
  6
DASHDOT
 62
    45
370
     9
100
AcDbLine
 10
1141.523548493684
 20
664.1234119075523
 30
0.0
 11
1141.523548493684
 21
633.4271156112545
 31
0.0
  0
LINE
  5
22E
330
1F
100
AcDbEntity
  8
1
  6
DASHDOT
 62
    45
370
     9
100
AcDbLine
 10
1241.523548493684
 20
664.1234119075523
 30
0.0
 11
1241.523548493684
 21
633.4271156112545
 31
0.0
  0
DIMENSION
  5
23A
330
1F
100
AcDbEntity
  8
6
  6
Continuous
 62
     7
370
     9
100
AcDbDimension
  2
Dim1
 10
392.0235484936843
 20
721.3667310990709
 30
0.0
 11
416.7735484936843
 21
730.3667310990709
 31
0.0
 70
   160
  1
<>
 71
     5
 42
-1.0
  3
Standard
100
AcDbAlignedDimension
 13
392.0235484936838
 23
661.3667310990709
 33
0.0
 14
441.5235484936838
 24
664.1234119075523
 34
0.0
100
AcDbRotatedDimension
1001
ACAD
1000
DSTYLE
1002
{
1070
   344
1005
3C
1070
   343
1005
3C
1070
   173
1070
     1
1070
   289
1070
     2
1070
   279
1070
     2
1070
   288
1070
     1
1070
    77
1070
     3
1070
   172
1070
     1
1070
   174
1070
     0
1070
    74
1070
     0
1070
    73
1070
     0
1070
   284
1070
     8
1070
    78
1070
     8
1070
   140
1040
3.0
1070
    40
1040
6.0
1070
    42
1040
2.0
1070
    44
1040
1.0
1070
    43
1040
10.0
1070
   271
1070
     2
1070
    41
1040
2.0
1002
}
  0
DIMENSION
  5
245
330
1F
100
AcDbEntity
  8
6
  6
Continuous
 62
     7
370
     9
100
AcDbDimension
  2
Dim2
 10
441.5235484936843
 20
721.3667310990709
 30
0.0
 11
891.5235484936841
 21
730.3667310990709
 31
0.0
 70
   160
  1
9@100=900
 71
     5
 42
-1.0
  3
Standard
100
AcDbAlignedDimension
 13
441.5235484936838
 23
664.1234119075523
 33
0.0
 14
1341.523548493684
 24
664.1234119075523
 34
0.0
100
AcDbRotatedDimension
1001
ACAD
1000
DSTYLE
1002
{
1070
   344
1005
3C
1070
   343
1005
3C
1070
   173
1070
     1
1070
   289
1070
     2
1070
   279
1070
     2
1070
   288
1070
     1
1070
    77
1070
     3
1070
   172
1070
     1
1070
   174
1070
     0
1070
    74
1070
     0
1070
    73
1070
     0
1070
   284
1070
     8
1070
    78
1070
     8
1070
   140
1040
3.0
1070
    40
1040
6.0
1070
    42
1040
2.0
1070
    44
1040
1.0
1070
    43
1040
10.0
1070
   271
1070
     2
1070
    41
1040
2.0
1002
}
  0
DIMENSION
  5
250
330
1F
100
AcDbEntity
  8
6
  6
Continuous
 62
     7
370
     9
100
AcDbDimension
  2
Dim3
 10
1341.523548493684
 20
721.3667310990709
 30
0.0
 11
1366.273548493684
 21
730.3667310990709
 31
0.0
 70
   160
  1
<>
 71
     5
 42
-1.0
  3
Standard
100
AcDbAlignedDimension
 13
1341.523548493684
 23
664.1234119075523
 33
0.0
 14
1391.023548493684
 24
661.3667310990709
 34
0.0
100
AcDbRotatedDimension
1001
ACAD
1000
DSTYLE
1002
{
1070
   344
1005
3C
1070
   343
1005
3C
1070
   173
1070
     1
1070
   289
1070
     2
1070
   279
1070
     2
1070
   288
1070
     1
1070
    77
1070
     3
1070
   172
1070
     1
1070
   174
1070
     0
1070
    74
1070
     0
1070
    73
1070
     0
1070
   284
1070
     8
1070
    78
1070
     8
1070
   140
1040
3.0
1070
    40
1040
6.0
1070
    42
1040
2.0
1070
    44
1040
1.0
1070
    43
1040
10.0
1070
   271
1070
     2
1070
    41
1040
2.0
1002
}
  0
LINE
  5
251
330
1F
100
AcDbEntity
  8
2
  6
Continuous
 62
    90
370
    18
100
AcDbLine
 10
392.0235484936838
 20
659.3667310990709
 30
0.0
 11
1391.023548493684
 21
659.3667310990709
 31
0.0
  0
DIMENSION
  5
25D
330
1F
100
AcDbEntity
  8
6
  6
Continuous
 62
     7
370
     9
100
AcDbDimension
  2
Dim4
 10
332.0235484936838
 20
661.3667310990711
 30
0.0
 11
323.0235484936838
 21
646.3667310990711
 31
0.0
 70
   160
  1
<>
 71
     5
 42
-1.0
  3
Standard
100
AcDbAlignedDimension
 13
392.0235484936838
 23
661.3667310990709
 33
0.0
 14
392.0235484936838
 24
631.3667310990709
 34
0.0
 50
89.99999999999991
100
AcDbRotatedDimension
1001
ACAD
1000
DSTYLE
1002
{
1070
   344
1005
3C
1070
   343
1005
3C
1070
   173
1070
     1
1070
   289
1070
     2
1070
   279
1070
     2
1070
   288
1070
     1
1070
    77
1070
     3
1070
   172
1070
     1
1070
   174
1070
     0
1070
    74
1070
     0
1070
    73
1070
     0
1070
   284
1070
     8
1070
    78
1070
     8
1070
   140
1040
3.0
1070
    40
1040
6.0
1070
    42
1040
2.0
1070
    44
1040
1.0
1070
    43
1040
10.0
1070
   271
1070
     2
1070
    41
1040
2.0
1002
}
  0
LINE
  5
25E
330
1F
100
AcDbEntity
  8
8
  6
Continuous
 62
   171
370
    18
100
AcDbLine
 10
1290.0
 20
342.0000000000001
 30
0.0
 11
1290.0
 21
438.0000000000001
 31
0.0
  0
TEXT
  5
25F
330
1F
100
AcDbEntity
  8
8
  6
Continuous
 62
   171
370
     9
100
AcDbText
 10
1317.0
 20
411.0000000000001
 30
0.0
 40
18.0
  1
耐荷重
100
AcDbText
  0
TEXT
  5
260
330
1F
100
AcDbEntity
  8
8
  6
Continuous
 62
   171
370
     9
100
AcDbText
 10
1299.0
 20
351.0000000000001
 30
0.0
 40
18.0
  1
（歩道用）
100
AcDbText
  0
LINE
  5
261
330
1F
100
AcDbEntity
  8
8
  6
Continuous
 62
   171
370
    18
100
AcDbLine
 10
1398.0
 20
342.0000000000001
 30
0.0
 11
1398.0
 21
438.0000000000001
 31
0.0
  0
LINE
  5
262
330
1F
100
AcDbEntity
  8
8
  6
Continuous
 62
   171
370
    18
100
AcDbLine
 10
1506.0
 20
342.0000000000001
 30
0.0
 11
1506.0
 21
438.0000000000001
 31
0.0
  0
LINE
  5
263
330
1F
100
AcDbEntity
  8
8
  6
Continuous
 62
   171
370
    18
100
AcDbLine
 10
1290.0
 20
342.0000000000001
 30
0.0
 11
1506.0
 21
342.0000000000001
 31
0.0
  0
LINE
  5
264
330
1F
100
AcDbEntity
  8
8
  6
Continuous
 62
   171
370
    18
100
AcDbLine
 10
1290.0
 20
438.0000000000001
 30
0.0
 11
1506.0
 21
438.0000000000001
 31
0.0
  0
LINE
  5
265
330
1F
100
AcDbEntity
  8
8
  6
Continuous
 62
   171
370
    18
100
AcDbLine
 10
1290.0
 20
402.0000000000001
 30
0.0
 11
1506.0
 21
402.0000000000001
 31
0.0
  0
TEXT
  5
266
330
1F
100
AcDbEntity
  8
8
  6
Continuous
 62
   171
370
     9
100
AcDbText
 10
1425.0
 20
411.0000000000001
 30
0.0
 40
18.0
  1
重　量
100
AcDbText
  0
TEXT
  5
267
330
1F
100
AcDbEntity
  8
8
  6
Continuous
 62
   171
370
     9
100
AcDbText
 10
1423.2
 20
364.5000000000001
 30
0.0
 40
18.0
  1
4.5kg/枚
 41
0.7999999999999999
100
AcDbText
  0
TEXT
  5
268
330
1F
100
AcDbEntity
  8
8
  6
Continuous
 62
   171
370
     9
100
AcDbText
 10
1308.0
 20
375.0000000000001
 30
0.0
 40
18.0
  1
5.0kN/㎡
100
AcDbText
  0
DIMENSION
  5
273
330
1F
100
AcDbEntity
  8
6
  6
Continuous
 62
     7
370
     9
100
AcDbDimension
  2
Dim5
 10
332.0235484936834
 20
988.274952773929
 30
0.0
 11
323.0235484936834
 21
973.274952773929
 31
0.0
 70
   160
  1
<>
 71
     5
 42
-1.0
  3
Standard
100
AcDbAlignedDimension
 13
402.0235484936838
 23
988.274952773929
 33
0.0
 14
392.0235484936838
 24
958.274952773929
 34
0.0
 50
89.99999999999991
100
AcDbRotatedDimension
1001
ACAD
1000
DSTYLE
1002
{
1070
   344
1005
3C
1070
   343
1005
3C
1070
   173
1070
     1
1070
   289
1070
     2
1070
   279
1070
     2
1070
   288
1070
     1
1070
    77
1070
     3
1070
   172
1070
     1
1070
   174
1070
     0
1070
    74
1070
     0
1070
    73
1070
     0
1070
   284
1070
     8
1070
    78
1070
     8
1070
   140
1040
3.0
1070
    40
1040
6.0
1070
    42
1040
2.0
1070
    44
1040
1.0
1070
    43
1040
10.0
1070
   271
1070
     2
1070
    41
1040
2.0
1002
}
  0
DIMENSION
  5
27E
330
1F
100
AcDbEntity
  8
6
  6
Continuous
 62
     7
370
     9
100
AcDbDimension
  2
Dim6
 10
332.0235484936834
 20
958.274952773929
 30
0.0
 11
323.0235484936834
 21
878.7749159667592
 31
0.0
 70
   160
  1
<>
 71
     5
 42
-1.0
  3
Standard
100
AcDbAlignedDimension
 13
392.0235484936838
 23
958.274952773929
 33
0.0
 14
392.0235484936838
 24
799.2748791595893
 34
0.0
 50
89.99999999999989
100
AcDbRotatedDimension
1001
ACAD
1000
DSTYLE
1002
{
1070
   344
1005
3C
1070
   343
1005
3C
1070
   173
1070
     1
1070
   289
1070
     2
1070
   279
1070
     2
1070
   288
1070
     1
1070
    77
1070
     3
1070
   172
1070
     1
1070
   174
1070
     0
1070
    74
1070
     0
1070
    73
1070
     0
1070
   284
1070
     8
1070
    78
1070
     8
1070
   140
1040
3.0
1070
    40
1040
6.0
1070
    42
1040
2.0
1070
    44
1040
1.0
1070
    43
1040
10.0
1070
   271
1070
     2
1070
    41
1040
2.0
1002
}
  0
DIMENSION
  5
288
330
1F
100
AcDbEntity
  8
6
  6
Continuous
 62
     7
370
     9
100
AcDbDimension
  2
Dim7
 10
332.0235484936834
 20
799.2748791595893
 30
0.0
 11
323.0235484936834
 21
784.2748791595893
 31
0.0
 70
   160
  1
<>
 71
     5
 42
-1.0
  3
Standard
100
AcDbAlignedDimension
 13
392.0235484936838
 23
799.2748791595893
 33
0.0
 14
402.0235484936838
 24
769.2748791595893
 34
0.0
 50
89.99999999999991
100
AcDbRotatedDimension
1001
ACAD
1000
DSTYLE
1002
{
1070
   344
1005
3C
1070
   343
1005
3C
1070
   173
1070
     1
1070
   289
1070
     2
1070
   279
1070
     2
1070
   288
1070
     1
1070
    77
1070
     3
1070
   172
1070
     1
1070
   174
1070
     0
1070
    74
1070
     0
1070
    73
1070
     0
1070
   284
1070
     8
1070
    78
1070
     8
1070
   140
1040
3.0
1070
    40
1040
6.0
1070
    42
1040
2.0
1070
    44
1040
1.0
1070
    43
1040
10.0
1070
   271
1070
     2
1070
    41
1040
2.0
1002
}
  0
DIMENSION
  5
294
330
1F
100
AcDbEntity
  8
6
  6
Continuous
 62
     7
370
     9
100
AcDbDimension
  2
Dim8
 10
290.0235484936833
 20
988.274952773929
 30
0.0
 11
281.0235484936833
 21
878.7749159667592
 31
0.0
 70
   160
  1
<>
 71
     5
 42
-1.0
  3
Standard
100
AcDbAlignedDimension
 13
402.0235484936838
 23
988.274952773929
 33
0.0
 14
402.0235484936838
 24
769.2748791595893
 34
0.0
 50
89.9999999999999
100
AcDbRotatedDimension
1001
ACAD
1000
DSTYLE
1002
{
1070
   344
1005
3C
1070
   343
1005
3C
1070
   173
1070
     1
1070
   289
1070
     2
1070
   279
1070
     2
1070
   288
1070
     1
1070
    77
1070
     3
1070
   172
1070
     1
1070
   174
1070
     0
1070
    74
1070
     0
1070
    73
1070
     0
1070
   284
1070
     8
1070
    78
1070
     8
1070
   140
1040
3.0
1070
    40
1040
6.0
1070
    42
1040
2.0
1070
    44
1040
1.0
1070
    43
1040
10.0
1070
   271
1070
     2
1070
    41
1040
2.0
1002
}
  0
INSERT
  5
29E
330
1F
100
AcDbEntity
  8
0
100
AcDbBlockReference
  2
*G21
 10
0.0
 20
0.0
 30
0.0
  0
CIRCLE
  5
29F
330
1F
100
AcDbEntity
  8
2
  6
Continuous
 62
    90
370
    18
100
AcDbCircle
 10
441.5235484936838
 20
649.9667088402712
 30
0.0
 40
6.499999999999999
  0
CIRCLE
  5
2A0
330
1F
100
AcDbEntity
  8
1
  6
Continuous
 62
    45
370
     9
100
AcDbCircle
 10
441.5235484936838
 20
649.9667088402712
 30
0.0
 40
2.0
  0
INSERT
  5
2AA
330
1F
100
AcDbEntity
  8
0
100
AcDbBlockReference
  2
*G22
 10
0.0
 20
0.0
 30
0.0
  0
CIRCLE
  5
2AB
330
1F
100
AcDbEntity
  8
2
  6
Continuous
 62
    90
370
    18
100
AcDbCircle
 10
541.5235484936838
 20
649.9667088402712
 30
0.0
 40
6.499999999999999
  0
CIRCLE
  5
2AC
330
1F
100
AcDbEntity
  8
1
  6
Continuous
 62
    45
370
     9
100
AcDbCircle
 10
541.5235484936838
 20
649.9667088402712
 30
0.0
 40
2.0
  0
INSERT
  5
2B6
330
1F
100
AcDbEntity
  8
0
100
AcDbBlockReference
  2
*G23
 10
0.0
 20
0.0
 30
0.0
  0
CIRCLE
  5
2B7
330
1F
100
AcDbEntity
  8
2
  6
Continuous
 62
    90
370
    18
100
AcDbCircle
 10
641.5235484936838
 20
649.9667088402712
 30
0.0
 40
6.499999999999999
  0
CIRCLE
  5
2B8
330
1F
100
AcDbEntity
  8
1
  6
Continuous
 62
    45
370
     9
100
AcDbCircle
 10
641.5235484936838
 20
649.9667088402712
 30
0.0
 40
2.0
  0
INSERT
  5
2C2
330
1F
100
AcDbEntity
  8
0
100
AcDbBlockReference
  2
*G24
 10
0.0
 20
0.0
 30
0.0
  0
CIRCLE
  5
2C3
330
1F
100
AcDbEntity
  8
2
  6
Continuous
 62
    90
370
    18
100
AcDbCircle
 10
741.5235484936838
 20
649.9667088402712
 30
0.0
 40
6.499999999999999
  0
CIRCLE
  5
2C4
330
1F
100
AcDbEntity
  8
1
  6
Continuous
 62
    45
370
     9
100
AcDbCircle
 10
741.5235484936838
 20
649.9667088402712
 30
0.0
 40
2.0
  0
INSERT
  5
2CE
330
1F
100
AcDbEntity
  8
0
100
AcDbBlockReference
  2
*G25
 10
0.0
 20
0.0
 30
0.0
  0
CIRCLE
  5
2CF
330
1F
100
AcDbEntity
  8
2
  6
Continuous
 62
    90
370
    18
100
AcDbCircle
 10
841.5235484936838
 20
649.9667088402712
 30
0.0
 40
6.499999999999999
  0
CIRCLE
  5
2D0
330
1F
100
AcDbEntity
  8
1
  6
Continuous
 62
    45
370
     9
100
AcDbCircle
 10
841.5235484936838
 20
649.9667088402712
 30
0.0
 40
2.0
  0
INSERT
  5
2DA
330
1F
100
AcDbEntity
  8
0
100
AcDbBlockReference
  2
*G26
 10
0.0
 20
0.0
 30
0.0
  0
CIRCLE
  5
2DB
330
1F
100
AcDbEntity
  8
2
  6
Continuous
 62
    90
370
    18
100
AcDbCircle
 10
941.5235484936838
 20
649.9667088402712
 30
0.0
 40
6.499999999999999
  0
CIRCLE
  5
2DC
330
1F
100
AcDbEntity
  8
1
  6
Continuous
 62
    45
370
     9
100
AcDbCircle
 10
941.5235484936838
 20
649.9667088402712
 30
0.0
 40
2.0
  0
INSERT
  5
2E6
330
1F
100
AcDbEntity
  8
0
100
AcDbBlockReference
  2
*G27
 10
0.0
 20
0.0
 30
0.0
  0
CIRCLE
  5
2E7
330
1F
100
AcDbEntity
  8
2
  6
Continuous
 62
    90
370
    18
100
AcDbCircle
 10
1041.523548493684
 20
649.9667088402712
 30
0.0
 40
6.499999999999999
  0
CIRCLE
  5
2E8
330
1F
100
AcDbEntity
  8
1
  6
Continuous
 62
    45
370
     9
100
AcDbCircle
 10
1041.523548493684
 20
649.9667088402712
 30
0.0
 40
2.0
  0
INSERT
  5
2F2
330
1F
100
AcDbEntity
  8
0
100
AcDbBlockReference
  2
*G28
 10
0.0
 20
0.0
 30
0.0
  0
CIRCLE
  5
2F3
330
1F
100
AcDbEntity
  8
2
  6
Continuous
 62
    90
370
    18
100
AcDbCircle
 10
1141.523548493684
 20
649.9667088402712
 30
0.0
 40
6.499999999999999
  0
CIRCLE
  5
2F4
330
1F
100
AcDbEntity
  8
1
  6
Continuous
 62
    45
370
     9
100
AcDbCircle
 10
1141.523548493684
 20
649.9667088402712
 30
0.0
 40
2.0
  0
INSERT
  5
2FE
330
1F
100
AcDbEntity
  8
0
100
AcDbBlockReference
  2
*G29
 10
0.0
 20
0.0
 30
0.0
  0
CIRCLE
  5
2FF
330
1F
100
AcDbEntity
  8
2
  6
Continuous
 62
    90
370
    18
100
AcDbCircle
 10
1241.523548493684
 20
649.9667088402712
 30
0.0
 40
6.499999999999999
  0
CIRCLE
  5
300
330
1F
100
AcDbEntity
  8
1
  6
Continuous
 62
    45
370
     9
100
AcDbCircle
 10
1241.523548493684
 20
649.9667088402712
 30
0.0
 40
2.0
  0
INSERT
  5
30A
330
1F
100
AcDbEntity
  8
0
100
AcDbBlockReference
  2
*G30
 10
0.0
 20
0.0
 30
0.0
  0
CIRCLE
  5
30B
330
1F
100
AcDbEntity
  8
2
  6
Continuous
 62
    90
370
    18
100
AcDbCircle
 10
1341.523548493684
 20
649.9667088402712
 30
0.0
 40
6.499999999999999
  0
CIRCLE
  5
30C
330
1F
100
AcDbEntity
  8
1
  6
Continuous
 62
    45
370
     9
100
AcDbCircle
 10
1341.523548493684
 20
649.9667088402712
 30
0.0
 40
2.0
  0
CIRCLE
  5
30D
330
1F
100
AcDbEntity
  8
2
  6
Continuous
 62
    90
370
    18
100
AcDbCircle
 10
408.5235484936838
 20
646.3667310990709
 30
0.0
 40
9.0
  0
CIRCLE
  5
30E
330
1F
100
AcDbEntity
  8
2
  6
Continuous
 62
    90
370
    18
100
AcDbCircle
 10
408.5235484936838
 20
646.3667310990709
 30
0.0
 40
7.0
  0
INSERT
  5
318
330
1F
100
AcDbEntity
  8
0
100
AcDbBlockReference
  2
*G31
 10
0.0
 20
0.0
 30
0.0
  0
LINE
  5
319
330
1F
100
AcDbEntity
  8
1
  6
DASHDOT
 62
    45
370
     9
100
AcDbLine
 10
691.5235484936838
 20
658.6978975042593
 30
0.0
 11
691.5235484936838
 21
628.4493378334766
 31
0.0
  0
CIRCLE
  5
31A
330
1F
100
AcDbEntity
  8
2
  6
Continuous
 62
    90
370
    18
100
AcDbCircle
 10
691.5235484936838
 20
646.3667310990709
 30
0.0
 40
9.0
  0
CIRCLE
  5
31B
330
1F
100
AcDbEntity
  8
2
  6
Continuous
 62
    90
370
    18
100
AcDbCircle
 10
691.5235484936838
 20
646.3667310990709
 30
0.0
 40
7.0
  0
INSERT
  5
325
330
1F
100
AcDbEntity
  8
0
100
AcDbBlockReference
  2
*G32
 10
0.0
 20
0.0
 30
0.0
  0
LINE
  5
326
330
1F
100
AcDbEntity
  8
1
  6
DASHDOT
 62
    45
370
     9
100
AcDbLine
 10
1091.523548493684
 20
658.6978975042593
 30
0.0
 11
1091.523548493684
 21
628.4493378334766
 31
0.0
  0
CIRCLE
  5
327
330
1F
100
AcDbEntity
  8
2
  6
Continuous
 62
    90
370
    18
100
AcDbCircle
 10
1091.523548493684
 20
646.3667310990709
 30
0.0
 40
9.0
  0
CIRCLE
  5
328
330
1F
100
AcDbEntity
  8
2
  6
Continuous
 62
    90
370
    18
100
AcDbCircle
 10
1091.523548493684
 20
646.3667310990709
 30
0.0
 40
7.0
  0
INSERT
  5
332
330
1F
100
AcDbEntity
  8
0
100
AcDbBlockReference
  2
*G33
 10
0.0
 20
0.0
 30
0.0
  0
LINE
  5
333
330
1F
100
AcDbEntity
  8
1
  6
DASHDOT
 62
    45
370
     9
100
AcDbLine
 10
1374.523548493684
 20
658.6978975042593
 30
0.0
 11
1374.523548493684
 21
628.4493378334766
 31
0.0
  0
CIRCLE
  5
334
330
1F
100
AcDbEntity
  8
2
  6
Continuous
 62
    90
370
    18
100
AcDbCircle
 10
1374.523548493684
 20
646.3667310990709
 30
0.0
 40
9.0
  0
CIRCLE
  5
335
330
1F
100
AcDbEntity
  8
2
  6
Continuous
 62
    90
370
    18
100
AcDbCircle
 10
1374.523548493684
 20
646.3667310990709
 30
0.0
 40
7.0
  0
INSERT
  5
33F
330
1F
100
AcDbEntity
  8
0
100
AcDbBlockReference
  2
*G34
 10
0.0
 20
0.0
 30
0.0
  0
TEXT
  5
340
330
1F
100
AcDbEntity
  8
8
  6
Continuous
 62
   171
370
     9
100
AcDbText
 10
1506.0
 20
114.0
 30
0.0
 40
24.0
  1
隠塚
100
AcDbText
  0
TEXT
  5
341
330
1F
100
AcDbEntity
  8
8
  6
Continuous
 62
   171
370
     9
100
AcDbText
 10
1578.0
 20
114.0
 30
0.0
 40
24.0
  1
渋田
100
AcDbText
  0
TEXT
  5
342
330
1F
100
AcDbEntity
  8
8
  6
Continuous
 62
   171
370
     9
100
AcDbText
 10
531.0563110094076
 20
130.2749498388115
 30
0.0
 40
30.0
  1
断　面　図
 41
0.8
100
AcDbText
  0
TEXT
  5
343
330
1F
100
AcDbEntity
  8
8
  6
Continuous
 62
   171
370
     9
100
AcDbText
 10
686.9950747084091
 20
130.2749498388115
 30
0.0
 40
24.0
  1
Ｓ＝１：３
 41
0.7999999999999999
100
AcDbText
  0
INSERT
  5
35B
330
1F
100
AcDbEntity
  8
0
100
AcDbBlockReference
  2
*G35
 10
0.0
 20
0.0
 30
0.0
  0
INSERT
  5
373
330
1F
100
AcDbEntity
  8
0
100
AcDbBlockReference
  2
*G36
 10
0.0
 20
0.0
 30
0.0
  0
INSERT
  5
38B
330
1F
100
AcDbEntity
  8
0
100
AcDbBlockReference
  2
*G37
 10
0.0
 20
0.0
 30
0.0
  0
INSERT
  5
3A3
330
1F
100
AcDbEntity
  8
0
100
AcDbBlockReference
  2
*G38
 10
0.0
 20
0.0
 30
0.0
  0
INSERT
  5
3BB
330
1F
100
AcDbEntity
  8
0
100
AcDbBlockReference
  2
*G39
 10
0.0
 20
0.0
 30
0.0
  0
INSERT
  5
3D3
330
1F
100
AcDbEntity
  8
0
100
AcDbBlockReference
  2
*G40
 10
0.0
 20
0.0
 30
0.0
  0
INSERT
  5
3EB
330
1F
100
AcDbEntity
  8
0
100
AcDbBlockReference
  2
*G41
 10
0.0
 20
0.0
 30
0.0
  0
LINE
  5
3EC
330
1F
100
AcDbEntity
  8
12
  6
Continuous
 62
   136
370
    18
100
AcDbLine
 10
594.4000000022063
 20
303.9589434213516
 30
0.0
 11
621.5999999996186
 21
303.9589434213516
 31
0.0
  0
LINE
  5
3ED
330
1F
100
AcDbEntity
  8
12
  6
Continuous
 62
   136
370
    18
100
AcDbLine
 10
594.4000000022063
 20
277.9589434213513
 30
0.0
 11
621.5999999996186
 21
277.9589434213513
 31
0.0
  0
LINE
  5
3EE
330
1F
100
AcDbEntity
  8
12
  6
Continuous
 62
   136
370
    18
100
AcDbLine
 10
628.4000000021504
 20
303.9589434213516
 30
0.0
 11
655.5999999995626
 21
303.9589434213516
 31
0.0
  0
LINE
  5
3EF
330
1F
100
AcDbEntity
  8
12
  6
Continuous
 62
   136
370
    18
100
AcDbLine
 10
628.4000000021504
 20
277.9589434213513
 30
0.0
 11
655.5999999995626
 21
277.9589434213513
 31
0.0
  0
LINE
  5
3F0
330
1F
100
AcDbEntity
  8
12
  6
Continuous
 62
   136
370
    18
100
AcDbLine
 10
662.4000000028748
 20
303.9589434213516
 30
0.0
 11
689.6000000002869
 21
303.9589434213516
 31
0.0
  0
LINE
  5
3F1
330
1F
100
AcDbEntity
  8
12
  6
Continuous
 62
   136
370
    18
100
AcDbLine
 10
662.4000000028748
 20
277.9589434213513
 30
0.0
 11
689.6000000002869
 21
277.9589434213513
 31
0.0
  0
LINE
  5
3F2
330
1F
100
AcDbEntity
  8
12
  6
Continuous
 62
   136
370
    18
100
AcDbLine
 10
560.4000000007029
 20
303.9589434213516
 30
0.0
 11
587.599999998115
 21
303.9589434213516
 31
0.0
  0
LINE
  5
3F3
330
1F
100
AcDbEntity
  8
12
  6
Continuous
 62
   136
370
    18
100
AcDbLine
 10
560.4000000007029
 20
277.9589434213513
 30
0.0
 11
587.599999998115
 21
277.9589434213513
 31
0.0
  0
LINE
  5
3F4
330
1F
100
AcDbEntity
  8
12
  6
Continuous
 62
   136
370
    18
100
AcDbLine
 10
526.3999999999817
 20
303.9589434213516
 30
0.0
 11
553.599999997394
 21
303.9589434213516
 31
0.0
  0
LINE
  5
3F5
330
1F
100
AcDbEntity
  8
12
  6
Continuous
 62
   136
370
    18
100
AcDbLine
 10
526.3999999999817
 20
277.9589434213513
 30
0.0
 11
553.599999997394
 21
277.9589434213513
 31
0.0
  0
LINE
  5
3F6
330
1F
100
AcDbEntity
  8
12
  6
Continuous
 62
   136
370
    18
100
AcDbLine
 10
492.3999999992586
 20
303.9589434213516
 30
0.0
 11
519.5999999966707
 21
303.9589434213516
 31
0.0
  0
LINE
  5
3F7
330
1F
100
AcDbEntity
  8
12
  6
Continuous
 62
   136
370
    18
100
AcDbLine
 10
492.3999999992586
 20
277.9589434213513
 30
0.0
 11
519.5999999966707
 21
277.9589434213513
 31
0.0
  0
LINE
  5
3F8
330
1F
100
AcDbEntity
  8
11
  6
DASHDOT
 62
    16
370
     9
100
AcDbLine
 10
591.0
 20
240.1929368816745
 30
0.0
 11
591.0
 21
337.6329368816744
 31
0.0
  0
INSERT
  5
404
330
1F
100
AcDbEntity
  8
0
100
AcDbBlockReference
  2
*G42
 10
0.0
 20
0.0
 30
0.0
  0
INSERT
  5
40E
330
1F
100
AcDbEntity
  8
0
100
AcDbBlockReference
  2
*G43
 10
0.0
 20
0.0
 30
0.0
  0
INSERT
  5
426
330
1F
100
AcDbEntity
  8
0
100
AcDbBlockReference
  2
*G44
 10
0.0
 20
0.0
 30
0.0
  0
ARC
  5
427
330
1F
100
AcDbEntity
  8
12
  6
Continuous
 62
   136
370
    18
100
AcDbCircle
 10
427.9999263856603
 20
309.7589434213513
 30
0.0
 40
4.0
100
AcDbArc
 50
0.0
 51
89.99999999999991
  0
LINE
  5
428
330
1F
100
AcDbEntity
  8
12
  6
Continuous
 62
   136
370
    18
100
AcDbLine
 10
427.9999263856603
 20
313.7589434213514
 30
0.0
 11
372.5999263856604
 21
313.7589434213514
 31
0.0
  0
LINE
  5
429
330
1F
100
AcDbEntity
  8
12
  6
Continuous
 62
   136
370
    18
100
AcDbLine
 10
372.5999263856604
 20
313.7589434213514
 30
0.0
 11
371.9999263856603
 21
313.1589434213515
 31
0.0
  0
LINE
  5
42A
330
1F
100
AcDbEntity
  8
12
  6
Continuous
 62
   136
370
    18
100
AcDbLine
 10
371.9999263856603
 20
313.1589434213515
 30
0.0
 11
371.9999263856603
 21
310.3589434213513
 31
0.0
  0
LINE
  5
42B
330
1F
100
AcDbEntity
  8
12
  6
Continuous
 62
   136
370
    18
100
AcDbLine
 10
427.9999263856607
 20
309.7589434213513
 30
0.0
 11
372.5999263856604
 21
309.7589434213513
 31
0.0
  0
LINE
  5
42C
330
1F
100
AcDbEntity
  8
12
  6
Continuous
 62
   136
370
    18
100
AcDbLine
 10
371.9999263856603
 20
310.3589434213513
 30
0.0
 11
372.5999263856604
 21
309.7589434213513
 31
0.0
  0
LINE
  5
42D
330
1F
100
AcDbEntity
  8
12
  6
Continuous
 62
   136
370
    18
100
AcDbLine
 10
427.9999263856607
 20
309.7589434213513
 30
0.0
 11
427.9999263856607
 21
254.3589434213515
 31
0.0
  0
LINE
  5
42E
330
1F
100
AcDbEntity
  8
12
  6
Continuous
 62
   136
370
    18
100
AcDbLine
 10
427.9999263856607
 20
254.3589434213515
 30
0.0
 11
428.5999263856606
 21
253.7589434213514
 31
0.0
  0
LINE
  5
42F
330
1F
100
AcDbEntity
  8
12
  6
Continuous
 62
   136
370
    18
100
AcDbLine
 10
428.5999263856606
 20
253.7589434213514
 30
0.0
 11
431.3999263856604
 21
253.7589434213514
 31
0.0
  0
LINE
  5
430
330
1F
100
AcDbEntity
  8
12
  6
Continuous
 62
   136
370
    18
100
AcDbLine
 10
431.9999263856603
 20
309.7589434213513
 30
0.0
 11
431.9999263856603
 21
254.3589434213515
 31
0.0
  0
LINE
  5
431
330
1F
100
AcDbEntity
  8
12
  6
Continuous
 62
   136
370
    18
100
AcDbLine
 10
431.3999263856604
 20
253.7589434213514
 30
0.0
 11
431.9999263856603
 21
254.3589434213515
 31
0.0
  0
LINE
  5
432
330
1F
100
AcDbEntity
  8
11
  6
HIDDEN
 62
    16
370
     9
100
AcDbLine
 10
431.9999999971023
 20
297.7589879389515
 30
0.0
 11
437.9999999971023
 21
297.7589879389515
 31
0.0
  0
LINE
  5
433
330
1F
100
AcDbEntity
  8
11
  6
HIDDEN
 62
    16
370
     9
100
AcDbLine
 10
437.9999999971023
 20
297.7589879389515
 30
0.0
 11
437.9999999971023
 21
263.7589879389518
 31
0.0
  0
ARC
  5
434
330
1F
100
AcDbEntity
  8
11
  6
HIDDEN
 62
    16
370
     9
100
AcDbCircle
 10
437.9999999971023
 20
263.7589879389518
 30
0.0
 40
6.0
100
AcDbArc
 50
179.9999999999998
 51
269.9999999999998
  0
LINE
  5
435
330
1F
100
AcDbEntity
  8
12
  6
Continuous
 62
   136
370
    18
100
AcDbLine
 10
458.7999999985338
 20
303.9589434213516
 30
0.0
 11
485.5999999959463
 21
303.9589434213516
 31
0.0
  0
LINE
  5
436
330
1F
100
AcDbEntity
  8
12
  6
Continuous
 62
   136
370
    18
100
AcDbLine
 10
458.7999999985338
 20
277.9589434213513
 30
0.0
 11
485.5999999959463
 21
277.9589434213513
 31
0.0
  0
LINE
  5
437
330
1F
100
AcDbEntity
  8
12
  6
Continuous
 62
   136
370
    18
100
AcDbLine
 10
431.9999263856603
 20
303.9589434213516
 30
0.0
 11
451.9999999944425
 21
303.9589434213516
 31
0.0
  0
LINE
  5
438
330
1F
100
AcDbEntity
  8
12
  6
Continuous
 62
   136
370
    18
100
AcDbLine
 10
431.9999263856603
 20
277.9589434213513
 30
0.0
 11
451.9999999944425
 21
277.9589434213513
 31
0.0
  0
LINE
  5
439
330
1F
100
AcDbEntity
  8
12
  6
Continuous
 62
   136
370
    18
100
AcDbLine
 10
754.0000736143393
 20
277.958943421353
 30
0.0
 11
756.5935696143403
 21
277.958943421353
 31
0.0
  0
LINE
  5
43A
330
1F
100
AcDbEntity
  8
12
  6
Continuous
 62
   136
370
    18
100
AcDbLine
 10
754.0000736143393
 20
303.9589434213533
 30
0.0
 11
756.5935696143403
 21
303.9589434213533
 31
0.0
  0
LINE
  5
43B
330
1F
100
AcDbEntity
  8
12
  6
Continuous
 62
   136
370
    18
100
AcDbLine
 10
756.9935696143386
 20
303.5589434213515
 30
0.0
 11
756.9935696143386
 21
289.958943421353
 31
0.0
  0
LINE
  5
43C
330
1F
100
AcDbEntity
  8
12
  6
Continuous
 62
   136
370
    18
100
AcDbLine
 10
756.9935696143386
 20
289.958943421353
 30
0.0
 11
756.9935696143386
 21
278.3589434213526
 31
0.0
  0
ARC
  5
43D
330
1F
100
AcDbEntity
  8
12
  6
Continuous
 62
   136
370
    18
100
AcDbCircle
 10
756.5935696143403
 20
303.5589434213515
 30
0.0
 40
0.4000000000000002
100
AcDbArc
 50
0.0
 51
89.99999999999991
  0
ARC
  5
43E
330
1F
100
AcDbEntity
  8
12
  6
Continuous
 62
   136
370
    18
100
AcDbCircle
 10
756.5935696143403
 20
278.3589434213526
 30
0.0
 40
0.4000000000000002
100
AcDbArc
 50
269.9999999999998
 51
0.0
  0
INSERT
  5
44A
330
1F
100
AcDbEntity
  8
0
100
AcDbBlockReference
  2
*G45
 10
0.0
 20
0.0
 30
0.0
  0
INSERT
  5
462
330
1F
100
AcDbEntity
  8
0
100
AcDbBlockReference
  2
*G46
 10
0.0
 20
0.0
 30
0.0
  0
ARC
  5
463
330
1F
100
AcDbEntity
  8
12
  6
Continuous
 62
   136
370
    18
100
AcDbCircle
 10
754.0000736143398
 20
309.7589434213513
 30
0.0
 40
4.0
100
AcDbArc
 50
89.99999999999991
 51
179.9999999999998
  0
LINE
  5
464
330
1F
100
AcDbEntity
  8
12
  6
Continuous
 62
   136
370
    18
100
AcDbLine
 10
754.0000736143398
 20
313.7589434213514
 30
0.0
 11
809.4000736143396
 21
313.7589434213514
 31
0.0
  0
LINE
  5
465
330
1F
100
AcDbEntity
  8
12
  6
Continuous
 62
   136
370
    18
100
AcDbLine
 10
809.4000736143396
 20
313.7589434213514
 30
0.0
 11
810.0000736143395
 21
313.1589434213515
 31
0.0
  0
LINE
  5
466
330
1F
100
AcDbEntity
  8
12
  6
Continuous
 62
   136
370
    18
100
AcDbLine
 10
754.0000736143393
 20
309.7589434213513
 30
0.0
 11
809.4000736143396
 21
309.7589434213513
 31
0.0
  0
LINE
  5
467
330
1F
100
AcDbEntity
  8
12
  6
Continuous
 62
   136
370
    18
100
AcDbLine
 10
810.0000736143395
 20
313.1589434213515
 30
0.0
 11
810.0000736143395
 21
310.3589434213513
 31
0.0
  0
LINE
  5
468
330
1F
100
AcDbEntity
  8
12
  6
Continuous
 62
   136
370
    18
100
AcDbLine
 10
809.4000736143396
 20
309.7589434213513
 30
0.0
 11
810.0000736143395
 21
310.3589434213513
 31
0.0
  0
LINE
  5
469
330
1F
100
AcDbEntity
  8
12
  6
Continuous
 62
   136
370
    18
100
AcDbLine
 10
750.0000736143395
 20
309.7589434213513
 30
0.0
 11
750.0000736143395
 21
254.3589434213515
 31
0.0
  0
LINE
  5
46A
330
1F
100
AcDbEntity
  8
12
  6
Continuous
 62
   136
370
    18
100
AcDbLine
 10
750.0000736143395
 20
254.3589434213515
 30
0.0
 11
750.6000736143396
 21
253.7589434213514
 31
0.0
  0
LINE
  5
46B
330
1F
100
AcDbEntity
  8
12
  6
Continuous
 62
   136
370
    18
100
AcDbLine
 10
750.6000736143396
 20
253.7589434213514
 30
0.0
 11
753.4000736143391
 21
253.7589434213514
 31
0.0
  0
LINE
  5
46C
330
1F
100
AcDbEntity
  8
12
  6
Continuous
 62
   136
370
    18
100
AcDbLine
 10
754.0000736143393
 20
309.7589434213513
 30
0.0
 11
754.0000736143393
 21
254.3589434213515
 31
0.0
  0
LINE
  5
46D
330
1F
100
AcDbEntity
  8
12
  6
Continuous
 62
   136
370
    18
100
AcDbLine
 10
753.4000736143391
 20
253.7589434213514
 30
0.0
 11
754.0000736143393
 21
254.3589434213515
 31
0.0
  0
LINE
  5
46E
330
1F
100
AcDbEntity
  8
11
  6
HIDDEN
 62
    16
370
     9
100
AcDbLine
 10
750.0000736143395
 20
297.7589879389536
 30
0.0
 11
744.0000736143395
 21
297.7589879389536
 31
0.0
  0
LINE
  5
46F
330
1F
100
AcDbEntity
  8
11
  6
HIDDEN
 62
    16
370
     9
100
AcDbLine
 10
744.0000736143395
 20
297.7589879389536
 30
0.0
 11
744.0000736143395
 21
263.7589879389518
 31
0.0
  0
ARC
  5
470
330
1F
100
AcDbEntity
  8
11
  6
HIDDEN
 62
    16
370
     9
100
AcDbCircle
 10
744.0000736143395
 20
263.7589879389534
 30
0.0
 40
6.0
100
AcDbArc
 50
269.9999999999998
 51
0.0
  0
LINE
  5
471
330
1F
100
AcDbEntity
  8
12
  6
Continuous
 62
   136
370
    18
100
AcDbLine
 10
696.4000000035978
 20
303.9589434213516
 30
0.0
 11
723.2000000010105
 21
303.9589434213516
 31
0.0
  0
LINE
  5
472
330
1F
100
AcDbEntity
  8
12
  6
Continuous
 62
   136
370
    18
100
AcDbLine
 10
696.4000000035978
 20
277.9589434213513
 30
0.0
 11
723.2000000010105
 21
277.9589434213513
 31
0.0
  0
LINE
  5
473
330
1F
100
AcDbEntity
  8
12
  6
Continuous
 62
   136
370
    18
100
AcDbLine
 10
750.0000739817217
 20
303.9589434213516
 30
0.0
 11
730.0000003729398
 21
303.9589434213516
 31
0.0
  0
LINE
  5
474
330
1F
100
AcDbEntity
  8
12
  6
Continuous
 62
   136
370
    18
100
AcDbLine
 10
750.0000739817217
 20
277.9589434213513
 30
0.0
 11
730.0000003729398
 21
277.9589434213513
 31
0.0
  0
LINE
  5
475
330
1F
100
AcDbEntity
  8
11
  6
HIDDEN
 62
    16
370
     9
100
AcDbLine
 10
744.0000736143395
 20
263.7589879389518
 30
0.0
 11
437.9999999971023
 21
263.7589879389518
 31
0.0
  0
LINE
  5
476
330
1F
100
AcDbEntity
  8
11
  6
HIDDEN
 62
    16
370
     9
100
AcDbLine
 10
744.0000736143395
 20
257.7589879389518
 30
0.0
 11
437.9999999971023
 21
257.7589879389518
 31
0.0
  0
LINE
  5
477
330
1F
100
AcDbEntity
  8
11
  6
DASHDOT
 62
    16
370
     9
100
AcDbLine
 10
414.400691566753
 20
290.9589434213515
 30
0.0
 11
765.7073582188877
 21
290.9589434213515
 31
0.0
  0
LINE
  5
478
330
1F
100
AcDbEntity
  8
11
  6
Continuous
 62
    16
370
     9
100
AcDbLine
 10
341.0000122189522
 20
309.7589434213519
 30
0.0
 11
410.999994635582
 21
309.7589434213519
 31
0.0
  0
LINE
  5
479
330
1F
100
AcDbEntity
  8
11
  6
Continuous
 62
    16
370
     9
100
AcDbLine
 10
771.000005364418
 20
309.7589434213519
 30
0.0
 11
840.9999877810478
 21
309.7589434213519
 31
0.0
  0
LINE
  5
47A
330
1F
100
AcDbEntity
  8
11
  6
Continuous
 62
    16
370
     9
100
AcDbLine
 10
771.000005364418
 20
309.7589434213519
 30
0.0
 11
767.807435922288
 21
181.1447585123344
 31
0.0
  0
LINE
  5
47B
330
1F
100
AcDbEntity
  8
11
  6
Continuous
 62
    16
370
     9
100
AcDbLine
 10
840.9999877810478
 20
309.7589434213519
 30
0.0
 11
840.9999877810478
 21
181.1447585123344
 31
0.0
  0
LINE
  5
47C
330
1F
100
AcDbEntity
  8
11
  6
Continuous
 62
    16
370
     9
100
AcDbLine
 10
410.999994635582
 20
309.7589434213519
 30
0.0
 11
414.1925640777119
 21
181.1447585123344
 31
0.0
  0
LINE
  5
47D
330
1F
100
AcDbEntity
  8
11
  6
Continuous
 62
    16
370
     9
100
AcDbLine
 10
341.0000122189522
 20
309.7589434213519
 30
0.0
 11
341.0000122189522
 21
181.1447585123344
 31
0.0
  0
INSERT
  5
48E
330
1F
100
AcDbEntity
  8
0
100
AcDbBlockReference
  2
*G47
 10
0.0
 20
0.0
 30
0.0
  0
LINE
  5
48F
330
1F
100
AcDbEntity
  8
11
  6
HIDDEN
 62
    16
370
     9
100
AcDbLine
 10
425.9999263747759
 20
301.7589434213498
 30
0.0
 11
425.9999263747759
 21
265.7589434213498
 31
0.0
  0
LINE
  5
490
330
1F
100
AcDbEntity
  8
11
  6
HIDDEN
 62
    16
370
     9
100
AcDbLine
 10
416.9999263747759
 20
291.2589434213477
 30
0.0
 11
416.9999263747759
 21
276.2589434213514
 31
0.0
  0
ARC
  5
491
330
1F
100
AcDbEntity
  8
11
  6
HIDDEN
 62
    16
370
     9
100
AcDbCircle
 10
428.3313483461802
 20
286.0751043752246
 30
0.0
 40
12.46087120349593
100
AcDbArc
 50
110.3407039499493
 51
155.4171032567533
  0
ARC
  5
492
330
1F
100
AcDbEntity
  8
11
  6
HIDDEN
 62
    16
370
     9
100
AcDbCircle
 10
428.3313483461802
 20
281.4427824674751
 30
0.0
 40
12.46087120349593
100
AcDbArc
 50
204.5828967432487
 51
249.6592960500512
  0
LINE
  5
493
330
1F
100
AcDbEntity
  8
11
  6
HIDDEN
 62
    16
370
     9
100
AcDbLine
 10
425.9999263747759
 20
297.7589434213496
 30
0.0
 11
423.9999263747754
 21
297.7589434213496
 31
0.0
  0
LINE
  5
494
330
1F
100
AcDbEntity
  8
11
  6
HIDDEN
 62
    16
370
     9
100
AcDbLine
 10
425.9999263747759
 20
269.7589434213495
 30
0.0
 11
423.9999263747754
 21
269.7589434213495
 31
0.0
  0
LINE
  5
495
330
1F
100
AcDbEntity
  8
11
  6
HIDDEN
 62
    16
370
     9
100
AcDbLine
 10
423.9999263747754
 20
297.7589434213496
 30
0.0
 11
423.9999263747754
 21
269.7589434213495
 31
0.0
  0
LINE
  5
496
330
1F
100
AcDbEntity
  8
11
  6
HIDDEN
 62
    16
370
     9
100
AcDbLine
 10
427.9999263856607
 20
301.7589434213498
 30
0.0
 11
425.9999263747759
 21
301.7589434213498
 31
0.0
  0
LINE
  5
497
330
1F
100
AcDbEntity
  8
11
  6
HIDDEN
 62
    16
370
     9
100
AcDbLine
 10
427.9999263856607
 20
265.7589434213498
 30
0.0
 11
425.9999263747759
 21
265.7589434213498
 31
0.0
  0
LINE
  5
498
330
1F
100
AcDbEntity
  8
11
  6
HIDDEN
 62
    16
370
     9
100
AcDbLine
 10
756.0000736143395
 20
301.7589434213514
 30
0.0
 11
756.0000736143395
 21
265.7589434213514
 31
0.0
  0
LINE
  5
499
330
1F
100
AcDbEntity
  8
11
  6
HIDDEN
 62
    16
370
     9
100
AcDbLine
 10
765.0000736143395
 20
291.2589434213498
 30
0.0
 11
765.0000736143395
 21
276.2589434213531
 31
0.0
  0
ARC
  5
49A
330
1F
100
AcDbEntity
  8
11
  6
HIDDEN
 62
    16
370
     9
100
AcDbCircle
 10
753.6686516429342
 20
286.0751043752261
 30
0.0
 40
12.46087120349593
100
AcDbArc
 50
24.58289674324715
 51
69.65929605005086
  0
ARC
  5
49B
330
1F
100
AcDbEntity
  8
11
  6
HIDDEN
 62
    16
370
     9
100
AcDbCircle
 10
753.6686516429342
 20
281.4427824674767
 30
0.0
 40
12.46087120349593
100
AcDbArc
 50
290.340703949949
 51
335.417103256753
  0
LINE
  5
49C
330
1F
100
AcDbEntity
  8
11
  6
HIDDEN
 62
    16
370
     9
100
AcDbLine
 10
756.0000736143395
 20
297.7589434213513
 30
0.0
 11
758.0000736143389
 21
297.7589434213513
 31
0.0
  0
LINE
  5
49D
330
1F
100
AcDbEntity
  8
11
  6
HIDDEN
 62
    16
370
     9
100
AcDbLine
 10
756.0000736143395
 20
269.7589434213517
 30
0.0
 11
758.0000736143389
 21
269.7589434213517
 31
0.0
  0
LINE
  5
49E
330
1F
100
AcDbEntity
  8
11
  6
HIDDEN
 62
    16
370
     9
100
AcDbLine
 10
758.0000736143389
 20
297.7589434213513
 30
0.0
 11
758.0000736143389
 21
269.7589434213517
 31
0.0
  0
LINE
  5
49F
330
1F
100
AcDbEntity
  8
11
  6
HIDDEN
 62
    16
370
     9
100
AcDbLine
 10
754.0000736143393
 20
301.7589434213514
 30
0.0
 11
756.0000736143395
 21
301.7589434213514
 31
0.0
  0
LINE
  5
4A0
330
1F
100
AcDbEntity
  8
11
  6
HIDDEN
 62
    16
370
     9
100
AcDbLine
 10
754.0000736143393
 20
265.7589434213514
 30
0.0
 11
756.0000736143395
 21
265.7589434213514
 31
0.0
  0
DIMENSION
  5
4AC
330
1F
100
AcDbEntity
  8
14
  6
Continuous
 62
     7
370
     9
100
AcDbDimension
  2
Dim9
 10
371.9999263856607
 20
443.7589879389519
 30
0.0
 11
591.0000000000003
 21
452.7589879389519
 31
0.0
 70
   160
  1
219
 71
     5
 42
-1.0
  3
Standard
100
AcDbAlignedDimension
 13
371.9999263856603
 23
313.1589434213515
 33
0.0
 14
810.0000736143395
 24
313.1589434213515
 34
0.0
100
AcDbRotatedDimension
1001
ACAD
1000
DSTYLE
1002
{
1070
   344
1005
3C
1070
   343
1005
3C
1070
   173
1070
     1
1070
   289
1070
     2
1070
   279
1070
     2
1070
   288
1070
     1
1070
    77
1070
     3
1070
   172
1070
     1
1070
   174
1070
     0
1070
    74
1070
     0
1070
    73
1070
     0
1070
   284
1070
     8
1070
    78
1070
     8
1070
   140
1040
3.0
1070
    40
1040
6.0
1070
    42
1040
2.0
1070
    44
1040
1.0
1070
    43
1040
10.0
1070
   271
1070
     2
1070
    41
1040
2.0
1002
}
  0
DIMENSION
  5
4B7
330
1F
100
AcDbEntity
  8
14
  6
Continuous
 62
     7
370
     9
100
AcDbDimension
  2
Dim10
 10
371.9999263856605
 20
401.7589879389519
 30
0.0
 11
401.9999263856605
 21
410.7589879389519
 31
0.0
 70
   160
  1
30
 71
     5
 42
-1.0
  3
Standard
100
AcDbAlignedDimension
 13
371.9999263856603
 23
313.1589434213515
 33
0.0
 14
431.9999263856603
 24
309.7589434213513
 34
0.0
100
AcDbRotatedDimension
1001
ACAD
1000
DSTYLE
1002
{
1070
   344
1005
3C
1070
   343
1005
3C
1070
   173
1070
     1
1070
   289
1070
     2
1070
   279
1070
     2
1070
   288
1070
     1
1070
    77
1070
     3
1070
   172
1070
     1
1070
   174
1070
     0
1070
    74
1070
     0
1070
    73
1070
     0
1070
   284
1070
     8
1070
    78
1070
     8
1070
   140
1040
3.0
1070
    40
1040
6.0
1070
    42
1040
2.0
1070
    44
1040
1.0
1070
    43
1040
10.0
1070
   271
1070
     2
1070
    41
1040
2.0
1002
}
  0
DIMENSION
  5
4C2
330
1F
100
AcDbEntity
  8
14
  6
Continuous
 62
     7
370
     9
100
AcDbDimension
  2
Dim11
 10
431.9999263856605
 20
401.7589879389519
 30
0.0
 11
591.0000000000001
 21
410.7589879389519
 31
0.0
 70
   160
  1
159
 71
     5
 42
-1.0
  3
Standard
100
AcDbAlignedDimension
 13
431.9999263856603
 23
309.7589434213513
 33
0.0
 14
750.0000736143395
 24
309.7589434213513
 34
0.0
100
AcDbRotatedDimension
1001
ACAD
1000
DSTYLE
1002
{
1070
   344
1005
3C
1070
   343
1005
3C
1070
   173
1070
     1
1070
   289
1070
     2
1070
   279
1070
     2
1070
   288
1070
     1
1070
    77
1070
     3
1070
   172
1070
     1
1070
   174
1070
     0
1070
    74
1070
     0
1070
    73
1070
     0
1070
   284
1070
     8
1070
    78
1070
     8
1070
   140
1040
3.0
1070
    40
1040
6.0
1070
    42
1040
2.0
1070
    44
1040
1.0
1070
    43
1040
10.0
1070
   271
1070
     2
1070
    41
1040
2.0
1002
}
  0
DIMENSION
  5
4CC
330
1F
100
AcDbEntity
  8
14
  6
Continuous
 62
     7
370
     9
100
AcDbDimension
  2
Dim12
 10
750.0000736143396
 20
401.7589879389519
 30
0.0
 11
780.0000736143396
 21
410.7589879389519
 31
0.0
 70
   160
  1
30
 71
     5
 42
-1.0
  3
Standard
100
AcDbAlignedDimension
 13
750.0000736143395
 23
309.7589434213513
 33
0.0
 14
810.0000736143395
 24
313.1589434213515
 34
0.0
100
AcDbRotatedDimension
1001
ACAD
1000
DSTYLE
1002
{
1070
   344
1005
3C
1070
   343
1005
3C
1070
   173
1070
     1
1070
   289
1070
     2
1070
   279
1070
     2
1070
   288
1070
     1
1070
    77
1070
     3
1070
   172
1070
     1
1070
   174
1070
     0
1070
    74
1070
     0
1070
    73
1070
     0
1070
   284
1070
     8
1070
    78
1070
     8
1070
   140
1040
3.0
1070
    40
1040
6.0
1070
    42
1040
2.0
1070
    44
1040
1.0
1070
    43
1040
10.0
1070
   271
1070
     2
1070
    41
1040
2.0
1002
}
  0
DIMENSION
  5
4D8
330
1F
100
AcDbEntity
  8
14
  6
Continuous
 62
     7
370
     9
100
AcDbDimension
  2
Dim13
 10
416.9999263747748
 20
200.1052272623301
 30
0.0
 11
590.9999999945566
 21
209.1052272623301
 31
0.0
 70
   160
  1
174
 71
     5
 42
-1.0
  3
Standard
100
AcDbAlignedDimension
 13
416.9999263747759
 23
270.2589434213542
 33
0.0
 14
765.0000736143395
 24
270.2589434213542
 34
0.0
100
AcDbRotatedDimension
1001
ACAD
1000
DSTYLE
1002
{
1070
   344
1005
3C
1070
   343
1005
3C
1070
   173
1070
     1
1070
   289
1070
     2
1070
   279
1070
     2
1070
   288
1070
     1
1070
    77
1070
     3
1070
   172
1070
     1
1070
   174
1070
     0
1070
    74
1070
     0
1070
    73
1070
     0
1070
   284
1070
     8
1070
    78
1070
     8
1070
   140
1040
3.0
1070
    40
1040
6.0
1070
    42
1040
2.0
1070
    44
1040
1.0
1070
    43
1040
10.0
1070
   271
1070
     2
1070
    41
1040
2.0
1002
}
  0
DIMENSION
  5
4E4
330
1F
100
AcDbEntity
  8
14
  6
Continuous
 62
     7
370
     9
100
AcDbDimension
  2
Dim14
 10
500.3999999956213
 20
359.7589879389519
 30
0.0
 11
459.4678776111928
 21
350.7589879389519
 31
0.0
 70
   160
  1
（6以下）
 71
     5
 42
-1.0
  3
Standard
100
AcDbAlignedDimension
 13
500.3999999956213
 23
308.7589879389516
 33
0.0
 14
511.5999999966669
 24
308.7589879389516
 34
0.0
100
AcDbRotatedDimension
1001
ACAD
1000
DSTYLE
1002
{
1070
   344
1005
3C
1070
   343
1005
3C
1070
   173
1070
     1
1070
   289
1070
     2
1070
   279
1070
     2
1070
   288
1070
     1
1070
    77
1070
     3
1070
   172
1070
     1
1070
   174
1070
     0
1070
    74
1070
     0
1070
    73
1070
     0
1070
   284
1070
     8
1070
    78
1070
     8
1070
   140
1040
3.0
1070
    40
1040
6.0
1070
    42
1040
2.0
1070
    44
1040
1.0
1070
    43
1040
10.0
1070
   271
1070
     2
1070
    41
1040
2.0
1002
}
  0
DIMENSION
  5
4EF
330
1F
100
AcDbEntity
  8
14
  6
Continuous
 62
     7
370
     9
100
AcDbDimension
  2
Dim15
 10
511.599999996667
 20
359.7589879389519
 30
0.0
 11
522.9999999944602
 21
368.7589879389519
 31
0.0
 70
   160
  1
11.4
 71
     5
 42
-1.0
  3
Standard
100
AcDbAlignedDimension
 13
511.5999999966669
 23
308.7589879389516
 33
0.0
 14
534.3999999922532
 24
308.7589879389516
 34
0.0
100
AcDbRotatedDimension
1001
ACAD
1000
DSTYLE
1002
{
1070
   344
1005
3C
1070
   343
1005
3C
1070
   173
1070
     1
1070
   289
1070
     2
1070
   279
1070
     2
1070
   288
1070
     1
1070
    77
1070
     3
1070
   172
1070
     1
1070
   174
1070
     0
1070
    74
1070
     0
1070
    73
1070
     0
1070
   284
1070
     8
1070
    78
1070
     8
1070
   140
1040
3.0
1070
    40
1040
6.0
1070
    42
1040
2.0
1070
    44
1040
1.0
1070
    43
1040
10.0
1070
   271
1070
     2
1070
    41
1040
2.0
1002
}
  0
DIMENSION
  5
4FB
330
1F
100
AcDbEntity
  8
14
  6
Continuous
 62
     7
370
     9
100
AcDbDimension
  2
Dim16
 10
624.9999999996182
 20
359.7589879389519
 30
0.0
 11
608.6358234837543
 21
350.7589879389519
 31
0.0
 70
   160
  1
（17.4以下）
 71
     5
 42
-1.0
  3
Standard
100
AcDbAlignedDimension
 13
624.9999999996181
 23
313.7589879389516
 33
0.0
 14
659.0000000008941
 24
313.7589879389516
 34
0.0
100
AcDbRotatedDimension
1001
ACAD
1000
DSTYLE
1002
{
1070
   344
1005
3C
1070
   343
1005
3C
1070
   173
1070
     1
1070
   289
1070
     2
1070
   279
1070
     2
1070
   288
1070
     1
1070
    77
1070
     3
1070
   172
1070
     1
1070
   174
1070
     0
1070
    74
1070
     0
1070
    73
1070
     0
1070
   284
1070
     8
1070
    78
1070
     8
1070
   140
1040
3.0
1070
    40
1040
6.0
1070
    42
1040
2.0
1070
    44
1040
1.0
1070
    43
1040
10.0
1070
   271
1070
     2
1070
    41
1040
2.0
1002
}
  0
DIMENSION
  5
506
330
1F
100
AcDbEntity
  8
14
  6
Continuous
 62
     7
370
     9
100
AcDbDimension
  2
Dim17
 10
659.0000000008943
 20
359.7589879389519
 30
0.0
 11
702.1512584697224
 21
368.7589879389519
 31
0.0
 70
   160
  1
（17.4以下）
 71
     5
 42
-1.0
  3
Standard
100
AcDbAlignedDimension
 13
659.0000000008941
 23
313.7589879389516
 33
0.0
 14
693.0000000016177
 24
313.7589879389516
 34
0.0
100
AcDbRotatedDimension
1001
ACAD
1000
DSTYLE
1002
{
1070
   344
1005
3C
1070
   343
1005
3C
1070
   173
1070
     1
1070
   289
1070
     2
1070
   279
1070
     2
1070
   288
1070
     1
1070
    77
1070
     3
1070
   172
1070
     1
1070
   174
1070
     0
1070
    74
1070
     0
1070
    73
1070
     0
1070
   284
1070
     8
1070
    78
1070
     8
1070
   140
1040
3.0
1070
    40
1040
6.0
1070
    42
1040
2.0
1070
    44
1040
1.0
1070
    43
1040
10.0
1070
   271
1070
     2
1070
    41
1040
2.0
1002
}
  0
LINE
  5
507
330
1F
100
AcDbEntity
  8
3
  6
Continuous
 62
     6
370
    18
100
AcDbLine
 10
392.0235484936838
 20
661.3667310990709
 30
0.0
 11
392.0235484936838
 21
633.3667310990709
 31
0.0
  0
LINE
  5
508
330
1F
100
AcDbEntity
  8
3
  6
Continuous
 62
     6
370
    18
100
AcDbLine
 10
392.0235484936838
 20
633.3667310990709
 30
0.0
 11
394.0235484936838
 21
631.3667310990709
 31
0.0
  0
LINE
  5
509
330
1F
100
AcDbEntity
  8
3
  6
Continuous
 62
     6
370
    18
100
AcDbLine
 10
394.0235484936838
 20
631.3667310990709
 30
0.0
 11
1389.023548493684
 21
631.3667310990709
 31
0.0
  0
LINE
  5
50A
330
1F
100
AcDbEntity
  8
3
  6
Continuous
 62
     6
370
    18
100
AcDbLine
 10
1391.023548493684
 20
661.3667310990709
 30
0.0
 11
1391.023548493684
 21
633.3667310990709
 31
0.0
  0
LINE
  5
50B
330
1F
100
AcDbEntity
  8
3
  6
Continuous
 62
     6
370
    18
100
AcDbLine
 10
1389.023548493684
 20
631.3667310990709
 30
0.0
 11
1391.023548493684
 21
633.3667310990709
 31
0.0
  0
DIMENSION
  5
517
330
1F
100
AcDbEntity
  8
6
  6
Continuous
 62
     7
370
     9
100
AcDbDimension
  2
Dim18
 10
392.0235484936843
 20
1090.274952773929
 30
0.0
 11
891.5235484936844
 21
1099.274952773929
 31
0.0
 70
   160
  1
<>
 71
     5
 42
-1.0
  3
Standard
100
AcDbAlignedDimension
 13
392.0235484936838
 23
978.274952773929
 33
0.0
 14
1391.023548493684
 24
978.274952773929
 34
0.0
100
AcDbRotatedDimension
1001
ACAD
1000
DSTYLE
1002
{
1070
   344
1005
3C
1070
   343
1005
3C
1070
   173
1070
     1
1070
   289
1070
     2
1070
   279
1070
     2
1070
   288
1070
     1
1070
    77
1070
     3
1070
   172
1070
     1
1070
   174
1070
     0
1070
    74
1070
     0
1070
    73
1070
     0
1070
   284
1070
     8
1070
    78
1070
     8
1070
   140
1040
3.0
1070
    40
1040
6.0
1070
    42
1040
2.0
1070
    44
1040
1.0
1070
    43
1040
10.0
1070
   271
1070
     2
1070
    41
1040
2.0
1002
}
  0
DIMENSION
  5
522
330
1F
100
AcDbEntity
  8
6
  6
Continuous
 62
     7
370
     9
100
AcDbDimension
  2
Dim19
 10
392.0235484936842
 20
1048.274952773929
 30
0.0
 11
378.5090997942061
 21
1057.274952773929
 31
0.0
 70
   160
  1
<>
 71
     5
 42
-1.0
  3
Standard
100
AcDbAlignedDimension
 13
392.0235484936838
 23
978.274952773929
 33
0.0
 14
393.5235484936838
 24
958.274952773929
 34
0.0
100
AcDbRotatedDimension
1001
ACAD
1000
DSTYLE
1002
{
1070
   344
1005
3C
1070
   343
1005
3C
1070
   173
1070
     1
1070
   289
1070
     2
1070
   279
1070
     2
1070
   288
1070
     1
1070
    77
1070
     3
1070
   172
1070
     1
1070
   174
1070
     0
1070
    74
1070
     0
1070
    73
1070
     0
1070
   284
1070
     8
1070
    78
1070
     8
1070
   140
1040
3.0
1070
    40
1040
6.0
1070
    42
1040
2.0
1070
    44
1040
1.0
1070
    43
1040
10.0
1070
   271
1070
     2
1070
    41
1040
2.0
1002
}
  0
DIMENSION
  5
52D
330
1F
100
AcDbEntity
  8
6
  6
Continuous
 62
     7
370
     9
100
AcDbDimension
  2
Dim20
 10
393.5235484936843
 20
1048.274952773929
 30
0.0
 11
891.523548493684
 21
1057.274952773929
 31
0.0
 70
   160
  1
<>
 71
     5
 42
-1.0
  3
Standard
100
AcDbAlignedDimension
 13
393.5235484936838
 23
958.274952773929
 33
0.0
 14
1389.523548493684
 24
958.274952773929
 34
0.0
100
AcDbRotatedDimension
1001
ACAD
1000
DSTYLE
1002
{
1070
   344
1005
3C
1070
   343
1005
3C
1070
   173
1070
     1
1070
   289
1070
     2
1070
   279
1070
     2
1070
   288
1070
     1
1070
    77
1070
     3
1070
   172
1070
     1
1070
   174
1070
     0
1070
    74
1070
     0
1070
    73
1070
     0
1070
   284
1070
     8
1070
    78
1070
     8
1070
   140
1040
3.0
1070
    40
1040
6.0
1070
    42
1040
2.0
1070
    44
1040
1.0
1070
    43
1040
10.0
1070
   271
1070
     2
1070
    41
1040
2.0
1002
}
  0
DIMENSION
  5
537
330
1F
100
AcDbEntity
  8
6
  6
Continuous
 62
     7
370
     9
100
AcDbDimension
  2
Dim21
 10
1389.523548493684
 20
1048.274952773929
 30
0.0
 11
1405.009099794228
 21
1057.274952773929
 31
0.0
 70
   160
  1
<>
 71
     5
 42
-1.0
  3
Standard
100
AcDbAlignedDimension
 13
1389.523548493684
 23
958.274952773929
 33
0.0
 14
1391.023548493684
 24
978.274952773929
 34
0.0
100
AcDbRotatedDimension
1001
ACAD
1000
DSTYLE
1002
{
1070
   344
1005
3C
1070
   343
1005
3C
1070
   173
1070
     1
1070
   289
1070
     2
1070
   279
1070
     2
1070
   288
1070
     1
1070
    77
1070
     3
1070
   172
1070
     1
1070
   174
1070
     0
1070
    74
1070
     0
1070
    73
1070
     0
1070
   284
1070
     8
1070
    78
1070
     8
1070
   140
1040
3.0
1070
    40
1040
6.0
1070
    42
1040
2.0
1070
    44
1040
1.0
1070
    43
1040
10.0
1070
   271
1070
     2
1070
    41
1040
2.0
1002
}
  0
DIMENSION
  5
543
330
1F
100
AcDbEntity
  8
6
  6
Continuous
 62
     7
370
     9
100
AcDbDimension
  2
Dim22
 10
392.023548493683
 20
529.3667310990709
 30
0.0
 11
891.523548493683
 21
538.3667310990709
 31
0.0
 70
   160
  1
<>
 71
     5
 42
-1.0
  3
Standard
100
AcDbAlignedDimension
 13
392.0235484936838
 23
633.3667310990709
 33
0.0
 14
1391.023548493684
 24
633.3667310990709
 34
0.0
100
AcDbRotatedDimension
1001
ACAD
1000
DSTYLE
1002
{
1070
   344
1005
3C
1070
   343
1005
3C
1070
   173
1070
     1
1070
   289
1070
     2
1070
   279
1070
     2
1070
   288
1070
     1
1070
    77
1070
     3
1070
   172
1070
     1
1070
   174
1070
     0
1070
    74
1070
     0
1070
    73
1070
     0
1070
   284
1070
     8
1070
    78
1070
     8
1070
   140
1040
3.0
1070
    40
1040
6.0
1070
    42
1040
2.0
1070
    44
1040
1.0
1070
    43
1040
10.0
1070
   271
1070
     2
1070
    41
1040
2.0
1002
}
  0
DIMENSION
  5
54E
330
1F
100
AcDbEntity
  8
6
  6
Continuous
 62
     7
370
     9
100
AcDbDimension
  2
Dim23
 10
392.0235484936838
 20
571.3667310990709
 30
0.0
 11
373.788994984558
 21
580.3667310990709
 31
0.0
 70
   160
  1
<>
 71
     5
 42
-1.0
  3
Standard
100
AcDbAlignedDimension
 13
392.0235484936838
 23
633.3667310990709
 33
0.0
 14
408.5235484936838
 24
628.4493378334766
 34
0.0
100
AcDbRotatedDimension
1001
ACAD
1000
DSTYLE
1002
{
1070
   344
1005
3C
1070
   343
1005
3C
1070
   173
1070
     1
1070
   289
1070
     2
1070
   279
1070
     2
1070
   288
1070
     1
1070
    77
1070
     3
1070
   172
1070
     1
1070
   174
1070
     0
1070
    74
1070
     0
1070
    73
1070
     0
1070
   284
1070
     8
1070
    78
1070
     8
1070
   140
1040
3.0
1070
    40
1040
6.0
1070
    42
1040
2.0
1070
    44
1040
1.0
1070
    43
1040
10.0
1070
   271
1070
     2
1070
    41
1040
2.0
1002
}
  0
DIMENSION
  5
559
330
1F
100
AcDbEntity
  8
6
  6
Continuous
 62
     7
370
     9
100
AcDbDimension
  2
Dim24
 10
408.5235484936838
 20
571.3667310990709
 30
0.0
 11
550.0235484936841
 21
580.3667310990709
 31
0.0
 70
   160
  1
<>
 71
     5
 42
-1.0
  3
Standard
100
AcDbAlignedDimension
 13
408.5235484936838
 23
628.4493378334766
 33
0.0
 14
691.523548493684
 24
628.4493378334766
 34
0.0
100
AcDbRotatedDimension
1001
ACAD
1000
DSTYLE
1002
{
1070
   344
1005
3C
1070
   343
1005
3C
1070
   173
1070
     1
1070
   289
1070
     2
1070
   279
1070
     2
1070
   288
1070
     1
1070
    77
1070
     3
1070
   172
1070
     1
1070
   174
1070
     0
1070
    74
1070
     0
1070
    73
1070
     0
1070
   284
1070
     8
1070
    78
1070
     8
1070
   140
1040
3.0
1070
    40
1040
6.0
1070
    42
1040
2.0
1070
    44
1040
1.0
1070
    43
1040
10.0
1070
   271
1070
     2
1070
    41
1040
2.0
1002
}
  0
DIMENSION
  5
564
330
1F
100
AcDbEntity
  8
6
  6
Continuous
 62
     7
370
     9
100
AcDbDimension
  2
Dim25
 10
691.523548493684
 20
571.3667310990709
 30
0.0
 11
891.523548493684
 21
580.3667310990709
 31
0.0
 70
   160
  1
<>
 71
     5
 42
-1.0
  3
Standard
100
AcDbAlignedDimension
 13
691.523548493684
 23
628.4493378334766
 33
0.0
 14
1091.523548493684
 24
628.4493378334766
 34
0.0
100
AcDbRotatedDimension
1001
ACAD
1000
DSTYLE
1002
{
1070
   344
1005
3C
1070
   343
1005
3C
1070
   173
1070
     1
1070
   289
1070
     2
1070
   279
1070
     2
1070
   288
1070
     1
1070
    77
1070
     3
1070
   172
1070
     1
1070
   174
1070
     0
1070
    74
1070
     0
1070
    73
1070
     0
1070
   284
1070
     8
1070
    78
1070
     8
1070
   140
1040
3.0
1070
    40
1040
6.0
1070
    42
1040
2.0
1070
    44
1040
1.0
1070
    43
1040
10.0
1070
   271
1070
     2
1070
    41
1040
2.0
1002
}
  0
DIMENSION
  5
56F
330
1F
100
AcDbEntity
  8
6
  6
Continuous
 62
     7
370
     9
100
AcDbDimension
  2
Dim26
 10
1091.523548493684
 20
571.3667310990709
 30
0.0
 11
1233.023548493684
 21
580.3667310990709
 31
0.0
 70
   160
  1
<>
 71
     5
 42
-1.0
  3
Standard
100
AcDbAlignedDimension
 13
1091.523548493684
 23
628.4493378334766
 33
0.0
 14
1374.523548493684
 24
628.4493378334766
 34
0.0
100
AcDbRotatedDimension
1001
ACAD
1000
DSTYLE
1002
{
1070
   344
1005
3C
1070
   343
1005
3C
1070
   173
1070
     1
1070
   289
1070
     2
1070
   279
1070
     2
1070
   288
1070
     1
1070
    77
1070
     3
1070
   172
1070
     1
1070
   174
1070
     0
1070
    74
1070
     0
1070
    73
1070
     0
1070
   284
1070
     8
1070
    78
1070
     8
1070
   140
1040
3.0
1070
    40
1040
6.0
1070
    42
1040
2.0
1070
    44
1040
1.0
1070
    43
1040
10.0
1070
   271
1070
     2
1070
    41
1040
2.0
1002
}
  0
DIMENSION
  5
579
330
1F
100
AcDbEntity
  8
6
  6
Continuous
 62
     7
370
     9
100
AcDbDimension
  2
Dim27
 10
1374.523548493684
 20
571.3667310990709
 30
0.0
 11
1408.600106095688
 21
580.3667310990709
 31
0.0
 70
   160
  1
<>
 71
     5
 42
-1.0
  3
Standard
100
AcDbAlignedDimension
 13
1374.523548493684
 23
628.4493378334766
 33
0.0
 14
1391.023548493684
 24
633.3667310990709
 34
0.0
100
AcDbRotatedDimension
1001
ACAD
1000
DSTYLE
1002
{
1070
   344
1005
3C
1070
   343
1005
3C
1070
   173
1070
     1
1070
   289
1070
     2
1070
   279
1070
     2
1070
   288
1070
     1
1070
    77
1070
     3
1070
   172
1070
     1
1070
   174
1070
     0
1070
    74
1070
     0
1070
    73
1070
     0
1070
   284
1070
     8
1070
    78
1070
     8
1070
   140
1040
3.0
1070
    40
1040
6.0
1070
    42
1040
2.0
1070
    44
1040
1.0
1070
    43
1040
10.0
1070
   271
1070
     2
1070
    41
1040
2.0
1002
}
  0
LINE
  5
57A
330
1F
100
AcDbEntity
  8
8
  6
Continuous
 62
   171
370
    18
100
AcDbLine
 10
1710.0
 20
1110.0
 30
0.0
 11
1068.0
 21
1110.0
 31
0.0
  0
LINE
  5
57B
330
1F
100
AcDbEntity
  8
8
  6
Continuous
 62
   171
370
    18
100
AcDbLine
 10
1068.0
 20
1110.0
 30
0.0
 11
1068.0
 21
1151.999999999999
 31
0.0
  0
LINE
  5
57C
330
1F
100
AcDbEntity
  8
8
  6
Continuous
 62
   171
370
    18
100
AcDbLine
 10
1110.0
 20
1110.0
 30
0.0
 11
1110.0
 21
1151.999999999999
 31
0.0
  0
LINE
  5
57D
330
1F
100
AcDbEntity
  8
8
  6
Continuous
 62
   171
370
    18
100
AcDbLine
 10
1410.0
 20
1110.0
 30
0.0
 11
1410.0
 21
1151.999999999999
 31
0.0
  0
LINE
  5
57E
330
1F
100
AcDbEntity
  8
8
  6
Continuous
 62
   171
370
    18
100
AcDbLine
 10
1530.0
 20
1110.0
 30
0.0
 11
1530.0
 21
1151.999999999999
 31
0.0
  0
TEXT
  5
57F
330
1F
100
AcDbEntity
  8
8
  6
Continuous
 62
   171
370
     9
100
AcDbText
 10
1158.6
 20
132.0
 30
0.0
 40
24.0
  1
ＧＲＵ－１８０
 41
0.6
100
AcDbText
  0
TEXT
  5
580
330
1F
100
AcDbEntity
  8
8
  6
Continuous
 62
   171
370
     9
100
AcDbText
 10
1126.620444444444
 20
1113.0
 30
0.0
 40
15.0
  1
品番変更
100
AcDbText
  0
TEXT
  5
581
330
1F
100
AcDbEntity
  8
8
  6
Continuous
 62
   171
370
     9
100
AcDbText
 10
1416.0
 20
1113.0
 30
0.0
 40
15.0
  1
２０１３．０３．１３
 41
0.7199999999999999
100
AcDbText
  0
VIEWPORT
  5
2A
330
1B
100
AcDbEntity
 67
     1
  8
0
100
AcDbViewport
 10
891.0
 20
630.0
 30
0.0
 40
1782.0
 41
1260.0
 68
     1
 69
     1
 12
891.0
 22
630.0
 13
0.0
 23
0.0
 14
0.5
 24
0.5
 15
0.5
 25
0.5
 16
0.0
 26
0.0
 36
1.0
 17
0.0
 27
0.0
 37
0.0
 42
50.0
 43
0.0
 44
0.0
 45
9.0
 50
0.0
 51
0.0
 72
   100
 90
    32800
  1

281
     0
 71
     1
 74
     0
110
0.0
120
0.0
130
0.0
111
1.0
121
0.0
131
0.0
112
0.0
122
1.0
132
0.0
 79
     0
146
0.0
170
     0
  0
ENDSEC
  0
SECTION
  2
OBJECTS
  0
DICTIONARY
  5
C
330
0
100
AcDbDictionary
281
     1
  3
ACAD_GROUP
350
D
  3
ACAD_LAYOUT
350
1A
  3
ACAD_MLINESTYLE
350
17
  3
ACAD_PLOTSETTINGS
350
19
  3
ACAD_PLOTSTYLENAME
350
E
  0
DICTIONARY
  5
D
102
{ACAD_REACTORS
330
C
102
}
330
C
100
AcDbDictionary
281
     1
  0
DICTIONARY
  5
1A
102
{ACAD_REACTORS
330
C
102
}
330
C
100
AcDbDictionary
281
     1
  3
Layout1
350
1E
  3
Layout2
350
26
  3
Model
350
22
  0
DICTIONARY
  5
17
102
{ACAD_REACTORS
330
C
102
}
330
C
100
AcDbDictionary
281
     1
  3
Standard
350
18
  0
DICTIONARY
  5
19
102
{ACAD_REACTORS
330
C
102
}
330
C
100
AcDbDictionary
281
     1
  0
ACDBDICTIONARYWDFLT
  5
E
102
{ACAD_REACTORS
330
C
102
}
330
C
100
AcDbDictionary
281
     1
  3
Normal
350
F
100
AcDbDictionaryWithDefault
340
F
  0
LAYOUT
  5
1E
102
{ACAD_REACTORS
330
1A
102
}
330
1A
100
AcDbPlotSettings
  1

  2

  4

  6

 40
0.0
 41
0.0
 42
0.0
 43
0.0
 44
0.0
 45
0.0
 46
0.0
 47
0.0
 48
0.0
 49
0.0
140
0.0
141
0.0
142
1.0
143
1.0
 70
   688
 72
     0
 73
     0
 74
     5
  7

 75
    16
 76
     0
 77
     2
 78
   300
147
1.0
148
0.0
149
0.0
100
AcDbLayout
  1
Layout1
 70
     1
 71
     1
 10
0.0
 20
0.0
 11
297.0
 21
210.0
 12
0.0
 22
0.0
 32
0.0
 14
0.0
 24
0.0
 34
0.0
 15
297.0
 25
210.0
 35
0.0
146
0.0
 13
0.0
 23
0.0
 33
0.0
 16
1.0
 26
0.0
 36
0.0
 17
0.0
 27
1.0
 37
0.0
 76
     0
330
1B
331
2A
  0
LAYOUT
  5
26
102
{ACAD_REACTORS
330
1A
102
}
330
1A
100
AcDbPlotSettings
  1

  2

  4

  6

 40
0.0
 41
0.0
 42
0.0
 43
0.0
 44
0.0
 45
0.0
 46
0.0
 47
0.0
 48
0.0
 49
0.0
140
0.0
141
0.0
142
1.0
143
1.0
 70
   688
 72
     0
 73
     0
 74
     5
  7

 75
    16
 76
     0
 77
     2
 78
   300
147
1.0
148
0.0
149
0.0
100
AcDbLayout
  1
Layout2
 70
     1
 71
     2
 10
0.0
 20
0.0
 11
0.0
 21
0.0
 12
0.0
 22
0.0
 32
0.0
 14
0.0
 24
0.0
 34
0.0
 15
0.0
 25
0.0
 35
0.0
146
0.0
 13
0.0
 23
0.0
 33
0.0
 16
1.0
 26
0.0
 36
0.0
 17
0.0
 27
1.0
 37
0.0
 76
     0
330
23
  0
LAYOUT
  5
22
102
{ACAD_REACTORS
330
1A
102
}
330
1A
100
AcDbPlotSettings
  1

  2

  4

  6

 40
0.0
 41
0.0
 42
0.0
 43
0.0
 44
0.0
 45
0.0
 46
0.0
 47
0.0
 48
0.0
 49
0.0
140
0.0
141
0.0
142
1.0
143
1.0
 70
  1712
 72
     0
 73
     0
 74
     0
  7

 75
     0
 76
     0
 77
     2
 78
   300
147
1.0
148
0.0
149
0.0
100
AcDbLayout
  1
Model
 70
     1
 71
     0
 10
0.0
 20
0.0
 11
1782.0
 21
1260.0
 12
0.0
 22
0.0
 32
0.0
 14
0.0
 24
0.0
 34
0.0
 15
1782.0
 25
1260.0
 35
0.0
146
0.0
 13
0.0
 23
0.0
 33
0.0
 16
1.0
 26
0.0
 36
0.0
 17
0.0
 27
1.0
 37
0.0
 76
     0
330
1F
  0
MLINESTYLE
  5
18
102
{ACAD_REACTORS
330
17
102
}
330
17
100
AcDbMlineStyle
  2
Standard
 70
     0
  3

 62
   256
 51
90.0
 52
90.0
 71
     2
 49
0.5
 62
   256
  6
BYLAYER
 49
-0.5
 62
   256
  6
BYLAYER
  0
ACDBPLACEHOLDER
  5
F
102
{ACAD_REACTORS
330
E
102
}
330
E
  0
ENDSEC
  0
EOF
