  0
SECTION
  2
HEADER
  9
$ACADVER
  1
AC1018
  9
$ACADMAINTVER
 70
     0
  9
$DWGCODEPAGE
  3
ANSI_932
  9
$INSBASE
 10
0.0
 20
0.0
 30
0.0
  9
$EXTMIN
 10
0.0
 20
0.0
 30
0.0
  9
$EXTMAX
 10
2376.0
 20
1680.0
 30
0.0
  9
$LIMMIN
 10
0.0
 20
0.0
  9
$LIMMAX
 10
2376.0
 20
1680.0
  9
$ORTHOMODE
 70
     0
  9
$REGENMODE
 70
     1
  9
$FILLMODE
 70
     1
  9
$QTEXTMODE
 70
     0
  9
$MIRRTEXT
 70
     1
  9
$LTSCALE
 40
2.0
  9
$ATTMODE
 70
     1
  9
$TEXTSIZE
 40
24.0
  9
$TRACEWID
 40
0.05
  9
$TEXTSTYLE
  7
Standard
  9
$CLAYER
  8
0
  9
$CELTYPE
  6
ByLayer
  9
$CECOLOR
 62
   256
  9
$CELTSCALE
 40
1.0
  9
$DISPSILH
 70
     0
  9
$DIMSCALE
 40
8.0
  9
$DIMASZ
 40
2.0
  9
$DIMEXO
 40
2.0
  9
$DIMDLI
 40
10.0
  9
$DIMRND
 40
0.0
  9
$DIMDLE
 40
0.0
  9
$DIMEXE
 40
1.0
  9
$DIMTP
 40
0.0
  9
$DIMTM
 40
0.0
  9
$DIMTXT
 40
3.0
  9
$DIMCEN
 40
0.09
  9
$DIMTSZ
 40
0.0
  9
$DIMTOL
 70
     0
  9
$DIMLIM
 70
     0
  9
$DIMTIH
 70
     0
  9
$DIMTOH
 70
     0
  9
$DIMSE1
 70
     0
  9
$DIMSE2
 70
     0
  9
$DIMTAD
 70
     3
  9
$DIMZIN
 70
     8
  9
$DIMBLK
  1

  9
$DIMASO
 70
     1
  9
$DIMSHO
 70
     1
  9
$DIMPOST
  1

  9
$DIMAPOST
  1

  9
$DIMALT
 70
     0
  9
$DIMALTD
 70
     2
  9
$DIMALTF
 40
25.4
  9
$DIMLFAC
 40
1.0
  9
$DIMTOFL
 70
     1
  9
$DIMTVP
 40
0.7
  9
$DIMTIX
 70
     0
  9
$DIMSOXD
 70
     0
  9
$DIMSAH
 70
     0
  9
$DIMBLK1
  1

  9
$DIMBLK2
  1

  9
$DIMSTYLE
  2
Standard
  9
$DIMCLRD
 70
     0
  9
$DIMCLRE
 70
     0
  9
$DIMCLRT
 70
     0
  9
$DIMTFAC
 40
0.5
  9
$DIMGAP
 40
0.09
  9
$DIMJUST
 70
     0
  9
$DIMSD1
 70
     0
  9
$DIMSD2
 70
     0
  9
$DIMTOLJ
 70
     1
  9
$DIMTZIN
 70
     8
  9
$DIMALTZ
 70
     0
  9
$DIMALTTZ
 70
     0
  9
$DIMUPT
 70
     1
  9
$DIMDEC
 70
     2
  9
$DIMTDEC
 70
     4
  9
$DIMALTU
 70
     2
  9
$DIMALTTD
 70
     2
  9
$DIMTXSTY
  7
Standard
  9
$DIMAUNIT
 70
     0
  9
$DIMADEC
 70
     0
  9
$DIMALTRND
 40
0.0
  9
$DIMAZIN
 70
     0
  9
$DIMDSEP
 70
    46
  9
$DIMATFIT
 70
     2
  9
$DIMFRAC
 70
     0
  9
$DIMLDRBLK
  1

  9
$DIMLUNIT
 70
     2
  9
$DIMLWD
 70
    -2
  9
$DIMLWE
 70
    -2
  9
$DIMTMOVE
 70
     2
  9
$LUNITS
 70
     2
  9
$LUPREC
 70
     4
  9
$SKETCHINC
 40
0.1
  9
$FILLETRAD
 40
0.5
  9
$AUNITS
 70
     0
  9
$AUPREC
 70
     0
  9
$MENU
  1
.
  9
$ELEVATION
 40
0.0
  9
$PELEVATION
 40
0.0
  9
$THICKNESS
 40
0.0
  9
$LIMCHECK
 70
     0
  9
$CHAMFERA
 40
0.5
  9
$CHAMFERB
 40
0.5
  9
$CHAMFERC
 40
1.0
  9
$CHAMFERD
 40
0.0
  9
$SKPOLY
 70
     0
  9
$TDCREATE
 40
2456421.909826389
  9
$TDUCREATE
 40
2456421.534826389
  9
$TDUPDATE
 40
2456421.909826389
  9
$TDUUPDATE
 40
2456421.534826389
  9
$TDINDWG
 40
0.0000000116
  9
$TDUSRTIMER
 40
0.0000000116
  9
$USRTIMER
 70
     1
  9
$ANGBASE
 50
0.0
  9
$ANGDIR
 70
     0
  9
$PDMODE
 70
     0
  9
$PDSIZE
 40
0.0
  9
$PLINEWID
 40
0.0
  9
$SPLFRAME
 70
     0
  9
$SPLINETYPE
 70
     6
  9
$SPLINESEGS
 70
     8
  9
$HANDSEED
  5
500
  9
$SURFTAB1
 70
     6
  9
$SURFTAB2
 70
     6
  9
$SURFTYPE
 70
     6
  9
$SURFU
 70
     6
  9
$SURFV
 70
     6
  9
$UCSBASE
  2

  9
$UCSNAME
  2

  9
$UCSORG
 10
0.0
 20
0.0
 30
0.0
  9
$UCSXDIR
 10
1.0
 20
0.0
 30
0.0
  9
$UCSYDIR
 10
0.0
 20
1.0
 30
0.0
  9
$UCSORTHOREF
  2

  9
$UCSORTHOVIEW
 70
     0
  9
$UCSORGTOP
 10
0.0
 20
0.0
 30
0.0
  9
$UCSORGBOTTOM
 10
0.0
 20
0.0
 30
0.0
  9
$UCSORGLEFT
 10
0.0
 20
0.0
 30
0.0
  9
$UCSORGRIGHT
 10
0.0
 20
0.0
 30
0.0
  9
$UCSORGFRONT
 10
0.0
 20
0.0
 30
0.0
  9
$UCSORGBACK
 10
0.0
 20
0.0
 30
0.0
  9
$PUCSBASE
  2

  9
$PUCSNAME
  2

  9
$PUCSORG
 10
0.0
 20
0.0
 30
0.0
  9
$PUCSXDIR
 10
1.0
 20
0.0
 30
0.0
  9
$PUCSYDIR
 10
0.0
 20
1.0
 30
0.0
  9
$PUCSORTHOREF
  2

  9
$PUCSORTHOVIEW
 70
     0
  9
$PUCSORGTOP
 10
0.0
 20
0.0
 30
0.0
  9
$PUCSORGBOTTOM
 10
0.0
 20
0.0
 30
0.0
  9
$PUCSORGLEFT
 10
0.0
 20
0.0
 30
0.0
  9
$PUCSORGRIGHT
 10
0.0
 20
0.0
 30
0.0
  9
$PUCSORGFRONT
 10
0.0
 20
0.0
 30
0.0
  9
$PUCSORGBACK
 10
0.0
 20
0.0
 30
0.0
  9
$USERI1
 70
     0
  9
$USERI2
 70
     0
  9
$USERI3
 70
     0
  9
$USERI4
 70
     0
  9
$USERI5
 70
     0
  9
$USERR1
 40
0.0
  9
$USERR2
 40
0.0
  9
$USERR3
 40
0.0
  9
$USERR4
 40
0.0
  9
$USERR5
 40
0.0
  9
$WORLDVIEW
 70
     1
  9
$SHADEDGE
 70
     3
  9
$SHADEDIF
 70
    70
  9
$TILEMODE
 70
     1
  9
$MAXACTVP
 70
    64
  9
$PINSBASE
 10
0.0
 20
0.0
 30
0.0
  9
$PLIMCHECK
 70
     0
  9
$PEXTMIN
 10
0.0
 20
0.0
 30
0.0
  9
$PEXTMAX
 10
297.0
 20
210.0
 30
0.0
  9
$PLIMMIN
 10
0.0
 20
0.0
  9
$PLIMMAX
 10
297.0
 20
210.0
  9
$UNITMODE
 70
     0
  9
$VISRETAIN
 70
     1
  9
$PLINEGEN
 70
     0
  9
$PSLTSCALE
 70
     1
  9
$TREEDEPTH
 70
  3020
  9
$CMLSTYLE
  2
Standard
  9
$CMLJUST
 70
     0
  9
$CMLSCALE
 40
1.0
  9
$PROXYGRAPHICS
 70
     1
  9
$MEASUREMENT
 70
     1
  9
$CELWEIGHT
370
    -1
  9
$ENDCAPS
280
     0
  9
$JOINSTYLE
280
     0
  9
$LWDISPLAY
290
     0
  9
$INSUNITS
 70
     4
  9
$HYPERLINKBASE
  1

  9
$STYLESHEET
  1

  9
$XEDIT
290
     1
  9
$CEPSNTYPE
380
     0
  9
$PSTYLEMODE
290
     1
  9
$FINGERPRINTGUID
  2
{91D403AB-A3DE-4A2E-96F6-11C1E95B6803}
  9
$VERSIONGUID
  2
{FAEB1C32-E019-11D5-929B-00C0DF256EC4}
  9
$EXTNAMES
290
     1
  9
$PSVPSCALE
 40
0.0
  9
$OLESTARTUP
290
     0
  9
$SORTENTS
280
   127
  9
$INDEXCTL
280
     0
  9
$HIDETEXT
280
     1
  9
$XCLIPFRAME
290
     0
  9
$HALOGAP
280
     0
  9
$OBSCOLOR
 70
   257
  9
$OBSLTYPE
280
     0
  9
$INTERSECTIONDISPLAY
280
     0
  9
$INTERSECTIONCOLOR
 70
   257
  9
$DIMASSOC
280
     1
  9
$PROJECTNAME
  1

  0
ENDSEC
  0
SECTION
  2
CLASSES
  0
CLASS
  1
ACDBDICTIONARYWDFLT
  2
AcDbDictionaryWithDefault
  3
ObjectDBX Classes
 90
        0
 91
        3
280
     0
281
     0
  0
ENDSEC
  0
SECTION
  2
TABLES
  0
TABLE
  2
VPORT
  5
8
330
0
100
AcDbSymbolTable
 70
     1
  0
VPORT
  5
29
330
8
100
AcDbSymbolTableRecord
100
AcDbViewportTableRecord
  2
*Active
 70
     0
 10
0.0
 20
0.0
 11
1.0
 21
1.0
 12
10.42990654205607
 22
4.5
 13
0.0
 23
0.0
 14
0.5
 24
0.5
 15
0.5
 25
0.5
 16
0.0
 26
0.0
 36
1.0
 17
0.0
 27
0.0
 37
0.0
 40
9.0
 41
1.972972972850329
 42
50.0
 43
0.0
 44
0.0
 50
0.0
 51
0.0
 71
     0
 72
   100
 73
     1
 74
     3
 75
     0
 76
     0
 77
     0
 78
     0
281
     0
 65
     1
110
0.0
120
0.0
130
0.0
111
1.0
121
0.0
131
0.0
112
0.0
122
1.0
132
0.0
 79
     0
146
0.0
  0
ENDTAB
  0
TABLE
  2
LTYPE
  5
5
330
0
100
AcDbSymbolTable
 70
     9
  0
LTYPE
  5
14
330
5
100
AcDbSymbolTableRecord
100
AcDbLinetypeTableRecord
  2
ByBlock
 70
     0
  3

 72
    65
 73
     0
 40
0.0
  0
LTYPE
  5
15
330
5
100
AcDbSymbolTableRecord
100
AcDbLinetypeTableRecord
  2
ByLayer
 70
     0
  3

 72
    65
 73
     0
 40
0.0
  0
LTYPE
  5
16
330
5
100
AcDbSymbolTableRecord
100
AcDbLinetypeTableRecord
  2
Continuous
 70
     0
  3
Solid line
 72
    65
 73
     0
 40
0.0
  0
LTYPE
  5
68
330
5
100
AcDbSymbolTableRecord
100
AcDbLinetypeTableRecord
  2
DOT
 70
     0
  3
DOT
 72
    65
 73
     2
 40
4.0
 49
6.0
 74
     0
 49
-2.0
 74
     0
  0
LTYPE
  5
69
330
5
100
AcDbSymbolTableRecord
100
AcDbLinetypeTableRecord
  2
HIDDEN
 70
     0
  3
HIDDEN
 72
    65
 73
     2
 40
4.2
 49
8.4
 74
     0
 49
-4.2
 74
     0
  0
LTYPE
  5
6A
330
5
100
AcDbSymbolTableRecord
100
AcDbLinetypeTableRecord
  2
DASHDOT
 70
     0
  3
DASHDOT
 72
    65
 73
     4
 40
14.5
 49
30.0
 74
     0
 49
-9.0
 74
     0
 49
2.5
 74
     0
 49
-9.0
 74
     0
  0
LTYPE
  5
6B
330
5
100
AcDbSymbolTableRecord
100
AcDbLinetypeTableRecord
  2
PHANTOM
 70
     0
  3
PHANTOM
 72
    65
 73
     6
 40
12.0
 49
30.0
 74
     0
 49
-9.0
 74
     0
 49
2.5
 74
     0
 49
-5.0
 74
     0
 49
2.5
 74
     0
 49
-9.0
 74
     0
  0
LTYPE
  5
6C
330
5
100
AcDbSymbolTableRecord
100
AcDbLinetypeTableRecord
  2
ACAD_ISO14W100
 70
     0
  3
ACAD_ISO14W100
 72
    65
 73
     8
 40
1.5
 49
12.0
 74
     0
 49
-3.0
 74
     0
 49
0.5
 74
     0
 49
-3.0
 74
     0
 49
0.5
 74
     0
 49
-3.0
 74
     0
 49
0.5
 74
     0
 49
-3.0
 74
     0
  0
LTYPE
  5
6D
330
5
100
AcDbSymbolTableRecord
100
AcDbLinetypeTableRecord
  2
ACAD_ISO06W100
 70
     0
  3
ACAD_ISO06W100
 72
    65
 73
     8
 40
13.5
 49
24.0
 74
     0
 49
-3.0
 74
     0
 49
0.5
 74
     0
 49
-3.0
 74
     0
 49
0.5
 74
     0
 49
-3.0
 74
     0
 49
0.5
 74
     0
 49
-3.0
 74
     0
  0
LTYPE
  5
6E
330
5
100
AcDbSymbolTableRecord
100
AcDbLinetypeTableRecord
  2
ACAD_ISO11W100
 70
     0
  3
ACAD_ISO11W100
 72
    65
 73
     6
 40
15.5
 49
12.0
 74
     0
 49
-3.0
 74
     0
 49
12.0
 74
     0
 49
-3.0
 74
     0
 49
0.5
 74
     0
 49
-3.0
 74
     0
  0
LTYPE
  5
6F
330
5
100
AcDbSymbolTableRecord
100
AcDbLinetypeTableRecord
  2
ACAD_ISO13W100
 70
     0
  3
ACAD_ISO13W100
 72
    65
 73
     8
 40
13.0
 49
12.0
 74
     0
 49
-3.0
 74
     0
 49
12.0
 74
     0
 49
-3.0
 74
     0
 49
0.5
 74
     0
 49
-3.0
 74
     0
 49
0.5
 74
     0
 49
-3.0
 74
     0
  0
ENDTAB
  0
TABLE
  2
LAYER
  5
2
330
0
100
AcDbSymbolTable
 70
    38
  0
LAYER
  5
10
330
2
100
AcDbSymbolTableRecord
100
AcDbLayerTableRecord
  2
0
 70
     0
 62
     7
  6
Continuous
370
    -3
390
F
  0
LAYER
  5
70
330
2
100
AcDbSymbolTableRecord
100
AcDbLayerTableRecord
  2
1
 70
     0
 62
    45
  6
Continuous
370
    -3
390
F
  0
LAYER
  5
71
330
2
100
AcDbSymbolTableRecord
100
AcDbLayerTableRecord
  2
2
 70
     0
 62
    90
  6
Continuous
370
    -3
390
F
  0
LAYER
  5
72
330
2
100
AcDbSymbolTableRecord
100
AcDbLayerTableRecord
  2
3
 70
     0
 62
     6
  6
Continuous
370
    -3
390
F
  0
LAYER
  5
73
330
2
100
AcDbSymbolTableRecord
100
AcDbLayerTableRecord
  2
4
 70
     0
 62
    30
  6
Continuous
370
    -3
390
F
  0
LAYER
  5
74
330
2
100
AcDbSymbolTableRecord
100
AcDbLayerTableRecord
  2
5
 70
     0
 62
     2
  6
Continuous
370
    -3
390
F
  0
LAYER
  5
75
330
2
100
AcDbSymbolTableRecord
100
AcDbLayerTableRecord
  2
6
 70
     0
 62
     7
  6
Continuous
370
    -3
390
F
  0
LAYER
  5
76
330
2
100
AcDbSymbolTableRecord
100
AcDbLayerTableRecord
  2
7
 70
     0
 62
   132
  6
Continuous
370
    -3
390
F
  0
LAYER
  5
77
330
2
100
AcDbSymbolTableRecord
100
AcDbLayerTableRecord
  2
8
 70
     0
 62
   171
  6
Continuous
370
    -3
390
F
  0
LAYER
  5
78
330
2
100
AcDbSymbolTableRecord
100
AcDbLayerTableRecord
  2
9
 70
     0
 62
   170
  6
Continuous
370
    -3
390
F
  0
LAYER
  5
79
330
2
100
AcDbSymbolTableRecord
100
AcDbLayerTableRecord
  2
10
 70
     0
 62
   172
  6
Continuous
370
    -3
390
F
  0
LAYER
  5
7A
330
2
100
AcDbSymbolTableRecord
100
AcDbLayerTableRecord
  2
11
 70
     0
 62
    16
  6
Continuous
370
    -3
390
F
  0
LAYER
  5
7B
330
2
100
AcDbSymbolTableRecord
100
AcDbLayerTableRecord
  2
12
 70
     0
 62
   136
  6
Continuous
370
    -3
390
F
  0
LAYER
  5
7C
330
2
100
AcDbSymbolTableRecord
100
AcDbLayerTableRecord
  2
13
 70
     0
 62
   216
  6
Continuous
370
    -3
390
F
  0
LAYER
  5
7D
330
2
100
AcDbSymbolTableRecord
100
AcDbLayerTableRecord
  2
14
 70
     0
 62
     7
  6
Continuous
370
    -3
390
F
  0
LAYER
  5
7E
330
2
100
AcDbSymbolTableRecord
100
AcDbLayerTableRecord
  2
15
 70
     0
 62
    14
  6
Continuous
370
    -3
390
F
  0
LAYER
  5
7F
330
2
100
AcDbSymbolTableRecord
100
AcDbLayerTableRecord
  2
16
 70
     0
 62
    94
  6
Continuous
370
    -3
390
F
  0
LAYER
  5
80
330
2
100
AcDbSymbolTableRecord
100
AcDbLayerTableRecord
  2
17
 70
     0
 62
   230
  6
Continuous
370
    -3
390
F
  0
LAYER
  5
81
330
2
100
AcDbSymbolTableRecord
100
AcDbLayerTableRecord
  2
18
 70
     0
 62
     7
  6
Continuous
370
    -3
390
F
  0
LAYER
  5
82
330
2
100
AcDbSymbolTableRecord
100
AcDbLayerTableRecord
  2
19
 70
     0
 62
    52
  6
Continuous
370
    -3
390
F
  0
LAYER
  5
83
330
2
100
AcDbSymbolTableRecord
100
AcDbLayerTableRecord
  2
20
 70
     0
 62
   134
  6
Continuous
370
    -3
390
F
  0
LAYER
  5
84
330
2
100
AcDbSymbolTableRecord
100
AcDbLayerTableRecord
  2
21
 70
     0
 62
   214
  6
Continuous
370
    -3
390
F
  0
LAYER
  5
85
330
2
100
AcDbSymbolTableRecord
100
AcDbLayerTableRecord
  2
22
 70
     0
 62
     7
  6
Continuous
370
    -3
390
F
  0
LAYER
  5
86
330
2
100
AcDbSymbolTableRecord
100
AcDbLayerTableRecord
  2
128
 70
     0
 62
     7
  6
Continuous
370
    -3
390
F
  0
LAYER
  5
87
330
2
100
AcDbSymbolTableRecord
100
AcDbLayerTableRecord
  2
129
 70
     0
 62
     7
  6
Continuous
370
    -3
390
F
  0
LAYER
  5
88
330
2
100
AcDbSymbolTableRecord
100
AcDbLayerTableRecord
  2
130
 70
     0
 62
     7
  6
Continuous
370
    -3
390
F
  0
LAYER
  5
89
330
2
100
AcDbSymbolTableRecord
100
AcDbLayerTableRecord
  2
131
 70
     0
 62
     7
  6
Continuous
370
    -3
390
F
  0
LAYER
  5
8A
330
2
100
AcDbSymbolTableRecord
100
AcDbLayerTableRecord
  2
132
 70
     0
 62
     7
  6
Continuous
370
    -3
390
F
  0
LAYER
  5
8B
330
2
100
AcDbSymbolTableRecord
100
AcDbLayerTableRecord
  2
133
 70
     0
 62
     4
  6
Continuous
370
    -3
390
F
  0
LAYER
  5
8C
330
2
100
AcDbSymbolTableRecord
100
AcDbLayerTableRecord
  2
134
 70
     0
 62
     7
  6
Continuous
370
    -3
390
F
  0
LAYER
  5
8D
330
2
100
AcDbSymbolTableRecord
100
AcDbLayerTableRecord
  2
135
 70
     0
 62
     4
  6
Continuous
370
    -3
390
F
  0
LAYER
  5
8E
330
2
100
AcDbSymbolTableRecord
100
AcDbLayerTableRecord
  2
136
 70
     0
 62
     7
  6
Continuous
370
    -3
390
F
  0
LAYER
  5
8F
330
2
100
AcDbSymbolTableRecord
100
AcDbLayerTableRecord
  2
137
 70
     0
 62
     3
  6
Continuous
370
    -3
390
F
  0
LAYER
  5
90
330
2
100
AcDbSymbolTableRecord
100
AcDbLayerTableRecord
  2
138
 70
     0
 62
     7
  6
Continuous
370
    -3
390
F
  0
LAYER
  5
91
330
2
100
AcDbSymbolTableRecord
100
AcDbLayerTableRecord
  2
139
 70
     0
 62
     6
  6
Continuous
370
    -3
390
F
  0
LAYER
  5
92
330
2
100
AcDbSymbolTableRecord
100
AcDbLayerTableRecord
  2
140
 70
     0
 62
     1
  6
Continuous
370
    -3
390
F
  0
LAYER
  5
93
330
2
100
AcDbSymbolTableRecord
100
AcDbLayerTableRecord
  2
141
 70
     0
 62
     7
  6
Continuous
370
    -3
390
F
  0
LAYER
  5
94
330
2
100
AcDbSymbolTableRecord
100
AcDbLayerTableRecord
  2
142
 70
     0
 62
     7
  6
Continuous
370
    -3
390
F
  0
ENDTAB
  0
TABLE
  2
STYLE
  5
3
330
0
100
AcDbSymbolTable
 70
     2
  0
STYLE
  5
11
330
3
100
AcDbSymbolTableRecord
100
AcDbTextStyleTableRecord
  2
Standard
 70
     0
 40
0.0
 41
1.0
 50
0.0
 71
     0
 42
0.2
  3
txt
  4
bigfont
  0
STYLE
  5
2C
330
3
100
AcDbSymbolTableRecord
100
AcDbTextStyleTableRecord
  2
T_STANDARD
 70
     4
 40
10.0
 41
1.0
 50
0.0
 71
     0
 42
10.0
  3
txt
  4
bigfont
  0
ENDTAB
  0
TABLE
  2
VIEW
  5
6
330
0
100
AcDbSymbolTable
 70
     0
  0
ENDTAB
  0
TABLE
  2
UCS
  5
7
330
0
100
AcDbSymbolTable
 70
     0
  0
ENDTAB
  0
TABLE
  2
APPID
  5
9
330
0
100
AcDbSymbolTable
 70
     2
  0
APPID
  5
12
330
9
100
AcDbSymbolTableRecord
100
AcDbRegAppTableRecord
  2
ACAD
 70
     0
  0
APPID
  5
2B
330
9
100
AcDbSymbolTableRecord
100
AcDbRegAppTableRecord
  2
ODA
 70
     0
  0
ENDTAB
  0
TABLE
  2
DIMSTYLE
  5
A
330
0
100
AcDbSymbolTable
 70
     1
100
AcDbDimStyleTable
  0
DIMSTYLE
105
27
102
{ACAD_REACTORS
330
12D
330
313
330
31E
330
329
330
333
330
33F
330
34B
330
385
330
397
330
3A2
330
3AD
330
3B7
330
4BB
330
4E1
330
4EE
102
}
330
A
100
AcDbSymbolTableRecord
100
AcDbDimStyleTableRecord
  2
Standard
 70
     0
340
11
  0
ENDTAB
  0
TABLE
  2
BLOCK_RECORD
  5
1
330
0
100
AcDbSymbolTable
 70
    38
  0
BLOCK_RECORD
  5
1F
330
1
100
AcDbSymbolTableRecord
100
AcDbBlockTableRecord
  2
*Model_Space
340
22
  0
BLOCK_RECORD
  5
1B
330
1
100
AcDbSymbolTableRecord
100
AcDbBlockTableRecord
  2
*Paper_Space
340
1E
  0
BLOCK_RECORD
  5
23
330
1
100
AcDbSymbolTableRecord
100
AcDbBlockTableRecord
  2
*Paper_Space0
340
26
  0
BLOCK_RECORD
  5
2D
330
1
100
AcDbSymbolTableRecord
100
AcDbBlockTableRecord
  2
_ORIGIN
340
0
  0
BLOCK_RECORD
  5
32
330
1
100
AcDbSymbolTableRecord
100
AcDbBlockTableRecord
  2
_DOTBLANK
340
0
  0
BLOCK_RECORD
  5
37
330
1
100
AcDbSymbolTableRecord
100
AcDbBlockTableRecord
  2
_DOT
340
0
  0
BLOCK_RECORD
  5
3C
330
1
100
AcDbSymbolTableRecord
100
AcDbBlockTableRecord
  2
_OPEN
340
0
  0
BLOCK_RECORD
  5
42
330
1
100
AcDbSymbolTableRecord
100
AcDbBlockTableRecord
  2
_CLOSED
340
0
  0
BLOCK_RECORD
  5
49
330
1
100
AcDbSymbolTableRecord
100
AcDbBlockTableRecord
  2
_CLOSEDBLANK
340
0
  0
BLOCK_RECORD
  5
4F
330
1
100
AcDbSymbolTableRecord
100
AcDbBlockTableRecord
  2
_BOXBLANK
340
0
  0
BLOCK_RECORD
  5
57
330
1
100
AcDbSymbolTableRecord
100
AcDbBlockTableRecord
  2
_BOXFILLED
340
0
  0
BLOCK_RECORD
  5
5C
330
1
100
AcDbSymbolTableRecord
100
AcDbBlockTableRecord
  2
_INTEGRAL
340
0
  0
BLOCK_RECORD
  5
61
330
1
100
AcDbSymbolTableRecord
100
AcDbBlockTableRecord
  2
_OBLIQUE
340
0
  0
BLOCK_RECORD
  5
65
330
1
100
AcDbSymbolTableRecord
100
AcDbBlockTableRecord
  2
_NONE
340
0
  0
BLOCK_RECORD
  5
95
330
1
100
AcDbSymbolTableRecord
100
AcDbBlockTableRecord
  2
*G12
340
0
102
{BLKREFS
331
9C
102
}
  0
BLOCK_RECORD
  5
107
330
1
100
AcDbSymbolTableRecord
100
AcDbBlockTableRecord
  2
*G13
340
0
102
{BLKREFS
331
11D
102
}
  0
BLOCK_RECORD
  5
122
330
1
100
AcDbSymbolTableRecord
100
AcDbBlockTableRecord
  2
Dim1
340
0
  0
BLOCK_RECORD
  5
195
330
1
100
AcDbSymbolTableRecord
100
AcDbBlockTableRecord
  2
*G15
340
0
102
{BLKREFS
331
19C
102
}
  0
BLOCK_RECORD
  5
1F5
330
1
100
AcDbSymbolTableRecord
100
AcDbBlockTableRecord
  2
*G16
340
0
102
{BLKREFS
331
1FC
102
}
  0
BLOCK_RECORD
  5
222
330
1
100
AcDbSymbolTableRecord
100
AcDbBlockTableRecord
  2
*G17
340
0
102
{BLKREFS
331
307
102
}
  0
BLOCK_RECORD
  5
308
330
1
100
AcDbSymbolTableRecord
100
AcDbBlockTableRecord
  2
Dim2
340
0
  0
BLOCK_RECORD
  5
314
330
1
100
AcDbSymbolTableRecord
100
AcDbBlockTableRecord
  2
Dim3
340
0
  0
BLOCK_RECORD
  5
31F
330
1
100
AcDbSymbolTableRecord
100
AcDbBlockTableRecord
  2
Dim4
340
0
  0
BLOCK_RECORD
  5
32A
330
1
100
AcDbSymbolTableRecord
100
AcDbBlockTableRecord
  2
Dim5
340
0
  0
BLOCK_RECORD
  5
334
330
1
100
AcDbSymbolTableRecord
100
AcDbBlockTableRecord
  2
Dim6
340
0
  0
BLOCK_RECORD
  5
340
330
1
100
AcDbSymbolTableRecord
100
AcDbBlockTableRecord
  2
Dim7
340
0
  0
BLOCK_RECORD
  5
373
330
1
100
AcDbSymbolTableRecord
100
AcDbBlockTableRecord
  2
*G24
340
0
102
{BLKREFS
331
379
102
}
  0
BLOCK_RECORD
  5
37A
330
1
100
AcDbSymbolTableRecord
100
AcDbBlockTableRecord
  2
Dim8
340
0
  0
BLOCK_RECORD
  5
387
330
1
100
AcDbSymbolTableRecord
100
AcDbBlockTableRecord
  2
*G26
340
0
102
{BLKREFS
331
38C
102
}
  0
BLOCK_RECORD
  5
38D
330
1
100
AcDbSymbolTableRecord
100
AcDbBlockTableRecord
  2
Dim9
340
0
  0
BLOCK_RECORD
  5
398
330
1
100
AcDbSymbolTableRecord
100
AcDbBlockTableRecord
  2
Dim10
340
0
  0
BLOCK_RECORD
  5
3A3
330
1
100
AcDbSymbolTableRecord
100
AcDbBlockTableRecord
  2
Dim11
340
0
  0
BLOCK_RECORD
  5
3AE
330
1
100
AcDbSymbolTableRecord
100
AcDbBlockTableRecord
  2
Dim12
340
0
  0
BLOCK_RECORD
  5
3BD
330
1
100
AcDbSymbolTableRecord
100
AcDbBlockTableRecord
  2
*G31
340
0
102
{BLKREFS
331
3C4
102
}
  0
BLOCK_RECORD
  5
3CA
330
1
100
AcDbSymbolTableRecord
100
AcDbBlockTableRecord
  2
*G32
340
0
102
{BLKREFS
331
4AF
102
}
  0
BLOCK_RECORD
  5
4B0
330
1
100
AcDbSymbolTableRecord
100
AcDbBlockTableRecord
  2
Dim13
340
0
  0
BLOCK_RECORD
  5
4BF
330
1
100
AcDbSymbolTableRecord
100
AcDbBlockTableRecord
  2
*G34
340
0
102
{BLKREFS
331
4D5
102
}
  0
BLOCK_RECORD
  5
4D6
330
1
100
AcDbSymbolTableRecord
100
AcDbBlockTableRecord
  2
Dim14
340
0
  0
BLOCK_RECORD
  5
4E3
330
1
100
AcDbSymbolTableRecord
100
AcDbBlockTableRecord
  2
Dim15
340
0
  0
BLOCK_RECORD
  5
4F2
330
1
100
AcDbSymbolTableRecord
100
AcDbBlockTableRecord
  2
*G37
340
0
102
{BLKREFS
331
4F7
102
}
  0
ENDTAB
  0
ENDSEC
  0
SECTION
  2
BLOCKS
  0
BLOCK
  5
20
330
1F
100
AcDbEntity
  8
0
100
AcDbBlockBegin
  2
*Model_Space
 70
     0
 71
     0
 10
0.0
 20
0.0
 30
0.0
  3
*Model_Space
  1

  0
ENDBLK
  5
21
330
1F
100
AcDbEntity
  8
0
100
AcDbBlockEnd
  0
BLOCK
  5
1C
330
1B
100
AcDbEntity
 67
     1
  8
0
100
AcDbBlockBegin
  2
*Paper_Space
 70
     0
 71
     0
 10
0.0
 20
0.0
 30
0.0
  3
*Paper_Space
  1

  0
ENDBLK
  5
1D
330
1B
100
AcDbEntity
 67
     1
  8
0
100
AcDbBlockEnd
  0
BLOCK
  5
24
330
23
100
AcDbEntity
  8
0
100
AcDbBlockBegin
  2
*Paper_Space0
 70
     0
 71
     0
 10
0.0
 20
0.0
 30
0.0
  3
*Paper_Space0
  1

  0
ENDBLK
  5
25
330
23
100
AcDbEntity
  8
0
100
AcDbBlockEnd
  0
BLOCK
  5
30
330
2D
100
AcDbEntity
  8
0
100
AcDbBlockBegin
  2
_ORIGIN
 70
     0
 71
     0
 10
0.0
 20
0.0
 30
0.0
  3
_ORIGIN
  1

  0
CIRCLE
  5
2E
330
2D
100
AcDbEntity
  8
0
100
AcDbCircle
 10
0.0
 20
0.0
 30
0.0
 40
0.5
  0
LINE
  5
2F
330
2D
100
AcDbEntity
  8
0
100
AcDbLine
 10
0.0
 20
0.0
 30
0.0
 11
-1.0
 21
0.0
 31
0.0
  0
ENDBLK
  5
31
330
2D
100
AcDbEntity
  8
0
100
AcDbBlockEnd
  0
BLOCK
  5
35
330
32
100
AcDbEntity
  8
0
100
AcDbBlockBegin
  2
_DOTBLANK
 70
     0
 71
     0
 10
0.0
 20
0.0
 30
0.0
  3
_DOTBLANK
  1

  0
CIRCLE
  5
33
330
32
100
AcDbEntity
  8
0
100
AcDbCircle
 10
0.0
 20
0.0
 30
0.0
 40
0.5
  0
LINE
  5
34
330
32
100
AcDbEntity
  8
0
100
AcDbLine
 10
-0.5
 20
0.0
 30
0.0
 11
-1.0
 21
0.0
 31
0.0
  0
ENDBLK
  5
36
330
32
100
AcDbEntity
  8
0
100
AcDbBlockEnd
  0
BLOCK
  5
3A
330
37
100
AcDbEntity
  8
0
100
AcDbBlockBegin
  2
_DOT
 70
     0
 71
     0
 10
0.0
 20
0.0
 30
0.0
  3
_DOT
  1

  0
LWPOLYLINE
  5
38
330
37
100
AcDbEntity
  8
0
100
AcDbPolyline
 90
        2
 70
     1
 43
0.5
 10
-0.25
 20
0.0
 42
1.0
 10
0.25
 20
0.0
 42
1.0
  0
LINE
  5
39
330
37
100
AcDbEntity
  8
0
100
AcDbLine
 10
-0.5
 20
0.0
 30
0.0
 11
-1.0
 21
0.0
 31
0.0
  0
ENDBLK
  5
3B
330
37
100
AcDbEntity
  8
0
100
AcDbBlockEnd
  0
BLOCK
  5
40
330
3C
100
AcDbEntity
  8
0
100
AcDbBlockBegin
  2
_OPEN
 70
     0
 71
     0
 10
0.0
 20
0.0
 30
0.0
  3
_OPEN
  1

  0
LINE
  5
3D
330
3C
100
AcDbEntity
  8
0
100
AcDbLine
 10
-1.0
 20
0.1666666666666667
 30
0.0
 11
0.0
 21
0.0
 31
0.0
  0
LINE
  5
3E
330
3C
100
AcDbEntity
  8
0
100
AcDbLine
 10
-1.0
 20
-0.1666666666666667
 30
0.0
 11
0.0
 21
0.0
 31
0.0
  0
LINE
  5
3F
330
3C
100
AcDbEntity
  8
0
100
AcDbLine
 10
0.0
 20
0.0
 30
0.0
 11
-1.0
 21
0.0
 31
0.0
  0
ENDBLK
  5
41
330
3C
100
AcDbEntity
  8
0
100
AcDbBlockEnd
  0
BLOCK
  5
47
330
42
100
AcDbEntity
  8
0
100
AcDbBlockBegin
  2
_CLOSED
 70
     0
 71
     0
 10
0.0
 20
0.0
 30
0.0
  3
_CLOSED
  1

  0
LINE
  5
43
330
42
100
AcDbEntity
  8
0
100
AcDbLine
 10
-1.0
 20
0.1666666666666667
 30
0.0
 11
0.0
 21
0.0
 31
0.0
  0
LINE
  5
44
330
42
100
AcDbEntity
  8
0
100
AcDbLine
 10
0.0
 20
0.0
 30
0.0
 11
-1.0
 21
-0.1666666666666667
 31
0.0
  0
LINE
  5
45
330
42
100
AcDbEntity
  8
0
100
AcDbLine
 10
-1.0
 20
0.1666666666666667
 30
0.0
 11
-1.0
 21
-0.1666666666666667
 31
0.0
  0
LINE
  5
46
330
42
100
AcDbEntity
  8
0
100
AcDbLine
 10
0.0
 20
0.0
 30
0.0
 11
-1.0
 21
0.0
 31
0.0
  0
ENDBLK
  5
48
330
42
100
AcDbEntity
  8
0
100
AcDbBlockEnd
  0
BLOCK
  5
4D
330
49
100
AcDbEntity
  8
0
100
AcDbBlockBegin
  2
_CLOSEDBLANK
 70
     0
 71
     0
 10
0.0
 20
0.0
 30
0.0
  3
_CLOSEDBLANK
  1

  0
LINE
  5
4A
330
49
100
AcDbEntity
  8
0
100
AcDbLine
 10
-1.0
 20
0.1666666666666667
 30
0.0
 11
0.0
 21
0.0
 31
0.0
  0
LINE
  5
4B
330
49
100
AcDbEntity
  8
0
100
AcDbLine
 10
0.0
 20
0.0
 30
0.0
 11
-1.0
 21
-0.1666666666666667
 31
0.0
  0
LINE
  5
4C
330
49
100
AcDbEntity
  8
0
100
AcDbLine
 10
-1.0
 20
0.1666666666666667
 30
0.0
 11
-1.0
 21
-0.1666666666666667
 31
0.0
  0
ENDBLK
  5
4E
330
49
100
AcDbEntity
  8
0
100
AcDbBlockEnd
  0
BLOCK
  5
55
330
4F
100
AcDbEntity
  8
0
100
AcDbBlockBegin
  2
_BOXBLANK
 70
     0
 71
     0
 10
0.0
 20
0.0
 30
0.0
  3
_BOXBLANK
  1

  0
LINE
  5
50
330
4F
100
AcDbEntity
  8
0
100
AcDbLine
 10
-0.5
 20
-0.5
 30
0.0
 11
0.5
 21
-0.5
 31
0.0
  0
LINE
  5
51
330
4F
100
AcDbEntity
  8
0
100
AcDbLine
 10
0.5
 20
-0.5
 30
0.0
 11
0.5
 21
0.5
 31
0.0
  0
LINE
  5
52
330
4F
100
AcDbEntity
  8
0
100
AcDbLine
 10
0.5
 20
0.5
 30
0.0
 11
-0.5
 21
0.5
 31
0.0
  0
LINE
  5
53
330
4F
100
AcDbEntity
  8
0
100
AcDbLine
 10
-0.5
 20
0.5
 30
0.0
 11
-0.5
 21
-0.5
 31
0.0
  0
LINE
  5
54
330
4F
100
AcDbEntity
  8
0
100
AcDbLine
 10
-0.5
 20
0.0
 30
0.0
 11
-1.0
 21
0.0
 31
0.0
  0
ENDBLK
  5
56
330
4F
100
AcDbEntity
  8
0
100
AcDbBlockEnd
  0
BLOCK
  5
5A
330
57
100
AcDbEntity
  8
0
100
AcDbBlockBegin
  2
_BOXFILLED
 70
     0
 71
     0
 10
0.0
 20
0.0
 30
0.0
  3
_BOXFILLED
  1

  0
SOLID
  5
58
330
57
100
AcDbEntity
  8
0
100
AcDbTrace
 10
-0.5
 20
0.5
 30
0.0
 11
0.5
 21
0.5
 31
0.0
 12
-0.5
 22
-0.5
 32
0.0
 13
0.5
 23
-0.5
 33
0.0
  0
LINE
  5
59
330
57
100
AcDbEntity
  8
0
100
AcDbLine
 10
-0.5
 20
0.0
 30
0.0
 11
-1.0
 21
0.0
 31
0.0
  0
ENDBLK
  5
5B
330
57
100
AcDbEntity
  8
0
100
AcDbBlockEnd
  0
BLOCK
  5
5F
330
5C
100
AcDbEntity
  8
0
100
AcDbBlockBegin
  2
_INTEGRAL
 70
     0
 71
     0
 10
0.0
 20
0.0
 30
0.0
  3
_INTEGRAL
  1

  0
ARC
  5
5D
330
5C
100
AcDbEntity
  8
0
100
AcDbCircle
 10
0.444888
 20
-0.0913346
 30
0.0
 40
0.4541666
100
AcDbArc
 50
5844.169510334396
 51
9625.69095819783
  0
ARC
  5
5E
330
5C
100
AcDbEntity
  8
0
100
AcDbCircle
 10
-0.444888
 20
0.0913346
 30
0.0
 40
0.4541666
100
AcDbArc
 50
16157.40982268921
 51
19938.93127055265
  0
ENDBLK
  5
60
330
5C
100
AcDbEntity
  8
0
100
AcDbBlockEnd
  0
BLOCK
  5
63
330
61
100
AcDbEntity
  8
0
100
AcDbBlockBegin
  2
_OBLIQUE
 70
     0
 71
     0
 10
0.0
 20
0.0
 30
0.0
  3
_OBLIQUE
  1

  0
LINE
  5
62
330
61
100
AcDbEntity
  8
0
100
AcDbLine
 10
-0.5
 20
-0.5
 30
0.0
 11
0.5
 21
0.5
 31
0.0
  0
ENDBLK
  5
64
330
61
100
AcDbEntity
  8
0
100
AcDbBlockEnd
  0
BLOCK
  5
66
330
65
100
AcDbEntity
  8
0
100
AcDbBlockBegin
  2
_NONE
 70
     0
 71
     0
 10
0.0
 20
0.0
 30
0.0
  3
_NONE
  1

  0
ENDBLK
  5
67
330
65
100
AcDbEntity
  8
0
100
AcDbBlockEnd
  0
BLOCK
  5
96
330
95
100
AcDbEntity
  8
0
100
AcDbBlockBegin
  2
*G12
 70
     1
 71
     0
 10
0.0
 20
0.0
 30
0.0
  3
*G12
  1

  0
LINE
  5
98
330
95
100
AcDbEntity
  8
9
  6
Continuous
 62
   170
370
    30
100
AcDbLine
 10
96.00000000000037
 20
96.0
 30
0.0
 11
96.00000000000037
 21
1536.0
 31
0.0
  0
LINE
  5
99
330
95
100
AcDbEntity
  8
9
  6
Continuous
 62
   170
370
    30
100
AcDbLine
 10
96.00000000000037
 20
1536.0
 30
0.0
 11
2280.0
 21
1536.0
 31
0.0
  0
LINE
  5
9A
330
95
100
AcDbEntity
  8
9
  6
Continuous
 62
   170
370
    30
100
AcDbLine
 10
2280.0
 20
1536.0
 30
0.0
 11
2280.0
 21
96.0
 31
0.0
  0
LINE
  5
9B
330
95
100
AcDbEntity
  8
9
  6
Continuous
 62
   170
370
    30
100
AcDbLine
 10
2280.0
 20
96.0
 30
0.0
 11
96.00000000000037
 21
96.0
 31
0.0
  0
ENDBLK
  5
97
330
95
100
AcDbEntity
  8
0
100
AcDbBlockEnd
  0
BLOCK
  5
108
330
107
100
AcDbEntity
  8
0
100
AcDbBlockBegin
  2
*G13
 70
     1
 71
     0
 10
0.0
 20
0.0
 30
0.0
  3
*G13
  1

  0
LINE
  5
10A
330
107
100
AcDbEntity
  8
2
  6
Continuous
 62
    90
370
    18
100
AcDbLine
 10
297.8136823654929
 20
670.3931834661068
 30
0.0
 11
297.8136823654929
 21
639.3931834661082
 31
0.0
  0
ARC
  5
10B
330
107
100
AcDbEntity
  8
2
  6
Continuous
 62
    90
370
    18
100
AcDbCircle
 10
338.3136823654929
 20
687.393183466107
 30
0.0
 40
5.0
100
AcDbArc
 50
150.0000000000001
 51
179.9999999999998
  0
LINE
  5
10C
330
107
100
AcDbEntity
  8
2
  6
Continuous
 62
    90
370
    18
100
AcDbLine
 10
333.3136823654929
 20
687.393183466107
 30
0.0
 11
333.3136823654929
 21
686.5607624661073
 31
0.0
  0
ARC
  5
10D
330
107
100
AcDbEntity
  8
2
  6
Continuous
 62
    90
370
    18
100
AcDbCircle
 10
367.3136823654929
 20
687.393183466107
 30
0.0
 40
5.0
100
AcDbArc
 50
0.0
 51
29.99999999999989
  0
LINE
  5
10E
330
107
100
AcDbEntity
  8
2
  6
Continuous
 62
    90
370
    18
100
AcDbLine
 10
372.3136823654929
 20
687.393183466107
 30
0.0
 11
372.3136823654929
 21
683.6515134661071
 31
0.0
  0
ARC
  5
10F
330
107
100
AcDbEntity
  8
2
  6
Continuous
 62
    90
370
    18
100
AcDbCircle
 10
334.849580365493
 20
689.393183466107
 30
0.0
 40
1.0
100
AcDbArc
 50
89.99999999999991
 51
150.0000000000027
  0
LINE
  5
110
330
107
100
AcDbEntity
  8
2
  6
Continuous
 62
    90
370
    18
100
AcDbLine
 10
334.849580365493
 20
690.393183466107
 30
0.0
 11
370.777783365493
 21
690.393183466107
 31
0.0
  0
ARC
  5
111
330
107
100
AcDbEntity
  8
2
  6
Continuous
 62
    90
370
    18
100
AcDbCircle
 10
370.777783365493
 20
689.393183466107
 30
0.0
 40
1.0
100
AcDbArc
 50
29.99999999999729
 51
89.99999999999991
  0
ARC
  5
112
330
107
100
AcDbEntity
  8
2
  6
Continuous
 62
    90
370
    18
100
AcDbCircle
 10
301.5501633654928
 20
710.8728764661066
 30
0.0
 40
40.0
100
AcDbArc
 50
275.0000000000001
 51
322.569196
  0
LINE
  5
113
330
107
100
AcDbEntity
  8
2
  6
Continuous
 62
    90
370
    18
100
AcDbLine
 10
297.8136823654929
 20
670.3931834661068
 30
0.0
 11
305.0363933654928
 21
671.025088466107
 31
0.0
  0
ARC
  5
114
330
107
100
AcDbEntity
  8
2
  6
Continuous
 62
    90
370
    18
100
AcDbCircle
 10
326.8531083654932
 20
704.4710774661069
 30
0.0
 40
50.0
100
AcDbArc
 50
312.9999999999999
 51
334.9999999999997
  0
LINE
  5
115
330
107
100
AcDbEntity
  8
2
  6
Continuous
 62
    90
370
    18
100
AcDbLine
 10
360.0948353654928
 20
667.103116466107
 30
0.0
 11
360.9530263654931
 21
667.903392466107
 31
0.0
  0
ARC
  5
116
330
107
100
AcDbEntity
  8
2
  6
Continuous
 62
    90
370
    18
100
AcDbCircle
 10
279.7855266970889
 20
763.7603381766086
 30
0.0
 40
125.6670345301031
100
AcDbArc
 50
278.248094262864
 51
309.7220780194574
  0
ARC
  5
117
330
107
100
AcDbEntity
  8
1
  6
Continuous
 62
    45
370
     9
100
AcDbCircle
 10
288.9307253654931
 20
774.0744054661064
 30
0.0
 40
120.0
100
AcDbArc
 50
274.9999999999997
 51
299.9999999999998
  0
LINE
  5
118
330
107
100
AcDbEntity
  8
1
  6
Continuous
 62
    45
370
     9
100
AcDbLine
 10
352.8136823654929
 20
672.393183466107
 30
0.0
 11
360.0948353654928
 21
667.103116466107
 31
0.0
  0
LINE
  5
119
330
107
100
AcDbEntity
  8
1
  6
Continuous
 62
    45
370
     9
100
AcDbLine
 10
297.8136823654929
 20
654.3931834661068
 30
0.0
 11
299.3894153654931
 21
654.5310424661072
 31
0.0
  0
LINE
  5
11A
330
107
100
AcDbEntity
  8
1
  6
Continuous
 62
    45
370
     9
100
AcDbLine
 10
352.8136823654929
 20
672.393183466107
 30
0.0
 11
372.3136823654929
 21
683.6515134661071
 31
0.0
  0
LINE
  5
11B
330
107
100
AcDbEntity
  8
1
  6
Continuous
 62
    45
370
     9
100
AcDbLine
 10
348.9307253654931
 20
670.151357466107
 30
0.0
 11
352.8136823654929
 21
672.393183466107
 31
0.0
  0
LINE
  5
11C
330
107
100
AcDbEntity
  8
2
  6
Continuous
 62
    90
370
    18
100
AcDbLine
 10
372.3136823654929
 20
683.6515134661071
 30
0.0
 11
372.1684973654931
 21
683.340164466107
 31
0.0
  0
ENDBLK
  5
109
330
107
100
AcDbEntity
  8
0
100
AcDbBlockEnd
  0
BLOCK
  5
123
330
122
100
AcDbEntity
  8
0
100
AcDbBlockBegin
  2
Dim1
 70
     0
 71
     0
 10
0.0
 20
0.0
 30
0.0
  3
Dim1
  1

  0
LINE
  5
125
330
122
100
AcDbEntity
  8
6
  6
Continuous
 62
     7
370
     9
100
AcDbLine
 10
297.8136823654929
 20
257.3931834661068
 30
0.0
 11
430.8136823654925
 21
257.3931834661068
 31
0.0
  0
LINE
  5
126
330
122
100
AcDbEntity
  8
6
  6
Continuous
 62
     7
370
     9
100
AcDbLine
 10
297.8136823654929
 20
249.3931834661068
 30
0.0
 11
297.8136823654929
 21
321.3931834661068
 31
0.0
  0
LINE
  5
127
330
122
100
AcDbEntity
  8
6
  6
Continuous
 62
     7
370
     9
100
AcDbLine
 10
430.8136823654925
 20
249.3931834661068
 30
0.0
 11
430.8136823654929
 21
508.3931834661068
 31
0.0
  0
LINE
  5
128
330
122
100
AcDbEntity
  8
6
  6
Continuous
 62
     7
370
     9
100
AcDbLine
 10
297.8136823654929
 20
257.3931834661068
 30
0.0
 11
313.268495586118
 21
261.5342881877472
 31
0.0
  0
LINE
  5
129
330
122
100
AcDbEntity
  8
6
  6
Continuous
 62
     7
370
     9
100
AcDbLine
 10
297.8136823654929
 20
257.3931834661068
 30
0.0
 11
313.268495586118
 21
253.2520787444665
 31
0.0
  0
LINE
  5
12A
330
122
100
AcDbEntity
  8
6
  6
Continuous
 62
     7
370
     9
100
AcDbLine
 10
430.8136823654925
 20
257.3931834661068
 30
0.0
 11
415.3588691448674
 21
253.2520787444666
 31
0.0
  0
LINE
  5
12B
330
122
100
AcDbEntity
  8
6
  6
Continuous
 62
     7
370
     9
100
AcDbLine
 10
430.8136823654925
 20
257.3931834661068
 30
0.0
 11
415.3588691448674
 21
261.5342881877472
 31
0.0
  0
MTEXT
  5
12C
330
122
100
AcDbEntity
  8
6
  6
Continuous
 62
     7
370
     9
100
AcDbMText
 10
364.3136823654929
 20
269.3931834661068
 30
0.0
 40
24.0
 41
0.0
 71
     8
 72
     1
  1
133
 73
     1
 44
1.0
  0
ENDBLK
  5
124
330
122
100
AcDbEntity
  8
0
100
AcDbBlockEnd
  0
BLOCK
  5
196
330
195
100
AcDbEntity
  8
0
100
AcDbBlockBegin
  2
*G15
 70
     1
 71
     0
 10
0.0
 20
0.0
 30
0.0
  3
*G15
  1

  0
LINE
  5
198
330
195
100
AcDbEntity
  8
2
  6
Continuous
 62
    90
370
    18
100
AcDbLine
 10
842.7494178293716
 20
394.3931834661067
 30
0.0
 11
842.7494178293716
 21
516.3931834661067
 31
0.0
  0
ARC
  5
199
330
195
100
AcDbEntity
  8
2
  6
Continuous
 62
    90
370
    18
100
AcDbCircle
 10
845.7494178293716
 20
516.3931834661067
 30
0.0
 40
3.0
100
AcDbArc
 50
89.99999999999991
 51
179.9999999999998
  0
LINE
  5
19A
330
195
100
AcDbEntity
  8
2
  6
Continuous
 62
    90
370
    18
100
AcDbLine
 10
872.7494178293716
 20
519.3931834661067
 30
0.0
 11
872.7494178293716
 21
484.3931834661068
 31
0.0
  0
LINE
  5
19B
330
195
100
AcDbEntity
  8
2
  6
Continuous
 62
    90
370
    18
100
AcDbLine
 10
843.7494178293716
 20
394.3931834661067
 30
0.0
 11
842.7494178293716
 21
394.3931834661067
 31
0.0
  0
ENDBLK
  5
197
330
195
100
AcDbEntity
  8
0
100
AcDbBlockEnd
  0
BLOCK
  5
1F6
330
1F5
100
AcDbEntity
  8
0
100
AcDbBlockBegin
  2
*G16
 70
     1
 71
     0
 10
0.0
 20
0.0
 30
0.0
  3
*G16
  1

  0
LINE
  5
1F8
330
1F5
100
AcDbEntity
  8
2
  6
Continuous
 62
    90
370
    18
100
AcDbLine
 10
1105.752165486771
 20
394.3931834661067
 30
0.0
 11
1105.752165486771
 21
516.3931834661067
 31
0.0
  0
ARC
  5
1F9
330
1F5
100
AcDbEntity
  8
2
  6
Continuous
 62
    90
370
    18
100
AcDbCircle
 10
1102.752165486771
 20
516.3931834661067
 30
0.0
 40
3.0
100
AcDbArc
 50
0.0
 51
89.99999999999991
  0
LINE
  5
1FA
330
1F5
100
AcDbEntity
  8
2
  6
Continuous
 62
    90
370
    18
100
AcDbLine
 10
1075.752165486771
 20
519.3931834661067
 30
0.0
 11
1075.752165486771
 21
484.3931834661068
 31
0.0
  0
LINE
  5
1FB
330
1F5
100
AcDbEntity
  8
2
  6
Continuous
 62
    90
370
    18
100
AcDbLine
 10
1104.752165486771
 20
394.3931834661067
 30
0.0
 11
1105.752165486771
 21
394.3931834661067
 31
0.0
  0
ENDBLK
  5
1F7
330
1F5
100
AcDbEntity
  8
0
100
AcDbBlockEnd
  0
BLOCK
  5
223
330
222
100
AcDbEntity
  8
0
100
AcDbBlockBegin
  2
*G17
 70
     1
 71
     0
 10
0.0
 20
0.0
 30
0.0
  3
*G17
  1

  0
ARC
  5
225
330
222
100
AcDbEntity
  8
2
  6
Continuous
 62
    90
370
    18
100
AcDbCircle
 10
806.2853168293702
 20
689.3931831599554
 30
0.0
 40
1.0
100
AcDbArc
 50
89.99999999999991
 51
149.9999999999897
  0
LINE
  5
226
330
222
100
AcDbEntity
  8
2
  6
Continuous
 62
    90
370
    18
100
AcDbLine
 10
842.2135198293706
 20
690.3931831599555
 30
0.0
 11
806.2853168293702
 21
690.3931831599554
 31
0.0
  0
ARC
  5
227
330
222
100
AcDbEntity
  8
2
  6
Continuous
 62
    90
370
    18
100
AcDbCircle
 10
842.2135198293706
 20
689.3931831599555
 30
0.0
 40
1.0
100
AcDbArc
 50
30.00000000001031
 51
89.99999999999991
  0
ARC
  5
228
330
222
100
AcDbEntity
  8
2
  6
Continuous
 62
    90
370
    18
100
AcDbCircle
 10
838.7494178293707
 20
687.3931831599554
 30
0.0
 40
5.0
100
AcDbArc
 50
0.0000000000013028
 51
30.00000000000102
  0
ARC
  5
229
330
222
100
AcDbEntity
  8
2
  6
Continuous
 62
    90
370
    18
100
AcDbCircle
 10
809.7494178293707
 20
687.3931831599554
 30
0.0
 40
5.0
100
AcDbArc
 50
150.0000000000001
 51
179.9999999999998
  0
LINE
  5
22A
330
222
100
AcDbEntity
  8
2
  6
Continuous
 62
    90
370
    18
100
AcDbLine
 10
804.7494178293707
 20
687.3931831599554
 30
0.0
 11
804.7494178293707
 21
655.3815543564953
 31
0.0
  0
LINE
  5
22B
330
222
100
AcDbEntity
  8
2
  6
Continuous
 62
    90
370
    18
100
AcDbLine
 10
843.7494178293707
 20
687.3931831599555
 30
0.0
 11
843.7494178293707
 21
655.3815543565163
 31
0.0
  0
LINE
  5
22C
330
222
100
AcDbEntity
  8
2
  6
Continuous
 62
    90
370
    18
100
AcDbLine
 10
804.7529178293705
 20
655.0784253565017
 30
0.0
 11
804.7494178293707
 21
655.3815543565016
 31
0.0
  0
LINE
  5
22D
330
222
100
AcDbEntity
  8
2
  6
Continuous
 62
    90
370
    18
100
AcDbLine
 10
804.7634158293702
 20
654.7754043565016
 30
0.0
 11
804.7529178293705
 21
655.0784253565017
 31
0.0
  0
LINE
  5
22E
330
222
100
AcDbEntity
  8
2
  6
Continuous
 62
    90
370
    18
100
AcDbLine
 10
804.7809098293699
 20
654.4726023565014
 30
0.0
 11
804.7634158293702
 21
654.7754043565016
 31
0.0
  0
LINE
  5
22F
330
222
100
AcDbEntity
  8
2
  6
Continuous
 62
    90
370
    18
100
AcDbLine
 10
804.8053918293706
 20
654.1701253565017
 30
0.0
 11
804.7809098293699
 21
654.4726023565014
 31
0.0
  0
LINE
  5
230
330
222
100
AcDbEntity
  8
2
  6
Continuous
 62
    90
370
    18
100
AcDbLine
 10
804.8368528293702
 20
653.8680843565018
 30
0.0
 11
804.8053918293706
 21
654.1701253565017
 31
0.0
  0
LINE
  5
231
330
222
100
AcDbEntity
  8
2
  6
Continuous
 62
    90
370
    18
100
AcDbLine
 10
804.8752828293707
 20
653.5665853565016
 30
0.0
 11
804.8368528293702
 21
653.8680843565018
 31
0.0
  0
LINE
  5
232
330
222
100
AcDbEntity
  8
2
  6
Continuous
 62
    90
370
    18
100
AcDbLine
 10
804.9206678293701
 20
653.2657383565012
 30
0.0
 11
804.8752828293707
 21
653.5665853565016
 31
0.0
  0
LINE
  5
233
330
222
100
AcDbEntity
  8
2
  6
Continuous
 62
    90
370
    18
100
AcDbLine
 10
804.97299082937
 20
652.9656513565016
 30
0.0
 11
804.9206678293701
 21
653.2657383565012
 31
0.0
  0
LINE
  5
234
330
222
100
AcDbEntity
  8
2
  6
Continuous
 62
    90
370
    18
100
AcDbLine
 10
805.0322338293706
 20
652.6664313565017
 30
0.0
 11
804.97299082937
 21
652.9656513565016
 31
0.0
  0
LINE
  5
235
330
222
100
AcDbEntity
  8
2
  6
Continuous
 62
    90
370
    18
100
AcDbLine
 10
805.09837482937
 20
652.3681863565017
 30
0.0
 11
805.0322338293706
 21
652.6664313565017
 31
0.0
  0
LINE
  5
236
330
222
100
AcDbEntity
  8
2
  6
Continuous
 62
    90
370
    18
100
AcDbLine
 10
805.1713908293702
 20
652.0710223565012
 30
0.0
 11
805.09837482937
 21
652.3681863565017
 31
0.0
  0
LINE
  5
237
330
222
100
AcDbEntity
  8
2
  6
Continuous
 62
    90
370
    18
100
AcDbLine
 10
805.2512548293705
 20
651.7750473565012
 30
0.0
 11
805.1713908293702
 21
652.0710223565012
 31
0.0
  0
LINE
  5
238
330
222
100
AcDbEntity
  8
2
  6
Continuous
 62
    90
370
    18
100
AcDbLine
 10
805.3379388293704
 20
651.4803663565013
 30
0.0
 11
805.2512548293705
 21
651.7750473565012
 31
0.0
  0
LINE
  5
239
330
222
100
AcDbEntity
  8
2
  6
Continuous
 62
    90
370
    18
100
AcDbLine
 10
805.43141082937
 20
651.1870853565016
 30
0.0
 11
805.3379388293704
 21
651.4803663565013
 31
0.0
  0
LINE
  5
23A
330
222
100
AcDbEntity
  8
2
  6
Continuous
 62
    90
370
    18
100
AcDbLine
 10
805.5316388293702
 20
650.8953113565013
 30
0.0
 11
805.43141082937
 21
651.1870853565016
 31
0.0
  0
LINE
  5
23B
330
222
100
AcDbEntity
  8
2
  6
Continuous
 62
    90
370
    18
100
AcDbLine
 10
805.6385848293701
 20
650.6051473565013
 30
0.0
 11
805.5316388293702
 21
650.8953113565013
 31
0.0
  0
LINE
  5
23C
330
222
100
AcDbEntity
  8
2
  6
Continuous
 62
    90
370
    18
100
AcDbLine
 10
805.7522128293701
 20
650.3166973565013
 30
0.0
 11
805.6385848293701
 21
650.6051473565013
 31
0.0
  0
LINE
  5
23D
330
222
100
AcDbEntity
  8
2
  6
Continuous
 62
    90
370
    18
100
AcDbLine
 10
805.8724798293704
 20
650.0300653565015
 30
0.0
 11
805.7522128293701
 21
650.3166973565013
 31
0.0
  0
LINE
  5
23E
330
222
100
AcDbEntity
  8
2
  6
Continuous
 62
    90
370
    18
100
AcDbLine
 10
805.9993428293699
 20
649.7453553565011
 30
0.0
 11
805.8724798293704
 21
650.0300653565015
 31
0.0
  0
LINE
  5
23F
330
222
100
AcDbEntity
  8
2
  6
Continuous
 62
    90
370
    18
100
AcDbLine
 10
806.1327578293701
 20
649.4626673565014
 30
0.0
 11
805.9993428293699
 21
649.7453553565011
 31
0.0
  0
LINE
  5
240
330
222
100
AcDbEntity
  8
2
  6
Continuous
 62
    90
370
    18
100
AcDbLine
 10
806.2726768293703
 20
649.1821053565014
 30
0.0
 11
806.1327578293701
 21
649.4626673565014
 31
0.0
  0
LINE
  5
241
330
222
100
AcDbEntity
  8
2
  6
Continuous
 62
    90
370
    18
100
AcDbLine
 10
806.4190478293701
 20
648.9037673565014
 30
0.0
 11
806.2726768293703
 21
649.1821053565014
 31
0.0
  0
LINE
  5
242
330
222
100
AcDbEntity
  8
2
  6
Continuous
 62
    90
370
    18
100
AcDbLine
 10
806.5718198293705
 20
648.6277553565016
 30
0.0
 11
806.4190478293701
 21
648.9037673565014
 31
0.0
  0
LINE
  5
243
330
222
100
AcDbEntity
  8
2
  6
Continuous
 62
    90
370
    18
100
AcDbLine
 10
806.7309368293706
 20
648.3541683565014
 30
0.0
 11
806.5718198293705
 21
648.6277553565016
 31
0.0
  0
LINE
  5
244
330
222
100
AcDbEntity
  8
2
  6
Continuous
 62
    90
370
    18
100
AcDbLine
 10
806.8963428293707
 20
648.0831033565015
 30
0.0
 11
806.7309368293706
 21
648.3541683565014
 31
0.0
  0
LINE
  5
245
330
222
100
AcDbEntity
  8
2
  6
Continuous
 62
    90
370
    18
100
AcDbLine
 10
807.0679778293704
 20
647.8146583565014
 30
0.0
 11
806.8963428293707
 21
648.0831033565015
 31
0.0
  0
LINE
  5
246
330
222
100
AcDbEntity
  8
2
  6
Continuous
 62
    90
370
    18
100
AcDbLine
 10
807.24578082937
 20
647.5489293565016
 30
0.0
 11
807.0679778293704
 21
647.8146583565014
 31
0.0
  0
LINE
  5
247
330
222
100
AcDbEntity
  8
2
  6
Continuous
 62
    90
370
    18
100
AcDbLine
 10
807.4296878293706
 20
647.2860123565016
 30
0.0
 11
807.24578082937
 21
647.5489293565016
 31
0.0
  0
LINE
  5
248
330
222
100
AcDbEntity
  8
2
  6
Continuous
 62
    90
370
    18
100
AcDbLine
 10
807.6196318293703
 20
647.0260013565013
 30
0.0
 11
807.4296878293706
 21
647.2860123565016
 31
0.0
  0
LINE
  5
249
330
222
100
AcDbEntity
  8
2
  6
Continuous
 62
    90
370
    18
100
AcDbLine
 10
807.8155458293702
 20
646.7689893565013
 30
0.0
 11
807.6196318293703
 21
647.0260013565013
 31
0.0
  0
LINE
  5
24A
330
222
100
AcDbEntity
  8
2
  6
Continuous
 62
    90
370
    18
100
AcDbLine
 10
808.0173588293699
 20
646.5150693565012
 30
0.0
 11
807.8155458293702
 21
646.7689893565013
 31
0.0
  0
LINE
  5
24B
330
222
100
AcDbEntity
  8
2
  6
Continuous
 62
    90
370
    18
100
AcDbLine
 10
808.2249988293704
 20
646.2643313565014
 30
0.0
 11
808.0173588293699
 21
646.5150693565012
 31
0.0
  0
LINE
  5
24C
330
222
100
AcDbEntity
  8
2
  6
Continuous
 62
    90
370
    18
100
AcDbLine
 10
808.4383908293701
 20
646.0168673565014
 30
0.0
 11
808.2249988293704
 21
646.2643313565014
 31
0.0
  0
LINE
  5
24D
330
222
100
AcDbEntity
  8
2
  6
Continuous
 62
    90
370
    18
100
AcDbLine
 10
808.6574578293701
 20
645.7727643565014
 30
0.0
 11
808.4383908293701
 21
646.0168673565014
 31
0.0
  0
LINE
  5
24E
330
222
100
AcDbEntity
  8
2
  6
Continuous
 62
    90
370
    18
100
AcDbLine
 10
808.8821228293707
 20
645.5321103565012
 30
0.0
 11
808.6574578293701
 21
645.7727643565014
 31
0.0
  0
LINE
  5
24F
330
222
100
AcDbEntity
  8
2
  6
Continuous
 62
    90
370
    18
100
AcDbLine
 10
809.1123038293706
 20
645.2949923565012
 30
0.0
 11
808.8821228293707
 21
645.5321103565012
 31
0.0
  0
LINE
  5
250
330
222
100
AcDbEntity
  8
2
  6
Continuous
 62
    90
370
    18
100
AcDbLine
 10
809.3479188293702
 20
645.0614953565015
 30
0.0
 11
809.1123038293706
 21
645.2949923565012
 31
0.0
  0
LINE
  5
251
330
222
100
AcDbEntity
  8
2
  6
Continuous
 62
    90
370
    18
100
AcDbLine
 10
809.5888828293707
 20
644.8317023565015
 30
0.0
 11
809.3479188293702
 21
645.0614953565015
 31
0.0
  0
LINE
  5
252
330
222
100
AcDbEntity
  8
2
  6
Continuous
 62
    90
370
    18
100
AcDbLine
 10
809.83510882937
 20
644.6056963565017
 30
0.0
 11
809.5888828293707
 21
644.8317023565015
 31
0.0
  0
LINE
  5
253
330
222
100
AcDbEntity
  8
2
  6
Continuous
 62
    90
370
    18
100
AcDbLine
 10
810.0865098293705
 20
644.3835593565015
 30
0.0
 11
809.83510882937
 21
644.6056963565017
 31
0.0
  0
LINE
  5
254
330
222
100
AcDbEntity
  8
2
  6
Continuous
 62
    90
370
    18
100
AcDbLine
 10
810.3429948293704
 20
644.1653693565014
 30
0.0
 11
810.0865098293705
 21
644.3835593565015
 31
0.0
  0
LINE
  5
255
330
222
100
AcDbEntity
  8
2
  6
Continuous
 62
    90
370
    18
100
AcDbLine
 10
810.60447082937
 20
643.9512063565018
 30
0.0
 11
810.3429948293704
 21
644.1653693565014
 31
0.0
  0
LINE
  5
256
330
222
100
AcDbEntity
  8
2
  6
Continuous
 62
    90
370
    18
100
AcDbLine
 10
810.8708458293702
 20
643.7411453565015
 30
0.0
 11
810.60447082937
 21
643.9512063565018
 31
0.0
  0
LINE
  5
257
330
222
100
AcDbEntity
  8
2
  6
Continuous
 62
    90
370
    18
100
AcDbLine
 10
811.1420238293701
 20
643.5352643565012
 30
0.0
 11
810.8708458293702
 21
643.7411453565015
 31
0.0
  0
LINE
  5
258
330
222
100
AcDbEntity
  8
2
  6
Continuous
 62
    90
370
    18
100
AcDbLine
 10
811.41790582937
 20
643.3336343565016
 30
0.0
 11
811.1420238293701
 21
643.5352643565012
 31
0.0
  0
LINE
  5
259
330
222
100
AcDbEntity
  8
2
  6
Continuous
 62
    90
370
    18
100
AcDbLine
 10
811.6983938293704
 20
643.1363303565014
 30
0.0
 11
811.41790582937
 21
643.3336343565016
 31
0.0
  0
LINE
  5
25A
330
222
100
AcDbEntity
  8
2
  6
Continuous
 62
    90
370
    18
100
AcDbLine
 10
811.98338782937
 20
642.9434213565015
 30
0.0
 11
811.6983938293704
 21
643.1363303565014
 31
0.0
  0
LINE
  5
25B
330
222
100
AcDbEntity
  8
2
  6
Continuous
 62
    90
370
    18
100
AcDbLine
 10
812.2727848293705
 20
642.7549773565016
 30
0.0
 11
811.98338782937
 21
642.9434213565015
 31
0.0
  0
LINE
  5
25C
330
222
100
AcDbEntity
  8
2
  6
Continuous
 62
    90
370
    18
100
AcDbLine
 10
812.5664818293706
 20
642.5710653565012
 30
0.0
 11
812.2727848293705
 21
642.7549773565016
 31
0.0
  0
LINE
  5
25D
330
222
100
AcDbEntity
  8
2
  6
Continuous
 62
    90
370
    18
100
AcDbLine
 10
812.8643718293704
 20
642.3917523565016
 30
0.0
 11
812.5664818293706
 21
642.5710653565012
 31
0.0
  0
LINE
  5
25E
330
222
100
AcDbEntity
  8
2
  6
Continuous
 62
    90
370
    18
100
AcDbLine
 10
813.1663478293701
 20
642.2171023565016
 30
0.0
 11
812.8643718293704
 21
642.3917523565016
 31
0.0
  0
LINE
  5
25F
330
222
100
AcDbEntity
  8
2
  6
Continuous
 62
    90
370
    18
100
AcDbLine
 10
813.4723038293703
 20
642.0471783565014
 30
0.0
 11
813.1663478293701
 21
642.2171023565016
 31
0.0
  0
LINE
  5
260
330
222
100
AcDbEntity
  8
2
  6
Continuous
 62
    90
370
    18
100
AcDbLine
 10
813.7821278293702
 20
641.8820403565015
 30
0.0
 11
813.4723038293703
 21
642.0471783565014
 31
0.0
  0
LINE
  5
261
330
222
100
AcDbEntity
  8
2
  6
Continuous
 62
    90
370
    18
100
AcDbLine
 10
814.0957088293706
 20
641.7217483565015
 30
0.0
 11
813.7821278293702
 21
641.8820403565015
 31
0.0
  0
LINE
  5
262
330
222
100
AcDbEntity
  8
2
  6
Continuous
 62
    90
370
    18
100
AcDbLine
 10
814.4129348293707
 20
641.5663593565015
 30
0.0
 11
814.0957088293706
 21
641.7217483565015
 31
0.0
  0
LINE
  5
263
330
222
100
AcDbEntity
  8
2
  6
Continuous
 62
    90
370
    18
100
AcDbLine
 10
814.7336918293702
 20
641.4159303565012
 30
0.0
 11
814.4129348293707
 21
641.5663593565015
 31
0.0
  0
LINE
  5
264
330
222
100
AcDbEntity
  8
2
  6
Continuous
 62
    90
370
    18
100
AcDbLine
 10
815.0578648293701
 20
641.2705143565014
 30
0.0
 11
814.7336918293702
 21
641.4159303565012
 31
0.0
  0
LINE
  5
265
330
222
100
AcDbEntity
  8
2
  6
Continuous
 62
    90
370
    18
100
AcDbLine
 10
815.3853378293704
 20
641.1301633565014
 30
0.0
 11
815.0578648293701
 21
641.2705143565014
 31
0.0
  0
LINE
  5
266
330
222
100
AcDbEntity
  8
2
  6
Continuous
 62
    90
370
    18
100
AcDbLine
 10
815.7159918293708
 20
640.9949283565012
 30
0.0
 11
815.3853378293704
 21
641.1301633565014
 31
0.0
  0
LINE
  5
267
330
222
100
AcDbEntity
  8
2
  6
Continuous
 62
    90
370
    18
100
AcDbLine
 10
816.0497098293706
 20
640.8648573565016
 30
0.0
 11
815.7159918293708
 21
640.9949283565012
 31
0.0
  0
LINE
  5
268
330
222
100
AcDbEntity
  8
2
  6
Continuous
 62
    90
370
    18
100
AcDbLine
 10
816.38637082937
 20
640.7399983565011
 30
0.0
 11
816.0497098293706
 21
640.8648573565016
 31
0.0
  0
LINE
  5
269
330
222
100
AcDbEntity
  8
2
  6
Continuous
 62
    90
370
    18
100
AcDbLine
 10
816.7258538293706
 20
640.6203943565016
 30
0.0
 11
816.38637082937
 21
640.7399983565011
 31
0.0
  0
LINE
  5
26A
330
222
100
AcDbEntity
  8
2
  6
Continuous
 62
    90
370
    18
100
AcDbLine
 10
817.0680388293702
 20
640.5060893565015
 30
0.0
 11
816.7258538293706
 21
640.6203943565016
 31
0.0
  0
LINE
  5
26B
330
222
100
AcDbEntity
  8
2
  6
Continuous
 62
    90
370
    18
100
AcDbLine
 10
817.4128008293699
 20
640.3971243565012
 30
0.0
 11
817.0680388293702
 21
640.5060893565015
 31
0.0
  0
LINE
  5
26C
330
222
100
AcDbEntity
  8
2
  6
Continuous
 62
    90
370
    18
100
AcDbLine
 10
817.76001682937
 20
640.2935373565016
 30
0.0
 11
817.4128008293699
 21
640.3971243565012
 31
0.0
  0
LINE
  5
26D
330
222
100
AcDbEntity
  8
2
  6
Continuous
 62
    90
370
    18
100
AcDbLine
 10
818.1095628293704
 20
640.1953673565014
 30
0.0
 11
817.76001682937
 21
640.2935373565016
 31
0.0
  0
LINE
  5
26E
330
222
100
AcDbEntity
  8
2
  6
Continuous
 62
    90
370
    18
100
AcDbLine
 10
818.4613128293702
 20
640.1026483565012
 30
0.0
 11
818.1095628293704
 21
640.1953673565014
 31
0.0
  0
LINE
  5
26F
330
222
100
AcDbEntity
  8
2
  6
Continuous
 62
    90
370
    18
100
AcDbLine
 10
818.8151398293701
 20
640.0154143565015
 30
0.0
 11
818.4613128293702
 21
640.1026483565012
 31
0.0
  0
LINE
  5
270
330
222
100
AcDbEntity
  8
2
  6
Continuous
 62
    90
370
    18
100
AcDbLine
 10
819.1709188293705
 20
639.9336963565012
 30
0.0
 11
818.8151398293701
 21
640.0154143565015
 31
0.0
  0
LINE
  5
271
330
222
100
AcDbEntity
  8
2
  6
Continuous
 62
    90
370
    18
100
AcDbLine
 10
819.5285198293702
 20
639.8575223565014
 30
0.0
 11
819.1709188293705
 21
639.9336963565012
 31
0.0
  0
LINE
  5
272
330
222
100
AcDbEntity
  8
2
  6
Continuous
 62
    90
370
    18
100
AcDbLine
 10
819.8878158293708
 20
639.7869223565013
 30
0.0
 11
819.5285198293702
 21
639.8575223565014
 31
0.0
  0
LINE
  5
273
330
222
100
AcDbEntity
  8
2
  6
Continuous
 62
    90
370
    18
100
AcDbLine
 10
820.24867682937
 20
639.7219203565015
 30
0.0
 11
819.8878158293708
 21
639.7869223565013
 31
0.0
  0
LINE
  5
274
330
222
100
AcDbEntity
  8
2
  6
Continuous
 62
    90
370
    18
100
AcDbLine
 10
820.3582878293707
 20
639.9149283565013
 30
0.0
 11
820.24867682937
 21
639.9335123565016
 31
0.0
  0
LINE
  5
275
330
222
100
AcDbEntity
  8
2
  6
Continuous
 62
    90
370
    18
100
AcDbLine
 10
820.4680268293712
 20
639.8968613565013
 30
0.0
 11
820.3582878293707
 21
639.9149283565013
 31
0.0
  0
LINE
  5
276
330
222
100
AcDbEntity
  8
2
  6
Continuous
 62
    90
370
    18
100
AcDbLine
 10
820.5778908293712
 20
639.8793113565017
 30
0.0
 11
820.4680268293712
 21
639.8968613565013
 31
0.0
  0
LINE
  5
277
330
222
100
AcDbEntity
  8
2
  6
Continuous
 62
    90
370
    18
100
AcDbLine
 10
820.68787482937
 20
639.8622783565016
 30
0.0
 11
820.5778908293712
 21
639.8793113565017
 31
0.0
  0
LINE
  5
278
330
222
100
AcDbEntity
  8
2
  6
Continuous
 62
    90
370
    18
100
AcDbLine
 10
820.7979768293706
 20
639.8457643565017
 30
0.0
 11
820.68787482937
 21
639.8622783565016
 31
0.0
  0
LINE
  5
279
330
222
100
AcDbEntity
  8
2
  6
Continuous
 62
    90
370
    18
100
AcDbLine
 10
820.9081928293706
 20
639.8297693565015
 30
0.0
 11
820.7979768293706
 21
639.8457643565017
 31
0.0
  0
LINE
  5
27A
330
222
100
AcDbEntity
  8
2
  6
Continuous
 62
    90
370
    18
100
AcDbLine
 10
821.0185178293711
 20
639.8142933565015
 30
0.0
 11
820.9081928293706
 21
639.8297693565015
 31
0.0
  0
LINE
  5
27B
330
222
100
AcDbEntity
  8
2
  6
Continuous
 62
    90
370
    18
100
AcDbLine
 10
821.1289498293706
 20
639.7993363565012
 30
0.0
 11
821.0185178293711
 21
639.8142933565015
 31
0.0
  0
LINE
  5
27C
330
222
100
AcDbEntity
  8
2
  6
Continuous
 62
    90
370
    18
100
AcDbLine
 10
821.2394848293704
 20
639.7849003565017
 30
0.0
 11
821.1289498293706
 21
639.7993363565012
 31
0.0
  0
LINE
  5
27D
330
222
100
AcDbEntity
  8
2
  6
Continuous
 62
    90
370
    18
100
AcDbLine
 10
821.350118829371
 20
639.7709853565012
 30
0.0
 11
821.2394848293704
 21
639.7849003565017
 31
0.0
  0
LINE
  5
27E
330
222
100
AcDbEntity
  8
2
  6
Continuous
 62
    90
370
    18
100
AcDbLine
 10
821.4608488293704
 20
639.7575913565016
 30
0.0
 11
821.350118829371
 21
639.7709853565012
 31
0.0
  0
LINE
  5
27F
330
222
100
AcDbEntity
  8
2
  6
Continuous
 62
    90
370
    18
100
AcDbLine
 10
821.5716698293706
 20
639.7447193565014
 30
0.0
 11
821.4608488293704
 21
639.7575913565016
 31
0.0
  0
LINE
  5
280
330
222
100
AcDbEntity
  8
2
  6
Continuous
 62
    90
370
    18
100
AcDbLine
 10
821.682579829371
 20
639.7323693565014
 30
0.0
 11
821.5716698293706
 21
639.7447193565014
 31
0.0
  0
LINE
  5
281
330
222
100
AcDbEntity
  8
2
  6
Continuous
 62
    90
370
    18
100
AcDbLine
 10
821.7935738293706
 20
639.7205423565011
 30
0.0
 11
821.682579829371
 21
639.7323693565014
 31
0.0
  0
LINE
  5
282
330
222
100
AcDbEntity
  8
2
  6
Continuous
 62
    90
370
    18
100
AcDbLine
 10
821.9046488293704
 20
639.7092373565011
 30
0.0
 11
821.7935738293706
 21
639.7205423565011
 31
0.0
  0
LINE
  5
283
330
222
100
AcDbEntity
  8
2
  6
Continuous
 62
    90
370
    18
100
AcDbLine
 10
822.0158018293703
 20
639.6984563565012
 30
0.0
 11
821.9046488293704
 21
639.7092373565011
 31
0.0
  0
LINE
  5
284
330
222
100
AcDbEntity
  8
2
  6
Continuous
 62
    90
370
    18
100
AcDbLine
 10
822.1270278293712
 20
639.6881993565013
 30
0.0
 11
822.0158018293703
 21
639.6984563565012
 31
0.0
  0
LINE
  5
285
330
222
100
AcDbEntity
  8
2
  6
Continuous
 62
    90
370
    18
100
AcDbLine
 10
822.2383238293703
 20
639.6784653565015
 30
0.0
 11
822.1270278293712
 21
639.6881993565013
 31
0.0
  0
LINE
  5
286
330
222
100
AcDbEntity
  8
2
  6
Continuous
 62
    90
370
    18
100
AcDbLine
 10
822.34968582937
 20
639.6692563565013
 30
0.0
 11
822.2383238293703
 21
639.6784653565015
 31
0.0
  0
LINE
  5
287
330
222
100
AcDbEntity
  8
2
  6
Continuous
 62
    90
370
    18
100
AcDbLine
 10
822.4611108293709
 20
639.6605713565015
 30
0.0
 11
822.34968582937
 21
639.6692563565013
 31
0.0
  0
LINE
  5
288
330
222
100
AcDbEntity
  8
2
  6
Continuous
 62
    90
370
    18
100
AcDbLine
 10
822.5725938293706
 20
639.6524123565015
 30
0.0
 11
822.4611108293709
 21
639.6605713565015
 31
0.0
  0
LINE
  5
289
330
222
100
AcDbEntity
  8
2
  6
Continuous
 62
    90
370
    18
100
AcDbLine
 10
822.684132829371
 20
639.6447773565015
 30
0.0
 11
822.5725938293706
 21
639.6524123565015
 31
0.0
  0
LINE
  5
28A
330
222
100
AcDbEntity
  8
2
  6
Continuous
 62
    90
370
    18
100
AcDbLine
 10
822.79572382937
 20
639.6376683565014
 30
0.0
 11
822.684132829371
 21
639.6447773565015
 31
0.0
  0
LINE
  5
28B
330
222
100
AcDbEntity
  8
2
  6
Continuous
 62
    90
370
    18
100
AcDbLine
 10
822.9073618293703
 20
639.6310853565016
 30
0.0
 11
822.79572382937
 21
639.6376683565014
 31
0.0
  0
LINE
  5
28C
330
222
100
AcDbEntity
  8
2
  6
Continuous
 62
    90
370
    18
100
AcDbLine
 10
823.0190448293704
 20
639.6250273565012
 30
0.0
 11
822.9073618293703
 21
639.6310853565016
 31
0.0
  0
LINE
  5
28D
330
222
100
AcDbEntity
  8
2
  6
Continuous
 62
    90
370
    18
100
AcDbLine
 10
823.1307678293704
 20
639.6194963565014
 30
0.0
 11
823.0190448293704
 21
639.6250273565012
 31
0.0
  0
LINE
  5
28E
330
222
100
AcDbEntity
  8
2
  6
Continuous
 62
    90
370
    18
100
AcDbLine
 10
823.242527829371
 20
639.6144903565015
 30
0.0
 11
823.1307678293704
 21
639.6194963565014
 31
0.0
  0
LINE
  5
28F
330
222
100
AcDbEntity
  8
2
  6
Continuous
 62
    90
370
    18
100
AcDbLine
 10
823.3543208293711
 20
639.6100113565013
 30
0.0
 11
823.242527829371
 21
639.6144903565015
 31
0.0
  0
LINE
  5
290
330
222
100
AcDbEntity
  8
2
  6
Continuous
 62
    90
370
    18
100
AcDbLine
 10
823.46614282937
 20
639.6060593565018
 30
0.0
 11
823.3543208293711
 21
639.6100113565013
 31
0.0
  0
LINE
  5
291
330
222
100
AcDbEntity
  8
2
  6
Continuous
 62
    90
370
    18
100
AcDbLine
 10
823.5779918293708
 20
639.6026343565014
 30
0.0
 11
823.46614282937
 21
639.6060593565018
 31
0.0
  0
LINE
  5
292
330
222
100
AcDbEntity
  8
2
  6
Continuous
 62
    90
370
    18
100
AcDbLine
 10
823.6898618293706
 20
639.5997353565014
 30
0.0
 11
823.5779918293708
 21
639.6026343565014
 31
0.0
  0
LINE
  5
293
330
222
100
AcDbEntity
  8
2
  6
Continuous
 62
    90
370
    18
100
AcDbLine
 10
823.8017508293703
 20
639.5973633565014
 30
0.0
 11
823.6898618293706
 21
639.5997353565014
 31
0.0
  0
LINE
  5
294
330
222
100
AcDbEntity
  8
2
  6
Continuous
 62
    90
370
    18
100
AcDbLine
 10
823.9136548293707
 20
639.5955183565012
 30
0.0
 11
823.8017508293703
 21
639.5973633565014
 31
0.0
  0
LINE
  5
295
330
222
100
AcDbEntity
  8
2
  6
Continuous
 62
    90
370
    18
100
AcDbLine
 10
824.0255698293702
 20
639.5942013565015
 30
0.0
 11
823.9136548293707
 21
639.5955183565012
 31
0.0
  0
LINE
  5
296
330
222
100
AcDbEntity
  8
2
  6
Continuous
 62
    90
370
    18
100
AcDbLine
 10
824.1374918293702
 20
639.5934103565015
 30
0.0
 11
824.0255698293702
 21
639.5942013565015
 31
0.0
  0
LINE
  5
297
330
222
100
AcDbEntity
  8
2
  6
Continuous
 62
    90
370
    18
100
AcDbLine
 10
824.2494178293707
 20
639.5931463565013
 30
0.0
 11
824.1374918293702
 21
639.5934103565015
 31
0.0
  0
LINE
  5
298
330
222
100
AcDbEntity
  8
2
  6
Continuous
 62
    90
370
    18
100
AcDbLine
 10
824.3613438293703
 20
639.5934103565015
 30
0.0
 11
824.2494178293707
 21
639.5931463565013
 31
0.0
  0
LINE
  5
299
330
222
100
AcDbEntity
  8
2
  6
Continuous
 62
    90
370
    18
100
AcDbLine
 10
824.4732658293703
 20
639.5942013565015
 30
0.0
 11
824.3613438293703
 21
639.5934103565015
 31
0.0
  0
LINE
  5
29A
330
222
100
AcDbEntity
  8
2
  6
Continuous
 62
    90
370
    18
100
AcDbLine
 10
824.5851808293708
 20
639.5955183565012
 30
0.0
 11
824.4732658293703
 21
639.5942013565015
 31
0.0
  0
LINE
  5
29B
330
222
100
AcDbEntity
  8
2
  6
Continuous
 62
    90
370
    18
100
AcDbLine
 10
824.6970848293702
 20
639.5973633565014
 30
0.0
 11
824.5851808293708
 21
639.5955183565012
 31
0.0
  0
LINE
  5
29C
330
222
100
AcDbEntity
  8
2
  6
Continuous
 62
    90
370
    18
100
AcDbLine
 10
824.80897382937
 20
639.5997353565014
 30
0.0
 11
824.6970848293702
 21
639.5973633565014
 31
0.0
  0
LINE
  5
29D
330
222
100
AcDbEntity
  8
2
  6
Continuous
 62
    90
370
    18
100
AcDbLine
 10
824.9208438293706
 20
639.6026343565014
 30
0.0
 11
824.80897382937
 21
639.5997353565014
 31
0.0
  0
LINE
  5
29E
330
222
100
AcDbEntity
  8
2
  6
Continuous
 62
    90
370
    18
100
AcDbLine
 10
825.0326918293711
 20
639.6060593565018
 30
0.0
 11
824.9208438293706
 21
639.6026343565014
 31
0.0
  0
LINE
  5
29F
330
222
100
AcDbEntity
  8
2
  6
Continuous
 62
    90
370
    18
100
AcDbLine
 10
825.1445148293703
 20
639.6100113565013
 30
0.0
 11
825.0326918293711
 21
639.6060593565018
 31
0.0
  0
LINE
  5
2A0
330
222
100
AcDbEntity
  8
2
  6
Continuous
 62
    90
370
    18
100
AcDbLine
 10
825.2563078293704
 20
639.6144903565015
 30
0.0
 11
825.1445148293703
 21
639.6100113565013
 31
0.0
  0
LINE
  5
2A1
330
222
100
AcDbEntity
  8
2
  6
Continuous
 62
    90
370
    18
100
AcDbLine
 10
825.3680678293701
 20
639.6194963565014
 30
0.0
 11
825.2563078293704
 21
639.6144903565015
 31
0.0
  0
LINE
  5
2A2
330
222
100
AcDbEntity
  8
2
  6
Continuous
 62
    90
370
    18
100
AcDbLine
 10
825.4797908293701
 20
639.6250273565012
 30
0.0
 11
825.3680678293701
 21
639.6194963565014
 31
0.0
  0
LINE
  5
2A3
330
222
100
AcDbEntity
  8
2
  6
Continuous
 62
    90
370
    18
100
AcDbLine
 10
825.5914738293711
 20
639.6310853565016
 30
0.0
 11
825.4797908293701
 21
639.6250273565012
 31
0.0
  0
LINE
  5
2A4
330
222
100
AcDbEntity
  8
2
  6
Continuous
 62
    90
370
    18
100
AcDbLine
 10
825.7031118293705
 20
639.6376683565014
 30
0.0
 11
825.5914738293711
 21
639.6310853565016
 31
0.0
  0
LINE
  5
2A5
330
222
100
AcDbEntity
  8
2
  6
Continuous
 62
    90
370
    18
100
AcDbLine
 10
825.8147028293704
 20
639.6447773565015
 30
0.0
 11
825.7031118293705
 21
639.6376683565014
 31
0.0
  0
LINE
  5
2A6
330
222
100
AcDbEntity
  8
2
  6
Continuous
 62
    90
370
    18
100
AcDbLine
 10
825.9262418293699
 20
639.6524123565015
 30
0.0
 11
825.8147028293704
 21
639.6447773565015
 31
0.0
  0
LINE
  5
2A7
330
222
100
AcDbEntity
  8
2
  6
Continuous
 62
    90
370
    18
100
AcDbLine
 10
826.0377248293705
 20
639.6605713565015
 30
0.0
 11
825.9262418293699
 21
639.6524123565015
 31
0.0
  0
LINE
  5
2A8
330
222
100
AcDbEntity
  8
2
  6
Continuous
 62
    90
370
    18
100
AcDbLine
 10
826.1491498293706
 20
639.6692563565013
 30
0.0
 11
826.0377248293705
 21
639.6605713565015
 31
0.0
  0
LINE
  5
2A9
330
222
100
AcDbEntity
  8
2
  6
Continuous
 62
    90
370
    18
100
AcDbLine
 10
826.2605118293711
 20
639.6784653565015
 30
0.0
 11
826.1491498293706
 21
639.6692563565013
 31
0.0
  0
LINE
  5
2AA
330
222
100
AcDbEntity
  8
2
  6
Continuous
 62
    90
370
    18
100
AcDbLine
 10
826.3718078293703
 20
639.6881993565013
 30
0.0
 11
826.2605118293711
 21
639.6784653565015
 31
0.0
  0
LINE
  5
2AB
330
222
100
AcDbEntity
  8
2
  6
Continuous
 62
    90
370
    18
100
AcDbLine
 10
826.4830338293712
 20
639.6984563565012
 30
0.0
 11
826.3718078293703
 21
639.6881993565013
 31
0.0
  0
LINE
  5
2AC
330
222
100
AcDbEntity
  8
2
  6
Continuous
 62
    90
370
    18
100
AcDbLine
 10
826.5941858293706
 20
639.7092373565011
 30
0.0
 11
826.4830338293712
 21
639.6984563565012
 31
0.0
  0
LINE
  5
2AD
330
222
100
AcDbEntity
  8
2
  6
Continuous
 62
    90
370
    18
100
AcDbLine
 10
826.7052618293699
 20
639.7205423565011
 30
0.0
 11
826.5941858293706
 21
639.7092373565011
 31
0.0
  0
LINE
  5
2AE
330
222
100
AcDbEntity
  8
2
  6
Continuous
 62
    90
370
    18
100
AcDbLine
 10
826.8162558293704
 20
639.7323693565014
 30
0.0
 11
826.7052618293699
 21
639.7205423565011
 31
0.0
  0
LINE
  5
2AF
330
222
100
AcDbEntity
  8
2
  6
Continuous
 62
    90
370
    18
100
AcDbLine
 10
826.9271658293699
 20
639.7447193565014
 30
0.0
 11
826.8162558293704
 21
639.7323693565014
 31
0.0
  0
LINE
  5
2B0
330
222
100
AcDbEntity
  8
2
  6
Continuous
 62
    90
370
    18
100
AcDbLine
 10
827.0379868293701
 20
639.7575913565016
 30
0.0
 11
826.9271658293699
 21
639.7447193565014
 31
0.0
  0
LINE
  5
2B1
330
222
100
AcDbEntity
  8
2
  6
Continuous
 62
    90
370
    18
100
AcDbLine
 10
827.1487168293704
 20
639.7709853565012
 30
0.0
 11
827.0379868293701
 21
639.7575913565016
 31
0.0
  0
LINE
  5
2B2
330
222
100
AcDbEntity
  8
2
  6
Continuous
 62
    90
370
    18
100
AcDbLine
 10
827.259350829371
 20
639.7849003565017
 30
0.0
 11
827.1487168293704
 21
639.7709853565012
 31
0.0
  0
LINE
  5
2B3
330
222
100
AcDbEntity
  8
2
  6
Continuous
 62
    90
370
    18
100
AcDbLine
 10
827.3698848293704
 20
639.7993363565012
 30
0.0
 11
827.259350829371
 21
639.7849003565017
 31
0.0
  0
LINE
  5
2B4
330
222
100
AcDbEntity
  8
2
  6
Continuous
 62
    90
370
    18
100
AcDbLine
 10
827.4803178293703
 20
639.8142933565015
 30
0.0
 11
827.3698848293704
 21
639.7993363565012
 31
0.0
  0
LINE
  5
2B5
330
222
100
AcDbEntity
  8
2
  6
Continuous
 62
    90
370
    18
100
AcDbLine
 10
827.5906428293699
 20
639.8297693565015
 30
0.0
 11
827.4803178293703
 21
639.8142933565015
 31
0.0
  0
LINE
  5
2B6
330
222
100
AcDbEntity
  8
2
  6
Continuous
 62
    90
370
    18
100
AcDbLine
 10
827.7008588293709
 20
639.8457643565017
 30
0.0
 11
827.5906428293699
 21
639.8297693565015
 31
0.0
  0
LINE
  5
2B7
330
222
100
AcDbEntity
  8
2
  6
Continuous
 62
    90
370
    18
100
AcDbLine
 10
827.8109608293705
 20
639.8622783565016
 30
0.0
 11
827.7008588293709
 21
639.8457643565017
 31
0.0
  0
LINE
  5
2B8
330
222
100
AcDbEntity
  8
2
  6
Continuous
 62
    90
370
    18
100
AcDbLine
 10
827.9209448293702
 20
639.8793113565017
 30
0.0
 11
827.8109608293705
 21
639.8622783565016
 31
0.0
  0
LINE
  5
2B9
330
222
100
AcDbEntity
  8
2
  6
Continuous
 62
    90
370
    18
100
AcDbLine
 10
828.0308088293702
 20
639.8968613565013
 30
0.0
 11
827.9209448293702
 21
639.8793113565017
 31
0.0
  0
LINE
  5
2BA
330
222
100
AcDbEntity
  8
2
  6
Continuous
 62
    90
370
    18
100
AcDbLine
 10
828.1405478293707
 20
639.9149283565013
 30
0.0
 11
828.0308088293702
 21
639.8968613565013
 31
0.0
  0
LINE
  5
2BB
330
222
100
AcDbEntity
  8
2
  6
Continuous
 62
    90
370
    18
100
AcDbLine
 10
828.2501578293711
 20
639.9335123565016
 30
0.0
 11
828.1405478293707
 21
639.9149283565013
 31
0.0
  0
LINE
  5
2BC
330
222
100
AcDbEntity
  8
2
  6
Continuous
 62
    90
370
    18
100
AcDbLine
 10
828.6110198293707
 20
639.7869223565013
 30
0.0
 11
828.2501578293711
 21
639.7219203565015
 31
0.0
  0
LINE
  5
2BD
330
222
100
AcDbEntity
  8
2
  6
Continuous
 62
    90
370
    18
100
AcDbLine
 10
828.9703158293712
 20
639.8575223565014
 30
0.0
 11
828.6110198293707
 21
639.7869223565013
 31
0.0
  0
LINE
  5
2BE
330
222
100
AcDbEntity
  8
2
  6
Continuous
 62
    90
370
    18
100
AcDbLine
 10
829.3279168293709
 20
639.9336963565012
 30
0.0
 11
828.9703158293712
 21
639.8575223565014
 31
0.0
  0
LINE
  5
2BF
330
222
100
AcDbEntity
  8
2
  6
Continuous
 62
    90
370
    18
100
AcDbLine
 10
829.6836948293701
 20
640.0154143565015
 30
0.0
 11
829.3279168293709
 21
639.9336963565012
 31
0.0
  0
LINE
  5
2C0
330
222
100
AcDbEntity
  8
2
  6
Continuous
 62
    90
370
    18
100
AcDbLine
 10
830.0375228293703
 20
640.1026483565012
 30
0.0
 11
829.6836948293701
 21
640.0154143565015
 31
0.0
  0
LINE
  5
2C1
330
222
100
AcDbEntity
  8
2
  6
Continuous
 62
    90
370
    18
100
AcDbLine
 10
830.3892728293711
 20
640.1953673565014
 30
0.0
 11
830.0375228293703
 21
640.1026483565012
 31
0.0
  0
LINE
  5
2C2
330
222
100
AcDbEntity
  8
2
  6
Continuous
 62
    90
370
    18
100
AcDbLine
 10
830.7388188293705
 20
640.2935373565016
 30
0.0
 11
830.3892728293711
 21
640.1953673565014
 31
0.0
  0
LINE
  5
2C3
330
222
100
AcDbEntity
  8
2
  6
Continuous
 62
    90
370
    18
100
AcDbLine
 10
831.0860348293706
 20
640.3971243565012
 30
0.0
 11
830.7388188293705
 21
640.2935373565016
 31
0.0
  0
LINE
  5
2C4
330
222
100
AcDbEntity
  8
2
  6
Continuous
 62
    90
370
    18
100
AcDbLine
 10
831.4307968293704
 20
640.5060893565015
 30
0.0
 11
831.0860348293706
 21
640.3971243565012
 31
0.0
  0
LINE
  5
2C5
330
222
100
AcDbEntity
  8
2
  6
Continuous
 62
    90
370
    18
100
AcDbLine
 10
831.7729808293705
 20
640.6203943565016
 30
0.0
 11
831.4307968293704
 21
640.5060893565015
 31
0.0
  0
LINE
  5
2C6
330
222
100
AcDbEntity
  8
2
  6
Continuous
 62
    90
370
    18
100
AcDbLine
 10
832.1124648293705
 20
640.7399983565011
 30
0.0
 11
831.7729808293705
 21
640.6203943565016
 31
0.0
  0
LINE
  5
2C7
330
222
100
AcDbEntity
  8
2
  6
Continuous
 62
    90
370
    18
100
AcDbLine
 10
832.4491258293699
 20
640.8648573565016
 30
0.0
 11
832.1124648293705
 21
640.7399983565011
 31
0.0
  0
LINE
  5
2C8
330
222
100
AcDbEntity
  8
2
  6
Continuous
 62
    90
370
    18
100
AcDbLine
 10
832.7828438293707
 20
640.9949283565012
 30
0.0
 11
832.4491258293699
 21
640.8648573565016
 31
0.0
  0
LINE
  5
2C9
330
222
100
AcDbEntity
  8
2
  6
Continuous
 62
    90
370
    18
100
AcDbLine
 10
833.1134978293701
 20
641.1301633565014
 30
0.0
 11
832.7828438293707
 21
640.9949283565012
 31
0.0
  0
LINE
  5
2CA
330
222
100
AcDbEntity
  8
2
  6
Continuous
 62
    90
370
    18
100
AcDbLine
 10
833.44096982937
 20
641.2705143565014
 30
0.0
 11
833.1134978293701
 21
641.1301633565014
 31
0.0
  0
LINE
  5
2CB
330
222
100
AcDbEntity
  8
2
  6
Continuous
 62
    90
370
    18
100
AcDbLine
 10
833.76514282937
 20
641.4159303565012
 30
0.0
 11
833.44096982937
 21
641.2705143565014
 31
0.0
  0
LINE
  5
2CC
330
222
100
AcDbEntity
  8
2
  6
Continuous
 62
    90
370
    18
100
AcDbLine
 10
834.0859008293698
 20
641.5663593565015
 30
0.0
 11
833.76514282937
 21
641.4159303565012
 31
0.0
  0
LINE
  5
2CD
330
222
100
AcDbEntity
  8
2
  6
Continuous
 62
    90
370
    18
100
AcDbLine
 10
834.40312682937
 20
641.7217483565015
 30
0.0
 11
834.0859008293698
 21
641.5663593565015
 31
0.0
  0
LINE
  5
2CE
330
222
100
AcDbEntity
  8
2
  6
Continuous
 62
    90
370
    18
100
AcDbLine
 10
834.7167078293703
 20
641.8820403565015
 30
0.0
 11
834.40312682937
 21
641.7217483565015
 31
0.0
  0
LINE
  5
2CF
330
222
100
AcDbEntity
  8
2
  6
Continuous
 62
    90
370
    18
100
AcDbLine
 10
835.0265318293702
 20
642.0471783565014
 30
0.0
 11
834.7167078293703
 21
641.8820403565015
 31
0.0
  0
LINE
  5
2D0
330
222
100
AcDbEntity
  8
2
  6
Continuous
 62
    90
370
    18
100
AcDbLine
 10
835.33248682937
 20
642.2171023565016
 30
0.0
 11
835.0265318293702
 21
642.0471783565014
 31
0.0
  0
LINE
  5
2D1
330
222
100
AcDbEntity
  8
2
  6
Continuous
 62
    90
370
    18
100
AcDbLine
 10
835.6344638293701
 20
642.3917523565016
 30
0.0
 11
835.33248682937
 21
642.2171023565016
 31
0.0
  0
LINE
  5
2D2
330
222
100
AcDbEntity
  8
2
  6
Continuous
 62
    90
370
    18
100
AcDbLine
 10
835.93235382937
 20
642.5710653565012
 30
0.0
 11
835.6344638293701
 21
642.3917523565016
 31
0.0
  0
LINE
  5
2D3
330
222
100
AcDbEntity
  8
2
  6
Continuous
 62
    90
370
    18
100
AcDbLine
 10
836.22605082937
 20
642.7549773565016
 30
0.0
 11
835.93235382937
 21
642.5710653565012
 31
0.0
  0
LINE
  5
2D4
330
222
100
AcDbEntity
  8
2
  6
Continuous
 62
    90
370
    18
100
AcDbLine
 10
836.5154478293705
 20
642.9434213565015
 30
0.0
 11
836.22605082937
 21
642.7549773565016
 31
0.0
  0
LINE
  5
2D5
330
222
100
AcDbEntity
  8
2
  6
Continuous
 62
    90
370
    18
100
AcDbLine
 10
836.8004408293707
 20
643.1363303565014
 30
0.0
 11
836.5154478293705
 21
642.9434213565015
 31
0.0
  0
LINE
  5
2D6
330
222
100
AcDbEntity
  8
2
  6
Continuous
 62
    90
370
    18
100
AcDbLine
 10
837.0809298293705
 20
643.3336343565016
 30
0.0
 11
836.8004408293707
 21
643.1363303565014
 31
0.0
  0
LINE
  5
2D7
330
222
100
AcDbEntity
  8
2
  6
Continuous
 62
    90
370
    18
100
AcDbLine
 10
837.3568118293704
 20
643.5352643565012
 30
0.0
 11
837.0809298293705
 21
643.3336343565016
 31
0.0
  0
LINE
  5
2D8
330
222
100
AcDbEntity
  8
2
  6
Continuous
 62
    90
370
    18
100
AcDbLine
 10
837.6279898293703
 20
643.7411453565015
 30
0.0
 11
837.3568118293704
 21
643.5352643565012
 31
0.0
  0
LINE
  5
2D9
330
222
100
AcDbEntity
  8
2
  6
Continuous
 62
    90
370
    18
100
AcDbLine
 10
837.8943638293701
 20
643.9512063565018
 30
0.0
 11
837.6279898293703
 21
643.7411453565015
 31
0.0
  0
LINE
  5
2DA
330
222
100
AcDbEntity
  8
2
  6
Continuous
 62
    90
370
    18
100
AcDbLine
 10
838.1558408293702
 20
644.1653693565014
 30
0.0
 11
837.8943638293701
 21
643.9512063565018
 31
0.0
  0
LINE
  5
2DB
330
222
100
AcDbEntity
  8
2
  6
Continuous
 62
    90
370
    18
100
AcDbLine
 10
838.41232582937
 20
644.3835593565015
 30
0.0
 11
838.1558408293702
 21
644.1653693565014
 31
0.0
  0
LINE
  5
2DC
330
222
100
AcDbEntity
  8
2
  6
Continuous
 62
    90
370
    18
100
AcDbLine
 10
838.6637268293705
 20
644.6056963565017
 30
0.0
 11
838.41232582937
 21
644.3835593565015
 31
0.0
  0
LINE
  5
2DD
330
222
100
AcDbEntity
  8
2
  6
Continuous
 62
    90
370
    18
100
AcDbLine
 10
838.9099528293707
 20
644.8317023565015
 30
0.0
 11
838.6637268293705
 21
644.6056963565017
 31
0.0
  0
LINE
  5
2DE
330
222
100
AcDbEntity
  8
2
  6
Continuous
 62
    90
370
    18
100
AcDbLine
 10
839.1509168293703
 20
645.0614953565015
 30
0.0
 11
838.9099528293707
 21
644.8317023565015
 31
0.0
  0
LINE
  5
2DF
330
222
100
AcDbEntity
  8
2
  6
Continuous
 62
    90
370
    18
100
AcDbLine
 10
839.3865318293699
 20
645.2949923565012
 30
0.0
 11
839.1509168293703
 21
645.0614953565015
 31
0.0
  0
LINE
  5
2E0
330
222
100
AcDbEntity
  8
2
  6
Continuous
 62
    90
370
    18
100
AcDbLine
 10
839.6167128293707
 20
645.5321103565012
 30
0.0
 11
839.3865318293699
 21
645.2949923565012
 31
0.0
  0
LINE
  5
2E1
330
222
100
AcDbEntity
  8
2
  6
Continuous
 62
    90
370
    18
100
AcDbLine
 10
839.8413778293705
 20
645.7727643565014
 30
0.0
 11
839.6167128293707
 21
645.5321103565012
 31
0.0
  0
LINE
  5
2E2
330
222
100
AcDbEntity
  8
2
  6
Continuous
 62
    90
370
    18
100
AcDbLine
 10
840.0604448293705
 20
646.0168673565014
 30
0.0
 11
839.8413778293705
 21
645.7727643565014
 31
0.0
  0
LINE
  5
2E3
330
222
100
AcDbEntity
  8
2
  6
Continuous
 62
    90
370
    18
100
AcDbLine
 10
840.2738368293701
 20
646.2643313565015
 30
0.0
 11
840.0604448293705
 21
646.0168673565014
 31
0.0
  0
LINE
  5
2E4
330
222
100
AcDbEntity
  8
2
  6
Continuous
 62
    90
370
    18
100
AcDbLine
 10
840.4814768293706
 20
646.5150693565013
 30
0.0
 11
840.2738368293701
 21
646.2643313565015
 31
0.0
  0
LINE
  5
2E5
330
222
100
AcDbEntity
  8
2
  6
Continuous
 62
    90
370
    18
100
AcDbLine
 10
840.6832898293703
 20
646.7689893565014
 30
0.0
 11
840.4814768293706
 21
646.5150693565013
 31
0.0
  0
LINE
  5
2E6
330
222
100
AcDbEntity
  8
2
  6
Continuous
 62
    90
370
    18
100
AcDbLine
 10
840.8792038293702
 20
647.0260013565014
 30
0.0
 11
840.6832898293703
 21
646.7689893565014
 31
0.0
  0
LINE
  5
2E7
330
222
100
AcDbEntity
  8
2
  6
Continuous
 62
    90
370
    18
100
AcDbLine
 10
841.06914782937
 20
647.2860123565017
 30
0.0
 11
840.8792038293702
 21
647.0260013565014
 31
0.0
  0
LINE
  5
2E8
330
222
100
AcDbEntity
  8
2
  6
Continuous
 62
    90
370
    18
100
AcDbLine
 10
841.2530548293705
 20
647.5489293565017
 30
0.0
 11
841.06914782937
 21
647.2860123565017
 31
0.0
  0
LINE
  5
2E9
330
222
100
AcDbEntity
  8
2
  6
Continuous
 62
    90
370
    18
100
AcDbLine
 10
841.4308568293707
 20
647.8146583565015
 30
0.0
 11
841.2530548293705
 21
647.5489293565017
 31
0.0
  0
LINE
  5
2EA
330
222
100
AcDbEntity
  8
2
  6
Continuous
 62
    90
370
    18
100
AcDbLine
 10
841.6024928293707
 20
648.0831033565016
 30
0.0
 11
841.4308568293707
 21
647.8146583565015
 31
0.0
  0
LINE
  5
2EB
330
222
100
AcDbEntity
  8
2
  6
Continuous
 62
    90
370
    18
100
AcDbLine
 10
841.7678988293699
 20
648.3541683565015
 30
0.0
 11
841.6024928293707
 21
648.0831033565016
 31
0.0
  0
LINE
  5
2EC
330
222
100
AcDbEntity
  8
2
  6
Continuous
 62
    90
370
    18
100
AcDbLine
 10
841.92701582937
 20
648.6277553565017
 30
0.0
 11
841.7678988293699
 21
648.3541683565015
 31
0.0
  0
LINE
  5
2ED
330
222
100
AcDbEntity
  8
2
  6
Continuous
 62
    90
370
    18
100
AcDbLine
 10
842.0797878293704
 20
648.9037673565015
 30
0.0
 11
841.92701582937
 21
648.6277553565017
 31
0.0
  0
LINE
  5
2EE
330
222
100
AcDbEntity
  8
2
  6
Continuous
 62
    90
370
    18
100
AcDbLine
 10
842.2261588293702
 20
649.1821053565016
 30
0.0
 11
842.0797878293704
 21
648.9037673565015
 31
0.0
  0
LINE
  5
2EF
330
222
100
AcDbEntity
  8
2
  6
Continuous
 62
    90
370
    18
100
AcDbLine
 10
842.3660778293704
 20
649.4626673565015
 30
0.0
 11
842.2261588293702
 21
649.1821053565016
 31
0.0
  0
LINE
  5
2F0
330
222
100
AcDbEntity
  8
2
  6
Continuous
 62
    90
370
    18
100
AcDbLine
 10
842.4994918293703
 20
649.7453553565012
 30
0.0
 11
842.3660778293704
 21
649.4626673565015
 31
0.0
  0
LINE
  5
2F1
330
222
100
AcDbEntity
  8
2
  6
Continuous
 62
    90
370
    18
100
AcDbLine
 10
842.6263558293701
 20
650.0300653565016
 30
0.0
 11
842.4994918293703
 21
649.7453553565012
 31
0.0
  0
LINE
  5
2F2
330
222
100
AcDbEntity
  8
2
  6
Continuous
 62
    90
370
    18
100
AcDbLine
 10
842.7466228293704
 20
650.3166973565014
 30
0.0
 11
842.6263558293701
 21
650.0300653565016
 31
0.0
  0
LINE
  5
2F3
330
222
100
AcDbEntity
  8
2
  6
Continuous
 62
    90
370
    18
100
AcDbLine
 10
842.8602498293701
 20
650.6051473565014
 30
0.0
 11
842.7466228293704
 21
650.3166973565014
 31
0.0
  0
LINE
  5
2F4
330
222
100
AcDbEntity
  8
2
  6
Continuous
 62
    90
370
    18
100
AcDbLine
 10
842.9671968293703
 20
650.8953113565015
 30
0.0
 11
842.8602498293701
 21
650.6051473565014
 31
0.0
  0
LINE
  5
2F5
330
222
100
AcDbEntity
  8
2
  6
Continuous
 62
    90
370
    18
100
AcDbLine
 10
843.0674238293702
 20
651.1870853565017
 30
0.0
 11
842.9671968293703
 21
650.8953113565015
 31
0.0
  0
LINE
  5
2F6
330
222
100
AcDbEntity
  8
2
  6
Continuous
 62
    90
370
    18
100
AcDbLine
 10
843.1608968293701
 20
651.4803663565015
 30
0.0
 11
843.0674238293702
 21
651.1870853565017
 31
0.0
  0
LINE
  5
2F7
330
222
100
AcDbEntity
  8
2
  6
Continuous
 62
    90
370
    18
100
AcDbLine
 10
843.24758082937
 20
651.7750473565013
 30
0.0
 11
843.1608968293701
 21
651.4803663565015
 31
0.0
  0
LINE
  5
2F8
330
222
100
AcDbEntity
  8
2
  6
Continuous
 62
    90
370
    18
100
AcDbLine
 10
843.3274448293703
 20
652.0710223565013
 30
0.0
 11
843.24758082937
 21
651.7750473565013
 31
0.0
  0
LINE
  5
2F9
330
222
100
AcDbEntity
  8
2
  6
Continuous
 62
    90
370
    18
100
AcDbLine
 10
843.4004598293702
 20
652.3681863565018
 30
0.0
 11
843.3274448293703
 21
652.0710223565013
 31
0.0
  0
LINE
  5
2FA
330
222
100
AcDbEntity
  8
2
  6
Continuous
 62
    90
370
    18
100
AcDbLine
 10
843.4666018293699
 20
652.6664313565018
 30
0.0
 11
843.4004598293702
 21
652.3681863565018
 31
0.0
  0
LINE
  5
2FB
330
222
100
AcDbEntity
  8
2
  6
Continuous
 62
    90
370
    18
100
AcDbLine
 10
843.5258438293702
 20
652.9656513565017
 30
0.0
 11
843.4666018293699
 21
652.6664313565018
 31
0.0
  0
LINE
  5
2FC
330
222
100
AcDbEntity
  8
2
  6
Continuous
 62
    90
370
    18
100
AcDbLine
 10
843.5781678293704
 20
653.2657383565013
 30
0.0
 11
843.5258438293702
 21
652.9656513565017
 31
0.0
  0
LINE
  5
2FD
330
222
100
AcDbEntity
  8
2
  6
Continuous
 62
    90
370
    18
100
AcDbLine
 10
843.6235518293704
 20
653.5665853565017
 30
0.0
 11
843.5781678293704
 21
653.2657383565013
 31
0.0
  0
LINE
  5
2FE
330
222
100
AcDbEntity
  8
2
  6
Continuous
 62
    90
370
    18
100
AcDbLine
 10
843.6619828293703
 20
653.8680843565019
 30
0.0
 11
843.6235518293704
 21
653.5665853565017
 31
0.0
  0
LINE
  5
2FF
330
222
100
AcDbEntity
  8
2
  6
Continuous
 62
    90
370
    18
100
AcDbLine
 10
843.6934438293699
 20
654.1701253565018
 30
0.0
 11
843.6619828293703
 21
653.8680843565019
 31
0.0
  0
LINE
  5
300
330
222
100
AcDbEntity
  8
2
  6
Continuous
 62
    90
370
    18
100
AcDbLine
 10
843.7179258293706
 20
654.4726023565015
 30
0.0
 11
843.6934438293699
 21
654.1701253565018
 31
0.0
  0
LINE
  5
301
330
222
100
AcDbEntity
  8
2
  6
Continuous
 62
    90
370
    18
100
AcDbLine
 10
843.73541882937
 20
654.7754043565017
 30
0.0
 11
843.7179258293706
 21
654.4726023565015
 31
0.0
  0
LINE
  5
302
330
222
100
AcDbEntity
  8
2
  6
Continuous
 62
    90
370
    18
100
AcDbLine
 10
843.74591782937
 20
655.0784253565018
 30
0.0
 11
843.73541882937
 21
654.7754043565017
 31
0.0
  0
LINE
  5
303
330
222
100
AcDbEntity
  8
2
  6
Continuous
 62
    90
370
    18
100
AcDbLine
 10
843.7494178293707
 20
655.3815543565017
 30
0.0
 11
843.74591782937
 21
655.0784253565018
 31
0.0
  0
LINE
  5
304
330
222
100
AcDbEntity
  8
2
  6
Continuous
 62
    90
370
    18
100
AcDbLine
 10
820.2494178293707
 20
639.7248183565017
 30
0.0
 11
820.2494178293707
 21
639.9364113565017
 31
0.0
  0
LINE
  5
305
330
222
100
AcDbEntity
  8
2
  6
Continuous
 62
    90
370
    18
100
AcDbLine
 10
828.2494178293707
 20
639.7248183565017
 30
0.0
 11
828.2494178293707
 21
639.9364113565017
 31
0.0
  0
ARC
  5
306
330
222
100
AcDbEntity
  8
1
  6
Continuous
 62
    45
370
     9
100
AcDbCircle
 10
824.2494178293707
 20
705.6881461599552
 30
0.0
 40
38.58502999999999
100
AcDbArc
 50
239.6435959999997
 51
300.3564039999997
  0
ENDBLK
  5
224
330
222
100
AcDbEntity
  8
0
100
AcDbBlockEnd
  0
BLOCK
  5
309
330
308
100
AcDbEntity
  8
0
100
AcDbBlockBegin
  2
Dim2
 70
     0
 71
     0
 10
0.0
 20
0.0
 30
0.0
  3
Dim2
  1

  0
LINE
  5
30B
330
308
100
AcDbEntity
  8
6
  6
Continuous
 62
     7
370
     9
100
AcDbLine
 10
768.2494178293562
 20
965.4507043312998
 30
0.0
 11
896.6787770526342
 21
965.4507043312998
 31
0.0
  0
LINE
  5
30C
330
308
100
AcDbEntity
  8
6
  6
Continuous
 62
     7
370
     9
100
AcDbLine
 10
808.2494178293562
 20
973.4507043312998
 30
0.0
 11
808.2494178293562
 21
905.8507043312949
 31
0.0
  0
LINE
  5
30D
330
308
100
AcDbEntity
  8
6
  6
Continuous
 62
     7
370
     9
100
AcDbLine
 10
840.2494178293663
 20
973.4507043312998
 30
0.0
 11
840.2494178293655
 21
905.8507043312949
 31
0.0
  0
LINE
  5
30E
330
308
100
AcDbEntity
  8
6
  6
Continuous
 62
     7
370
     9
100
AcDbLine
 10
808.2494178293562
 20
965.4507043312998
 30
0.0
 11
792.7946046087311
 21
961.3095996096595
 31
0.0
  0
LINE
  5
30F
330
308
100
AcDbEntity
  8
6
  6
Continuous
 62
     7
370
     9
100
AcDbLine
 10
808.2494178293562
 20
965.4507043312998
 30
0.0
 11
792.7946046087311
 21
969.5918090529402
 31
0.0
  0
LINE
  5
310
330
308
100
AcDbEntity
  8
6
  6
Continuous
 62
     7
370
     9
100
AcDbLine
 10
840.2494178293662
 20
965.4507043312998
 30
0.0
 11
855.7042310499913
 21
969.59180905294
 31
0.0
  0
LINE
  5
311
330
308
100
AcDbEntity
  8
6
  6
Continuous
 62
     7
370
     9
100
AcDbLine
 10
840.2494178293662
 20
965.4507043312998
 30
0.0
 11
855.7042310499912
 21
961.3095996096594
 31
0.0
  0
MTEXT
  5
312
330
308
100
AcDbEntity
  8
6
  6
Continuous
 62
     7
370
     9
100
AcDbMText
 10
872.6787770526341
 20
977.4507043312998
 30
0.0
 40
24.0
 41
0.0
 71
     8
 72
     1
  1
φ32
 73
     1
 44
1.0
  0
ENDBLK
  5
30A
330
308
100
AcDbEntity
  8
0
100
AcDbBlockEnd
  0
BLOCK
  5
315
330
314
100
AcDbEntity
  8
0
100
AcDbBlockBegin
  2
Dim3
 70
     0
 71
     0
 10
0.0
 20
0.0
 30
0.0
  3
Dim3
  1

  0
LINE
  5
317
330
314
100
AcDbEntity
  8
6
  6
Continuous
 62
     7
370
     9
100
AcDbLine
 10
724.7494178293844
 20
571.3271421040572
 30
0.0
 11
724.7494178293844
 21
519.3931834661068
 31
0.0
  0
LINE
  5
318
330
314
100
AcDbEntity
  8
6
  6
Continuous
 62
     7
370
     9
100
AcDbLine
 10
716.7494178293844
 20
519.3931834661068
 30
0.0
 11
788.7494178293716
 21
519.3931834661068
 31
0.0
  0
LINE
  5
319
330
314
100
AcDbEntity
  8
6
  6
Continuous
 62
     7
370
     9
100
AcDbLine
 10
724.7494178293844
 20
539.3931834661068
 30
0.0
 11
720.608313107744
 21
554.8479966867319
 31
0.0
  0
LINE
  5
31A
330
314
100
AcDbEntity
  8
6
  6
Continuous
 62
     7
370
     9
100
AcDbLine
 10
724.7494178293844
 20
539.3931834661068
 30
0.0
 11
728.8905225510247
 21
554.8479966867319
 31
0.0
  0
LINE
  5
31B
330
314
100
AcDbEntity
  8
6
  6
Continuous
 62
     7
370
     9
100
AcDbLine
 10
724.7494178293844
 20
519.3931834661068
 30
0.0
 11
728.8905225510247
 21
503.9383702454817
 31
0.0
  0
LINE
  5
31C
330
314
100
AcDbEntity
  8
6
  6
Continuous
 62
     7
370
     9
100
AcDbLine
 10
724.7494178293844
 20
519.3931834661068
 30
0.0
 11
720.608313107744
 21
503.9383702454817
 31
0.0
  0
MTEXT
  5
31D
330
314
100
AcDbEntity
  8
6
  6
Continuous
 62
     7
370
     9
100
AcDbMText
 10
712.7494178293844
 20
559.3271421040572
 30
0.0
 40
24.0
 41
0.0
 71
     8
 72
     1
  1
20
 11
1.615544574432587E-15
 21
1.0
 31
0.0
 73
     1
 44
1.0
  0
ENDBLK
  5
316
330
314
100
AcDbEntity
  8
0
100
AcDbBlockEnd
  0
BLOCK
  5
320
330
31F
100
AcDbEntity
  8
0
100
AcDbBlockBegin
  2
Dim4
 70
     0
 71
     0
 10
0.0
 20
0.0
 30
0.0
  3
Dim4
  1

  0
LINE
  5
322
330
31F
100
AcDbEntity
  8
6
  6
Continuous
 62
     7
370
     9
100
AcDbLine
 10
724.7494178293844
 20
519.3931834661068
 30
0.0
 11
724.7494178293844
 21
484.3931834661068
 31
0.0
  0
LINE
  5
323
330
31F
100
AcDbEntity
  8
6
  6
Continuous
 62
     7
370
     9
100
AcDbLine
 10
716.7494178293844
 20
484.3931834661068
 30
0.0
 11
826.7494178293716
 21
484.3931834661069
 31
0.0
  0
LINE
  5
324
330
31F
100
AcDbEntity
  8
6
  6
Continuous
 62
     7
370
     9
100
AcDbLine
 10
724.7494178293844
 20
519.3931834661068
 30
0.0
 11
728.8905225510247
 21
503.9383702454817
 31
0.0
  0
LINE
  5
325
330
31F
100
AcDbEntity
  8
6
  6
Continuous
 62
     7
370
     9
100
AcDbLine
 10
724.7494178293844
 20
519.3931834661068
 30
0.0
 11
720.608313107744
 21
503.9383702454817
 31
0.0
  0
LINE
  5
326
330
31F
100
AcDbEntity
  8
6
  6
Continuous
 62
     7
370
     9
100
AcDbLine
 10
724.7494178293844
 20
484.3931834661068
 30
0.0
 11
720.608313107744
 21
499.847996686732
 31
0.0
  0
LINE
  5
327
330
31F
100
AcDbEntity
  8
6
  6
Continuous
 62
     7
370
     9
100
AcDbLine
 10
724.7494178293844
 20
484.3931834661068
 30
0.0
 11
728.8905225510247
 21
499.847996686732
 31
0.0
  0
MTEXT
  5
328
330
31F
100
AcDbEntity
  8
6
  6
Continuous
 62
     7
370
     9
100
AcDbMText
 10
712.7494178293844
 20
501.8931834661067
 30
0.0
 40
24.0
 41
0.0
 71
     8
 72
     1
  1
35
 11
1.615544574432587E-15
 21
1.0
 31
0.0
 73
     1
 44
1.0
  0
ENDBLK
  5
321
330
31F
100
AcDbEntity
  8
0
100
AcDbBlockEnd
  0
BLOCK
  5
32B
330
32A
100
AcDbEntity
  8
0
100
AcDbBlockBegin
  2
Dim5
 70
     0
 71
     0
 10
0.0
 20
0.0
 30
0.0
  3
Dim5
  1

  0
LINE
  5
32D
330
32A
100
AcDbEntity
  8
6
  6
Continuous
 62
     7
370
     9
100
AcDbLine
 10
724.7494178293844
 20
484.3931834661068
 30
0.0
 11
724.7494178293844
 21
337.3931834661067
 31
0.0
  0
LINE
  5
32E
330
32A
100
AcDbEntity
  8
6
  6
Continuous
 62
     7
370
     9
100
AcDbLine
 10
724.7494178293844
 20
484.3931834661068
 30
0.0
 11
728.8905225510247
 21
468.9383702454817
 31
0.0
  0
LINE
  5
32F
330
32A
100
AcDbEntity
  8
6
  6
Continuous
 62
     7
370
     9
100
AcDbLine
 10
724.7494178293844
 20
484.3931834661068
 30
0.0
 11
720.608313107744
 21
468.9383702454817
 31
0.0
  0
LINE
  5
330
330
32A
100
AcDbEntity
  8
6
  6
Continuous
 62
     7
370
     9
100
AcDbLine
 10
724.7494178293844
 20
337.3931834661067
 30
0.0
 11
720.608313107744
 21
352.8479966867318
 31
0.0
  0
LINE
  5
331
330
32A
100
AcDbEntity
  8
6
  6
Continuous
 62
     7
370
     9
100
AcDbLine
 10
724.7494178293844
 20
337.3931834661067
 30
0.0
 11
728.8905225510247
 21
352.8479966867318
 31
0.0
  0
MTEXT
  5
332
330
32A
100
AcDbEntity
  8
6
  6
Continuous
 62
     7
370
     9
100
AcDbMText
 10
712.7494178293844
 20
410.8931834661067
 30
0.0
 40
24.0
 41
0.0
 71
     8
 72
     1
  1
147
 11
6.123233995736766E-17
 21
1.0
 31
0.0
 73
     1
 44
1.0
  0
ENDBLK
  5
32C
330
32A
100
AcDbEntity
  8
0
100
AcDbBlockEnd
  0
BLOCK
  5
335
330
334
100
AcDbEntity
  8
0
100
AcDbBlockBegin
  2
Dim6
 70
     0
 71
     0
 10
0.0
 20
0.0
 30
0.0
  3
Dim6
  1

  0
LINE
  5
337
330
334
100
AcDbEntity
  8
6
  6
Continuous
 62
     7
370
     9
100
AcDbLine
 10
668.7494178293844
 20
539.3931834661072
 30
0.0
 11
668.7494178293844
 21
337.3931834661072
 31
0.0
  0
LINE
  5
338
330
334
100
AcDbEntity
  8
6
  6
Continuous
 62
     7
370
     9
100
AcDbLine
 10
660.7494178293844
 20
539.3931834661072
 30
0.0
 11
788.7494178293716
 21
539.3931834661068
 31
0.0
  0
LINE
  5
339
330
334
100
AcDbEntity
  8
6
  6
Continuous
 62
     7
370
     9
100
AcDbLine
 10
660.7494178293844
 20
337.3931834661072
 30
0.0
 11
826.7494178293716
 21
337.3931834661068
 31
0.0
  0
LINE
  5
33A
330
334
100
AcDbEntity
  8
6
  6
Continuous
 62
     7
370
     9
100
AcDbLine
 10
668.7494178293844
 20
539.3931834661072
 30
0.0
 11
672.8905225510247
 21
523.9383702454821
 31
0.0
  0
LINE
  5
33B
330
334
100
AcDbEntity
  8
6
  6
Continuous
 62
     7
370
     9
100
AcDbLine
 10
668.7494178293844
 20
539.3931834661072
 30
0.0
 11
664.6083131077439
 21
523.9383702454821
 31
0.0
  0
LINE
  5
33C
330
334
100
AcDbEntity
  8
6
  6
Continuous
 62
     7
370
     9
100
AcDbLine
 10
668.7494178293844
 20
337.3931834661072
 30
0.0
 11
664.608313107744
 21
352.8479966867322
 31
0.0
  0
LINE
  5
33D
330
334
100
AcDbEntity
  8
6
  6
Continuous
 62
     7
370
     9
100
AcDbLine
 10
668.7494178293844
 20
337.3931834661072
 30
0.0
 11
672.8905225510247
 21
352.8479966867323
 31
0.0
  0
MTEXT
  5
33E
330
334
100
AcDbEntity
  8
6
  6
Continuous
 62
     7
370
     9
100
AcDbMText
 10
656.7494178293844
 20
438.3931834661072
 30
0.0
 40
24.0
 41
0.0
 71
     8
 72
     1
  1
202
 11
9.494107596574928E-16
 21
1.0
 31
0.0
 73
     1
 44
1.0
  0
ENDBLK
  5
336
330
334
100
AcDbEntity
  8
0
100
AcDbBlockEnd
  0
BLOCK
  5
341
330
340
100
AcDbEntity
  8
0
100
AcDbBlockBegin
  2
Dim7
 70
     0
 71
     0
 10
0.0
 20
0.0
 30
0.0
  3
Dim7
  1

  0
LINE
  5
343
330
340
100
AcDbEntity
  8
6
  6
Continuous
 62
     7
370
     9
100
AcDbLine
 10
668.7494178293844
 20
639.3931834661072
 30
0.0
 11
668.7494178293844
 21
539.3931834661072
 31
0.0
  0
LINE
  5
344
330
340
100
AcDbEntity
  8
6
  6
Continuous
 62
     7
370
     9
100
AcDbLine
 10
660.7494178293844
 20
639.3931834661072
 30
0.0
 11
788.7494178293716
 21
639.3931834661068
 31
0.0
  0
LINE
  5
345
330
340
100
AcDbEntity
  8
6
  6
Continuous
 62
     7
370
     9
100
AcDbLine
 10
660.7494178293844
 20
539.3931834661072
 30
0.0
 11
788.7494178293716
 21
539.3931834661068
 31
0.0
  0
LINE
  5
346
330
340
100
AcDbEntity
  8
6
  6
Continuous
 62
     7
370
     9
100
AcDbLine
 10
668.7494178293844
 20
639.3931834661072
 30
0.0
 11
672.8905225510247
 21
623.9383702454821
 31
0.0
  0
LINE
  5
347
330
340
100
AcDbEntity
  8
6
  6
Continuous
 62
     7
370
     9
100
AcDbLine
 10
668.7494178293844
 20
639.3931834661072
 30
0.0
 11
664.608313107744
 21
623.9383702454821
 31
0.0
  0
LINE
  5
348
330
340
100
AcDbEntity
  8
6
  6
Continuous
 62
     7
370
     9
100
AcDbLine
 10
668.7494178293844
 20
539.3931834661072
 30
0.0
 11
664.608313107744
 21
554.8479966867322
 31
0.0
  0
LINE
  5
349
330
340
100
AcDbEntity
  8
6
  6
Continuous
 62
     7
370
     9
100
AcDbLine
 10
668.7494178293844
 20
539.3931834661072
 30
0.0
 11
672.8905225510247
 21
554.8479966867322
 31
0.0
  0
MTEXT
  5
34A
330
340
100
AcDbEntity
  8
6
  6
Continuous
 62
     7
370
     9
100
AcDbMText
 10
656.7494178293844
 20
589.3931834661072
 30
0.0
 40
24.0
 41
0.0
 71
     8
 72
     1
  1
(100)
 11
1.615544574432587E-15
 21
1.0
 31
0.0
 73
     1
 44
1.0
  0
ENDBLK
  5
342
330
340
100
AcDbEntity
  8
0
100
AcDbBlockEnd
  0
BLOCK
  5
374
330
373
100
AcDbEntity
  8
0
100
AcDbBlockBegin
  2
*G24
 70
     1
 71
     0
 10
0.0
 20
0.0
 30
0.0
  3
*G24
  1

  0
ARC
  5
376
330
373
100
AcDbEntity
  8
2
  6
Continuous
 62
    90
370
    18
100
AcDbCircle
 10
299.8136823654929
 20
537.3931834661068
 30
0.0
 40
2.0
100
AcDbArc
 50
89.99999999999991
 51
179.9999999999967
  0
LINE
  5
377
330
373
100
AcDbEntity
  8
2
  6
Continuous
 62
    90
370
    18
100
AcDbLine
 10
297.8136823654929
 20
521.393183466107
 30
0.0
 11
297.8136823654929
 21
537.393183466107
 31
0.0
  0
ARC
  5
378
330
373
100
AcDbEntity
  8
2
  6
Continuous
 62
    90
370
    18
100
AcDbCircle
 10
299.8136823654929
 20
521.3931834661068
 30
0.0
 40
2.0
100
AcDbArc
 50
179.9999999999967
 51
269.9999999999998
  0
ENDBLK
  5
375
330
373
100
AcDbEntity
  8
0
100
AcDbBlockEnd
  0
BLOCK
  5
37B
330
37A
100
AcDbEntity
  8
0
100
AcDbBlockBegin
  2
Dim8
 70
     0
 71
     0
 10
0.0
 20
0.0
 30
0.0
  3
Dim8
  1

  0
LINE
  5
37D
330
37A
100
AcDbEntity
  8
6
  6
Continuous
 62
     7
370
     9
100
AcDbLine
 10
804.7494178293689
 20
201.3931834661068
 30
0.0
 11
1404.749417829369
 21
201.3931834661068
 31
0.0
  0
LINE
  5
37E
330
37A
100
AcDbEntity
  8
6
  6
Continuous
 62
     7
370
     9
100
AcDbLine
 10
804.7494178293688
 20
193.3931834661068
 30
0.0
 11
804.7494178293715
 21
503.3931834661068
 31
0.0
  0
LINE
  5
37F
330
37A
100
AcDbEntity
  8
6
  6
Continuous
 62
     7
370
     9
100
AcDbLine
 10
1404.749417829369
 20
193.3931834661068
 30
0.0
 11
1404.749417829371
 21
505.3931834661068
 31
0.0
  0
LINE
  5
380
330
37A
100
AcDbEntity
  8
6
  6
Continuous
 62
     7
370
     9
100
AcDbLine
 10
804.7494178293689
 20
201.3931834661068
 30
0.0
 11
820.204231049994
 21
205.5342881877472
 31
0.0
  0
LINE
  5
381
330
37A
100
AcDbEntity
  8
6
  6
Continuous
 62
     7
370
     9
100
AcDbLine
 10
804.7494178293689
 20
201.3931834661068
 30
0.0
 11
820.204231049994
 21
197.2520787444665
 31
0.0
  0
LINE
  5
382
330
37A
100
AcDbEntity
  8
6
  6
Continuous
 62
     7
370
     9
100
AcDbLine
 10
1404.749417829369
 20
201.3931834661068
 30
0.0
 11
1389.294604608744
 21
197.2520787444666
 31
0.0
  0
LINE
  5
383
330
37A
100
AcDbEntity
  8
6
  6
Continuous
 62
     7
370
     9
100
AcDbLine
 10
1404.749417829369
 20
201.3931834661068
 30
0.0
 11
1389.294604608744
 21
205.5342881877472
 31
0.0
  0
MTEXT
  5
384
330
37A
100
AcDbEntity
  8
6
  6
Continuous
 62
     7
370
     9
100
AcDbMText
 10
1104.749417829369
 20
213.3931834661068
 30
0.0
 40
24.0
 41
0.0
 71
     8
 72
     1
  1
600
 73
     1
 44
1.0
  0
ENDBLK
  5
37C
330
37A
100
AcDbEntity
  8
0
100
AcDbBlockEnd
  0
BLOCK
  5
388
330
387
100
AcDbEntity
  8
0
100
AcDbBlockBegin
  2
*G26
 70
     1
 71
     0
 10
0.0
 20
0.0
 30
0.0
  3
*G26
  1

  0
LINE
  5
38A
330
387
100
AcDbEntity
  8
2
  6
Continuous
 62
    90
370
    18
100
AcDbLine
 10
299.8136823654929
 20
539.3931834661068
 30
0.0
 11
420.8136823654929
 21
539.3931834661068
 31
0.0
  0
LINE
  5
38B
330
387
100
AcDbEntity
  8
2
  6
Continuous
 62
    90
370
    18
100
AcDbLine
 10
420.8136823654929
 20
519.3931834661068
 30
0.0
 11
299.8136823654929
 21
519.3931834661068
 31
0.0
  0
ENDBLK
  5
389
330
387
100
AcDbEntity
  8
0
100
AcDbBlockEnd
  0
BLOCK
  5
38E
330
38D
100
AcDbEntity
  8
0
100
AcDbBlockBegin
  2
Dim9
 70
     0
 71
     0
 10
0.0
 20
0.0
 30
0.0
  3
Dim9
  1

  0
LINE
  5
390
330
38D
100
AcDbEntity
  8
6
  6
Continuous
 62
     7
370
     9
100
AcDbLine
 10
804.7494178293712
 20
257.3931834661073
 30
0.0
 11
842.7494178293714
 21
257.3931834661073
 31
0.0
  0
LINE
  5
391
330
38D
100
AcDbEntity
  8
6
  6
Continuous
 62
     7
370
     9
100
AcDbLine
 10
842.7494178293714
 20
249.3931834661073
 30
0.0
 11
842.7494178293716
 21
321.3931834661068
 31
0.0
  0
LINE
  5
392
330
38D
100
AcDbEntity
  8
6
  6
Continuous
 62
     7
370
     9
100
AcDbLine
 10
804.7494178293712
 20
257.3931834661073
 30
0.0
 11
820.2042310499962
 21
261.5342881877476
 31
0.0
  0
LINE
  5
393
330
38D
100
AcDbEntity
  8
6
  6
Continuous
 62
     7
370
     9
100
AcDbLine
 10
804.7494178293712
 20
257.3931834661073
 30
0.0
 11
820.2042310499962
 21
253.252078744467
 31
0.0
  0
LINE
  5
394
330
38D
100
AcDbEntity
  8
6
  6
Continuous
 62
     7
370
     9
100
AcDbLine
 10
842.7494178293714
 20
257.3931834661073
 30
0.0
 11
827.2946046087463
 21
253.252078744467
 31
0.0
  0
LINE
  5
395
330
38D
100
AcDbEntity
  8
6
  6
Continuous
 62
     7
370
     9
100
AcDbLine
 10
842.7494178293714
 20
257.3931834661073
 30
0.0
 11
827.2946046087463
 21
261.5342881877477
 31
0.0
  0
MTEXT
  5
396
330
38D
100
AcDbEntity
  8
6
  6
Continuous
 62
     7
370
     9
100
AcDbMText
 10
823.7494178293709
 20
269.3931834661073
 30
0.0
 40
24.0
 41
0.0
 71
     8
 72
     1
  1
38
 73
     1
 44
1.0
  0
ENDBLK
  5
38F
330
38D
100
AcDbEntity
  8
0
100
AcDbBlockEnd
  0
BLOCK
  5
399
330
398
100
AcDbEntity
  8
0
100
AcDbBlockBegin
  2
Dim10
 70
     0
 71
     0
 10
0.0
 20
0.0
 30
0.0
  3
Dim10
  1

  0
LINE
  5
39B
330
398
100
AcDbEntity
  8
6
  6
Continuous
 62
     7
370
     9
100
AcDbLine
 10
842.7494178293714
 20
257.3931834661073
 30
0.0
 11
1105.752165486771
 21
257.3931834661073
 31
0.0
  0
LINE
  5
39C
330
398
100
AcDbEntity
  8
6
  6
Continuous
 62
     7
370
     9
100
AcDbLine
 10
1105.752165486771
 20
249.3931834661073
 30
0.0
 11
1105.752165486771
 21
321.3931834661068
 31
0.0
  0
LINE
  5
39D
330
398
100
AcDbEntity
  8
6
  6
Continuous
 62
     7
370
     9
100
AcDbLine
 10
842.7494178293714
 20
257.3931834661073
 30
0.0
 11
858.2042310499965
 21
261.5342881877476
 31
0.0
  0
LINE
  5
39E
330
398
100
AcDbEntity
  8
6
  6
Continuous
 62
     7
370
     9
100
AcDbLine
 10
842.7494178293714
 20
257.3931834661073
 30
0.0
 11
858.2042310499965
 21
253.252078744467
 31
0.0
  0
LINE
  5
39F
330
398
100
AcDbEntity
  8
6
  6
Continuous
 62
     7
370
     9
100
AcDbLine
 10
1105.752165486771
 20
257.3931834661073
 30
0.0
 11
1090.297352266146
 21
253.252078744467
 31
0.0
  0
LINE
  5
3A0
330
398
100
AcDbEntity
  8
6
  6
Continuous
 62
     7
370
     9
100
AcDbLine
 10
1105.752165486771
 20
257.3931834661073
 30
0.0
 11
1090.297352266146
 21
261.5342881877477
 31
0.0
  0
MTEXT
  5
3A1
330
398
100
AcDbEntity
  8
6
  6
Continuous
 62
     7
370
     9
100
AcDbMText
 10
974.2507916580716
 20
269.3931834661073
 30
0.0
 40
24.0
 41
0.0
 71
     8
 72
     1
  1
263
 73
     1
 44
1.0
  0
ENDBLK
  5
39A
330
398
100
AcDbEntity
  8
0
100
AcDbBlockEnd
  0
BLOCK
  5
3A4
330
3A3
100
AcDbEntity
  8
0
100
AcDbBlockBegin
  2
Dim11
 70
     0
 71
     0
 10
0.0
 20
0.0
 30
0.0
  3
Dim11
  1

  0
LINE
  5
3A6
330
3A3
100
AcDbEntity
  8
6
  6
Continuous
 62
     7
370
     9
100
AcDbLine
 10
1105.752165486771
 20
257.3931834661073
 30
0.0
 11
1362.74941752322
 21
257.3931834661073
 31
0.0
  0
LINE
  5
3A7
330
3A3
100
AcDbEntity
  8
6
  6
Continuous
 62
     7
370
     9
100
AcDbLine
 10
1362.74941752322
 20
249.3931834661073
 30
0.0
 11
1362.74941752322
 21
440.4041388508792
 31
0.0
  0
LINE
  5
3A8
330
3A3
100
AcDbEntity
  8
6
  6
Continuous
 62
     7
370
     9
100
AcDbLine
 10
1105.752165486771
 20
257.3931834661073
 30
0.0
 11
1121.206978707396
 21
261.5342881877476
 31
0.0
  0
LINE
  5
3A9
330
3A3
100
AcDbEntity
  8
6
  6
Continuous
 62
     7
370
     9
100
AcDbLine
 10
1105.752165486771
 20
257.3931834661073
 30
0.0
 11
1121.206978707396
 21
253.252078744467
 31
0.0
  0
LINE
  5
3AA
330
3A3
100
AcDbEntity
  8
6
  6
Continuous
 62
     7
370
     9
100
AcDbLine
 10
1362.74941752322
 20
257.3931834661073
 30
0.0
 11
1347.294604302595
 21
253.252078744467
 31
0.0
  0
LINE
  5
3AB
330
3A3
100
AcDbEntity
  8
6
  6
Continuous
 62
     7
370
     9
100
AcDbLine
 10
1362.74941752322
 20
257.3931834661073
 30
0.0
 11
1347.294604302595
 21
261.5342881877477
 31
0.0
  0
MTEXT
  5
3AC
330
3A3
100
AcDbEntity
  8
6
  6
Continuous
 62
     7
370
     9
100
AcDbMText
 10
1234.250791504996
 20
269.3931834661073
 30
0.0
 40
24.0
 41
0.0
 71
     8
 72
     1
  1
257
 73
     1
 44
1.0
  0
ENDBLK
  5
3A5
330
3A3
100
AcDbEntity
  8
0
100
AcDbBlockEnd
  0
BLOCK
  5
3AF
330
3AE
100
AcDbEntity
  8
0
100
AcDbBlockBegin
  2
Dim12
 70
     0
 71
     0
 10
0.0
 20
0.0
 30
0.0
  3
Dim12
  1

  0
LINE
  5
3B1
330
3AE
100
AcDbEntity
  8
6
  6
Continuous
 62
     7
370
     9
100
AcDbLine
 10
1362.74941752322
 20
257.3931834661073
 30
0.0
 11
1404.749417829371
 21
257.3931834661073
 31
0.0
  0
LINE
  5
3B2
330
3AE
100
AcDbEntity
  8
6
  6
Continuous
 62
     7
370
     9
100
AcDbLine
 10
1362.74941752322
 20
257.3931834661073
 30
0.0
 11
1378.204230743845
 21
261.5342881877476
 31
0.0
  0
LINE
  5
3B3
330
3AE
100
AcDbEntity
  8
6
  6
Continuous
 62
     7
370
     9
100
AcDbLine
 10
1362.74941752322
 20
257.3931834661073
 30
0.0
 11
1378.204230743845
 21
253.252078744467
 31
0.0
  0
LINE
  5
3B4
330
3AE
100
AcDbEntity
  8
6
  6
Continuous
 62
     7
370
     9
100
AcDbLine
 10
1404.749417829371
 20
257.3931834661073
 30
0.0
 11
1389.294604608746
 21
253.252078744467
 31
0.0
  0
LINE
  5
3B5
330
3AE
100
AcDbEntity
  8
6
  6
Continuous
 62
     7
370
     9
100
AcDbLine
 10
1404.749417829371
 20
257.3931834661073
 30
0.0
 11
1389.294604608746
 21
261.5342881877477
 31
0.0
  0
MTEXT
  5
3B6
330
3AE
100
AcDbEntity
  8
6
  6
Continuous
 62
     7
370
     9
100
AcDbMText
 10
1383.749417676295
 20
269.3931834661073
 30
0.0
 40
24.0
 41
0.0
 71
     8
 72
     1
  1
42
 73
     1
 44
1.0
  0
ENDBLK
  5
3B0
330
3AE
100
AcDbEntity
  8
0
100
AcDbBlockEnd
  0
BLOCK
  5
3BE
330
3BD
100
AcDbEntity
  8
0
100
AcDbBlockBegin
  2
*G31
 70
     1
 71
     0
 10
0.0
 20
0.0
 30
0.0
  3
*G31
  1

  0
ARC
  5
3C0
330
3BD
100
AcDbEntity
  8
2
  6
Continuous
 62
    90
370
    18
100
AcDbCircle
 10
1335.749417829372
 20
516.3931834661068
 30
0.0
 40
3.0
100
AcDbArc
 50
89.99999999999991
 51
179.9999999999998
  0
LINE
  5
3C1
330
3BD
100
AcDbEntity
  8
2
  6
Continuous
 62
    90
370
    18
100
AcDbLine
 10
1362.749417829372
 20
519.3931834661068
 30
0.0
 11
1362.749417829372
 21
461.3931834661073
 31
0.0
  0
ARC
  5
3C2
330
3BD
100
AcDbEntity
  8
2
  6
Continuous
 62
    90
370
    18
100
AcDbCircle
 10
1357.749417829372
 20
461.3931834661068
 30
0.0
 40
5.0
100
AcDbArc
 50
269.9999999999998
 51
0.000000000005211
  0
LINE
  5
3C3
330
3BD
100
AcDbEntity
  8
2
  6
Continuous
 62
    90
370
    18
100
AcDbLine
 10
1332.749417829372
 20
461.3931834661073
 30
0.0
 11
1332.749417829372
 21
516.3931834661068
 31
0.0
  0
ENDBLK
  5
3BF
330
3BD
100
AcDbEntity
  8
0
100
AcDbBlockEnd
  0
BLOCK
  5
3CB
330
3CA
100
AcDbEntity
  8
0
100
AcDbBlockBegin
  2
*G32
 70
     1
 71
     0
 10
0.0
 20
0.0
 30
0.0
  3
*G32
  1

  0
ARC
  5
3CD
330
3CA
100
AcDbEntity
  8
2
  6
Continuous
 62
    90
370
    18
100
AcDbCircle
 10
806.2853168293702
 20
1221.393183466107
 30
0.0
 40
1.0
100
AcDbArc
 50
209.9999999999839
 51
269.9999999999998
  0
LINE
  5
3CE
330
3CA
100
AcDbEntity
  8
2
  6
Continuous
 62
    90
370
    18
100
AcDbLine
 10
842.2135198293697
 20
1220.393183466108
 30
0.0
 11
806.2853168293702
 21
1220.393183466107
 31
0.0
  0
ARC
  5
3CF
330
3CA
100
AcDbEntity
  8
2
  6
Continuous
 62
    90
370
    18
100
AcDbCircle
 10
842.2135198293697
 20
1221.393183466108
 30
0.0
 40
1.0
100
AcDbArc
 50
269.9999999999998
 51
329.9999999999894
  0
ARC
  5
3D0
330
3CA
100
AcDbEntity
  8
2
  6
Continuous
 62
    90
370
    18
100
AcDbCircle
 10
838.7494178293698
 20
1223.393183466107
 30
0.0
 40
5.0
100
AcDbArc
 50
330.0000000000043
 51
0.000000000005211
  0
ARC
  5
3D1
330
3CA
100
AcDbEntity
  8
2
  6
Continuous
 62
    90
370
    18
100
AcDbCircle
 10
809.7494178293698
 20
1223.393183466107
 30
0.0
 40
5.0
100
AcDbArc
 50
179.9999999999998
 51
209.9999999999995
  0
LINE
  5
3D2
330
3CA
100
AcDbEntity
  8
2
  6
Continuous
 62
    90
370
    18
100
AcDbLine
 10
804.7494178293698
 20
1223.393183466107
 30
0.0
 11
804.7494178293698
 21
1255.404812269567
 31
0.0
  0
LINE
  5
3D3
330
3CA
100
AcDbEntity
  8
2
  6
Continuous
 62
    90
370
    18
100
AcDbLine
 10
843.7494178293698
 20
1223.393183466108
 30
0.0
 11
843.7494178293698
 21
1255.404812269546
 31
0.0
  0
LINE
  5
3D4
330
3CA
100
AcDbEntity
  8
2
  6
Continuous
 62
    90
370
    18
100
AcDbLine
 10
804.7529178293696
 20
1255.70794126956
 30
0.0
 11
804.7494178293698
 21
1255.40481226956
 31
0.0
  0
LINE
  5
3D5
330
3CA
100
AcDbEntity
  8
2
  6
Continuous
 62
    90
370
    18
100
AcDbLine
 10
804.7634158293693
 20
1256.010962269561
 30
0.0
 11
804.7529178293696
 21
1255.70794126956
 31
0.0
  0
LINE
  5
3D6
330
3CA
100
AcDbEntity
  8
2
  6
Continuous
 62
    90
370
    18
100
AcDbLine
 10
804.780909829369
 20
1256.313764269561
 30
0.0
 11
804.7634158293693
 21
1256.010962269561
 31
0.0
  0
LINE
  5
3D7
330
3CA
100
AcDbEntity
  8
2
  6
Continuous
 62
    90
370
    18
100
AcDbLine
 10
804.8053918293697
 20
1256.61624126956
 30
0.0
 11
804.780909829369
 21
1256.313764269561
 31
0.0
  0
LINE
  5
3D8
330
3CA
100
AcDbEntity
  8
2
  6
Continuous
 62
    90
370
    18
100
AcDbLine
 10
804.8368528293693
 20
1256.91828226956
 30
0.0
 11
804.8053918293697
 21
1256.61624126956
 31
0.0
  0
LINE
  5
3D9
330
3CA
100
AcDbEntity
  8
2
  6
Continuous
 62
    90
370
    18
100
AcDbLine
 10
804.8752828293698
 20
1257.21978126956
 30
0.0
 11
804.8368528293693
 21
1256.91828226956
 31
0.0
  0
LINE
  5
3DA
330
3CA
100
AcDbEntity
  8
2
  6
Continuous
 62
    90
370
    18
100
AcDbLine
 10
804.9206678293692
 20
1257.520628269561
 30
0.0
 11
804.8752828293698
 21
1257.21978126956
 31
0.0
  0
LINE
  5
3DB
330
3CA
100
AcDbEntity
  8
2
  6
Continuous
 62
    90
370
    18
100
AcDbLine
 10
804.9729908293691
 20
1257.82071526956
 30
0.0
 11
804.9206678293692
 21
1257.520628269561
 31
0.0
  0
LINE
  5
3DC
330
3CA
100
AcDbEntity
  8
2
  6
Continuous
 62
    90
370
    18
100
AcDbLine
 10
805.0322338293697
 20
1258.11993526956
 30
0.0
 11
804.9729908293691
 21
1257.82071526956
 31
0.0
  0
LINE
  5
3DD
330
3CA
100
AcDbEntity
  8
2
  6
Continuous
 62
    90
370
    18
100
AcDbLine
 10
805.098374829369
 20
1258.41818026956
 30
0.0
 11
805.0322338293697
 21
1258.11993526956
 31
0.0
  0
LINE
  5
3DE
330
3CA
100
AcDbEntity
  8
2
  6
Continuous
 62
    90
370
    18
100
AcDbLine
 10
805.1713908293693
 20
1258.715344269561
 30
0.0
 11
805.098374829369
 21
1258.41818026956
 31
0.0
  0
LINE
  5
3DF
330
3CA
100
AcDbEntity
  8
2
  6
Continuous
 62
    90
370
    18
100
AcDbLine
 10
805.2512548293696
 20
1259.011319269561
 30
0.0
 11
805.1713908293693
 21
1258.715344269561
 31
0.0
  0
LINE
  5
3E0
330
3CA
100
AcDbEntity
  8
2
  6
Continuous
 62
    90
370
    18
100
AcDbLine
 10
805.3379388293695
 20
1259.306000269561
 30
0.0
 11
805.2512548293696
 21
1259.011319269561
 31
0.0
  0
LINE
  5
3E1
330
3CA
100
AcDbEntity
  8
2
  6
Continuous
 62
    90
370
    18
100
AcDbLine
 10
805.431410829369
 20
1259.59928126956
 30
0.0
 11
805.3379388293695
 21
1259.306000269561
 31
0.0
  0
LINE
  5
3E2
330
3CA
100
AcDbEntity
  8
2
  6
Continuous
 62
    90
370
    18
100
AcDbLine
 10
805.5316388293693
 20
1259.891055269561
 30
0.0
 11
805.431410829369
 21
1259.59928126956
 31
0.0
  0
LINE
  5
3E3
330
3CA
100
AcDbEntity
  8
2
  6
Continuous
 62
    90
370
    18
100
AcDbLine
 10
805.6385848293692
 20
1260.181219269561
 30
0.0
 11
805.5316388293693
 21
1259.891055269561
 31
0.0
  0
LINE
  5
3E4
330
3CA
100
AcDbEntity
  8
2
  6
Continuous
 62
    90
370
    18
100
AcDbLine
 10
805.7522128293692
 20
1260.469669269561
 30
0.0
 11
805.6385848293692
 21
1260.181219269561
 31
0.0
  0
LINE
  5
3E5
330
3CA
100
AcDbEntity
  8
2
  6
Continuous
 62
    90
370
    18
100
AcDbLine
 10
805.8724798293695
 20
1260.756301269561
 30
0.0
 11
805.7522128293692
 21
1260.469669269561
 31
0.0
  0
LINE
  5
3E6
330
3CA
100
AcDbEntity
  8
2
  6
Continuous
 62
    90
370
    18
100
AcDbLine
 10
805.999342829369
 20
1261.041011269561
 30
0.0
 11
805.8724798293695
 21
1260.756301269561
 31
0.0
  0
LINE
  5
3E7
330
3CA
100
AcDbEntity
  8
2
  6
Continuous
 62
    90
370
    18
100
AcDbLine
 10
806.1327578293692
 20
1261.323699269561
 30
0.0
 11
805.999342829369
 21
1261.041011269561
 31
0.0
  0
LINE
  5
3E8
330
3CA
100
AcDbEntity
  8
2
  6
Continuous
 62
    90
370
    18
100
AcDbLine
 10
806.2726768293694
 20
1261.604261269561
 30
0.0
 11
806.1327578293692
 21
1261.323699269561
 31
0.0
  0
LINE
  5
3E9
330
3CA
100
AcDbEntity
  8
2
  6
Continuous
 62
    90
370
    18
100
AcDbLine
 10
806.4190478293692
 20
1261.882599269561
 30
0.0
 11
806.2726768293694
 21
1261.604261269561
 31
0.0
  0
LINE
  5
3EA
330
3CA
100
AcDbEntity
  8
2
  6
Continuous
 62
    90
370
    18
100
AcDbLine
 10
806.5718198293696
 20
1262.15861126956
 30
0.0
 11
806.4190478293692
 21
1261.882599269561
 31
0.0
  0
LINE
  5
3EB
330
3CA
100
AcDbEntity
  8
2
  6
Continuous
 62
    90
370
    18
100
AcDbLine
 10
806.7309368293697
 20
1262.432198269561
 30
0.0
 11
806.5718198293696
 21
1262.15861126956
 31
0.0
  0
LINE
  5
3EC
330
3CA
100
AcDbEntity
  8
2
  6
Continuous
 62
    90
370
    18
100
AcDbLine
 10
806.8963428293698
 20
1262.703263269561
 30
0.0
 11
806.7309368293697
 21
1262.432198269561
 31
0.0
  0
LINE
  5
3ED
330
3CA
100
AcDbEntity
  8
2
  6
Continuous
 62
    90
370
    18
100
AcDbLine
 10
807.0679778293695
 20
1262.971708269561
 30
0.0
 11
806.8963428293698
 21
1262.703263269561
 31
0.0
  0
LINE
  5
3EE
330
3CA
100
AcDbEntity
  8
2
  6
Continuous
 62
    90
370
    18
100
AcDbLine
 10
807.2457808293691
 20
1263.23743726956
 30
0.0
 11
807.0679778293695
 21
1262.971708269561
 31
0.0
  0
LINE
  5
3EF
330
3CA
100
AcDbEntity
  8
2
  6
Continuous
 62
    90
370
    18
100
AcDbLine
 10
807.4296878293696
 20
1263.50035426956
 30
0.0
 11
807.2457808293691
 21
1263.23743726956
 31
0.0
  0
LINE
  5
3F0
330
3CA
100
AcDbEntity
  8
2
  6
Continuous
 62
    90
370
    18
100
AcDbLine
 10
807.6196318293694
 20
1263.760365269561
 30
0.0
 11
807.4296878293696
 21
1263.50035426956
 31
0.0
  0
LINE
  5
3F1
330
3CA
100
AcDbEntity
  8
2
  6
Continuous
 62
    90
370
    18
100
AcDbLine
 10
807.8155458293693
 20
1264.017377269561
 30
0.0
 11
807.6196318293694
 21
1263.760365269561
 31
0.0
  0
LINE
  5
3F2
330
3CA
100
AcDbEntity
  8
2
  6
Continuous
 62
    90
370
    18
100
AcDbLine
 10
808.017358829369
 20
1264.271297269561
 30
0.0
 11
807.8155458293693
 21
1264.017377269561
 31
0.0
  0
LINE
  5
3F3
330
3CA
100
AcDbEntity
  8
2
  6
Continuous
 62
    90
370
    18
100
AcDbLine
 10
808.2249988293695
 20
1264.522035269561
 30
0.0
 11
808.017358829369
 21
1264.271297269561
 31
0.0
  0
LINE
  5
3F4
330
3CA
100
AcDbEntity
  8
2
  6
Continuous
 62
    90
370
    18
100
AcDbLine
 10
808.4383908293692
 20
1264.769499269561
 30
0.0
 11
808.2249988293695
 21
1264.522035269561
 31
0.0
  0
LINE
  5
3F5
330
3CA
100
AcDbEntity
  8
2
  6
Continuous
 62
    90
370
    18
100
AcDbLine
 10
808.6574578293692
 20
1265.013602269561
 30
0.0
 11
808.4383908293692
 21
1264.769499269561
 31
0.0
  0
LINE
  5
3F6
330
3CA
100
AcDbEntity
  8
2
  6
Continuous
 62
    90
370
    18
100
AcDbLine
 10
808.8821228293698
 20
1265.254256269561
 30
0.0
 11
808.6574578293692
 21
1265.013602269561
 31
0.0
  0
LINE
  5
3F7
330
3CA
100
AcDbEntity
  8
2
  6
Continuous
 62
    90
370
    18
100
AcDbLine
 10
809.1123038293697
 20
1265.491374269561
 30
0.0
 11
808.8821228293698
 21
1265.254256269561
 31
0.0
  0
LINE
  5
3F8
330
3CA
100
AcDbEntity
  8
2
  6
Continuous
 62
    90
370
    18
100
AcDbLine
 10
809.3479188293693
 20
1265.724871269561
 30
0.0
 11
809.1123038293697
 21
1265.491374269561
 31
0.0
  0
LINE
  5
3F9
330
3CA
100
AcDbEntity
  8
2
  6
Continuous
 62
    90
370
    18
100
AcDbLine
 10
809.5888828293698
 20
1265.95466426956
 30
0.0
 11
809.3479188293693
 21
1265.724871269561
 31
0.0
  0
LINE
  5
3FA
330
3CA
100
AcDbEntity
  8
2
  6
Continuous
 62
    90
370
    18
100
AcDbLine
 10
809.8351088293691
 20
1266.18067026956
 30
0.0
 11
809.5888828293698
 21
1265.95466426956
 31
0.0
  0
LINE
  5
3FB
330
3CA
100
AcDbEntity
  8
2
  6
Continuous
 62
    90
370
    18
100
AcDbLine
 10
810.0865098293696
 20
1266.402807269561
 30
0.0
 11
809.8351088293691
 21
1266.18067026956
 31
0.0
  0
LINE
  5
3FC
330
3CA
100
AcDbEntity
  8
2
  6
Continuous
 62
    90
370
    18
100
AcDbLine
 10
810.3429948293694
 20
1266.620997269561
 30
0.0
 11
810.0865098293696
 21
1266.402807269561
 31
0.0
  0
LINE
  5
3FD
330
3CA
100
AcDbEntity
  8
2
  6
Continuous
 62
    90
370
    18
100
AcDbLine
 10
810.6044708293691
 20
1266.83516026956
 30
0.0
 11
810.3429948293694
 21
1266.620997269561
 31
0.0
  0
LINE
  5
3FE
330
3CA
100
AcDbEntity
  8
2
  6
Continuous
 62
    90
370
    18
100
AcDbLine
 10
810.8708458293693
 20
1267.045221269561
 30
0.0
 11
810.6044708293691
 21
1266.83516026956
 31
0.0
  0
LINE
  5
3FF
330
3CA
100
AcDbEntity
  8
2
  6
Continuous
 62
    90
370
    18
100
AcDbLine
 10
811.1420238293692
 20
1267.251102269561
 30
0.0
 11
810.8708458293693
 21
1267.045221269561
 31
0.0
  0
LINE
  5
400
330
3CA
100
AcDbEntity
  8
2
  6
Continuous
 62
    90
370
    18
100
AcDbLine
 10
811.4179058293691
 20
1267.45273226956
 30
0.0
 11
811.1420238293692
 21
1267.251102269561
 31
0.0
  0
LINE
  5
401
330
3CA
100
AcDbEntity
  8
2
  6
Continuous
 62
    90
370
    18
100
AcDbLine
 10
811.6983938293695
 20
1267.650036269561
 30
0.0
 11
811.4179058293691
 21
1267.45273226956
 31
0.0
  0
LINE
  5
402
330
3CA
100
AcDbEntity
  8
2
  6
Continuous
 62
    90
370
    18
100
AcDbLine
 10
811.9833878293691
 20
1267.842945269561
 30
0.0
 11
811.6983938293695
 21
1267.650036269561
 31
0.0
  0
LINE
  5
403
330
3CA
100
AcDbEntity
  8
2
  6
Continuous
 62
    90
370
    18
100
AcDbLine
 10
812.2727848293696
 20
1268.03138926956
 30
0.0
 11
811.9833878293691
 21
1267.842945269561
 31
0.0
  0
LINE
  5
404
330
3CA
100
AcDbEntity
  8
2
  6
Continuous
 62
    90
370
    18
100
AcDbLine
 10
812.5664818293696
 20
1268.215301269561
 30
0.0
 11
812.2727848293696
 21
1268.03138926956
 31
0.0
  0
LINE
  5
405
330
3CA
100
AcDbEntity
  8
2
  6
Continuous
 62
    90
370
    18
100
AcDbLine
 10
812.8643718293695
 20
1268.39461426956
 30
0.0
 11
812.5664818293696
 21
1268.215301269561
 31
0.0
  0
LINE
  5
406
330
3CA
100
AcDbEntity
  8
2
  6
Continuous
 62
    90
370
    18
100
AcDbLine
 10
813.1663478293692
 20
1268.56926426956
 30
0.0
 11
812.8643718293695
 21
1268.39461426956
 31
0.0
  0
LINE
  5
407
330
3CA
100
AcDbEntity
  8
2
  6
Continuous
 62
    90
370
    18
100
AcDbLine
 10
813.4723038293694
 20
1268.739188269561
 30
0.0
 11
813.1663478293692
 21
1268.56926426956
 31
0.0
  0
LINE
  5
408
330
3CA
100
AcDbEntity
  8
2
  6
Continuous
 62
    90
370
    18
100
AcDbLine
 10
813.7821278293693
 20
1268.90432626956
 30
0.0
 11
813.4723038293694
 21
1268.739188269561
 31
0.0
  0
LINE
  5
409
330
3CA
100
AcDbEntity
  8
2
  6
Continuous
 62
    90
370
    18
100
AcDbLine
 10
814.0957088293696
 20
1269.064618269561
 30
0.0
 11
813.7821278293693
 21
1268.90432626956
 31
0.0
  0
LINE
  5
40A
330
3CA
100
AcDbEntity
  8
2
  6
Continuous
 62
    90
370
    18
100
AcDbLine
 10
814.4129348293698
 20
1269.22000726956
 30
0.0
 11
814.0957088293696
 21
1269.064618269561
 31
0.0
  0
LINE
  5
40B
330
3CA
100
AcDbEntity
  8
2
  6
Continuous
 62
    90
370
    18
100
AcDbLine
 10
814.7336918293693
 20
1269.370436269561
 30
0.0
 11
814.4129348293698
 21
1269.22000726956
 31
0.0
  0
LINE
  5
40C
330
3CA
100
AcDbEntity
  8
2
  6
Continuous
 62
    90
370
    18
100
AcDbLine
 10
815.0578648293692
 20
1269.515852269561
 30
0.0
 11
814.7336918293693
 21
1269.370436269561
 31
0.0
  0
LINE
  5
40D
330
3CA
100
AcDbEntity
  8
2
  6
Continuous
 62
    90
370
    18
100
AcDbLine
 10
815.3853378293695
 20
1269.656203269561
 30
0.0
 11
815.0578648293692
 21
1269.515852269561
 31
0.0
  0
LINE
  5
40E
330
3CA
100
AcDbEntity
  8
2
  6
Continuous
 62
    90
370
    18
100
AcDbLine
 10
815.7159918293698
 20
1269.791438269561
 30
0.0
 11
815.3853378293695
 21
1269.656203269561
 31
0.0
  0
LINE
  5
40F
330
3CA
100
AcDbEntity
  8
2
  6
Continuous
 62
    90
370
    18
100
AcDbLine
 10
816.0497098293697
 20
1269.92150926956
 30
0.0
 11
815.7159918293698
 21
1269.791438269561
 31
0.0
  0
LINE
  5
410
330
3CA
100
AcDbEntity
  8
2
  6
Continuous
 62
    90
370
    18
100
AcDbLine
 10
816.3863708293691
 20
1270.046368269561
 30
0.0
 11
816.0497098293697
 21
1269.92150926956
 31
0.0
  0
LINE
  5
411
330
3CA
100
AcDbEntity
  8
2
  6
Continuous
 62
    90
370
    18
100
AcDbLine
 10
816.7258538293697
 20
1270.16597226956
 30
0.0
 11
816.3863708293691
 21
1270.046368269561
 31
0.0
  0
LINE
  5
412
330
3CA
100
AcDbEntity
  8
2
  6
Continuous
 62
    90
370
    18
100
AcDbLine
 10
817.0680388293692
 20
1270.28027726956
 30
0.0
 11
816.7258538293697
 21
1270.16597226956
 31
0.0
  0
LINE
  5
413
330
3CA
100
AcDbEntity
  8
2
  6
Continuous
 62
    90
370
    18
100
AcDbLine
 10
817.412800829369
 20
1270.389242269561
 30
0.0
 11
817.0680388293692
 21
1270.28027726956
 31
0.0
  0
LINE
  5
414
330
3CA
100
AcDbEntity
  8
2
  6
Continuous
 62
    90
370
    18
100
AcDbLine
 10
817.7600168293691
 20
1270.49282926956
 30
0.0
 11
817.412800829369
 21
1270.389242269561
 31
0.0
  0
LINE
  5
415
330
3CA
100
AcDbEntity
  8
2
  6
Continuous
 62
    90
370
    18
100
AcDbLine
 10
818.1095628293695
 20
1270.590999269561
 30
0.0
 11
817.7600168293691
 21
1270.49282926956
 31
0.0
  0
LINE
  5
416
330
3CA
100
AcDbEntity
  8
2
  6
Continuous
 62
    90
370
    18
100
AcDbLine
 10
818.4613128293693
 20
1270.683718269561
 30
0.0
 11
818.1095628293695
 21
1270.590999269561
 31
0.0
  0
LINE
  5
417
330
3CA
100
AcDbEntity
  8
2
  6
Continuous
 62
    90
370
    18
100
AcDbLine
 10
818.8151398293692
 20
1270.77095226956
 30
0.0
 11
818.4613128293693
 21
1270.683718269561
 31
0.0
  0
LINE
  5
418
330
3CA
100
AcDbEntity
  8
2
  6
Continuous
 62
    90
370
    18
100
AcDbLine
 10
819.1709188293696
 20
1270.852670269561
 30
0.0
 11
818.8151398293692
 21
1270.77095226956
 31
0.0
  0
LINE
  5
419
330
3CA
100
AcDbEntity
  8
2
  6
Continuous
 62
    90
370
    18
100
AcDbLine
 10
819.5285198293693
 20
1270.928844269561
 30
0.0
 11
819.1709188293696
 21
1270.852670269561
 31
0.0
  0
LINE
  5
41A
330
3CA
100
AcDbEntity
  8
2
  6
Continuous
 62
    90
370
    18
100
AcDbLine
 10
819.887815829369
 20
1270.999444269561
 30
0.0
 11
819.5285198293693
 21
1270.928844269561
 31
0.0
  0
LINE
  5
41B
330
3CA
100
AcDbEntity
  8
2
  6
Continuous
 62
    90
370
    18
100
AcDbLine
 10
820.2486768293691
 20
1271.064446269561
 30
0.0
 11
819.887815829369
 21
1270.999444269561
 31
0.0
  0
LINE
  5
41C
330
3CA
100
AcDbEntity
  8
2
  6
Continuous
 62
    90
370
    18
100
AcDbLine
 10
820.3582878293698
 20
1270.871438269561
 30
0.0
 11
820.2486768293691
 21
1270.85285426956
 31
0.0
  0
LINE
  5
41D
330
3CA
100
AcDbEntity
  8
2
  6
Continuous
 62
    90
370
    18
100
AcDbLine
 10
820.4680268293694
 20
1270.889505269561
 30
0.0
 11
820.3582878293698
 21
1270.871438269561
 31
0.0
  0
LINE
  5
41E
330
3CA
100
AcDbEntity
  8
2
  6
Continuous
 62
    90
370
    18
100
AcDbLine
 10
820.5778908293694
 20
1270.90705526956
 30
0.0
 11
820.4680268293694
 21
1270.889505269561
 31
0.0
  0
LINE
  5
41F
330
3CA
100
AcDbEntity
  8
2
  6
Continuous
 62
    90
370
    18
100
AcDbLine
 10
820.6878748293691
 20
1270.92408826956
 30
0.0
 11
820.5778908293694
 21
1270.90705526956
 31
0.0
  0
LINE
  5
420
330
3CA
100
AcDbEntity
  8
2
  6
Continuous
 62
    90
370
    18
100
AcDbLine
 10
820.7979768293696
 20
1270.94060226956
 30
0.0
 11
820.6878748293691
 21
1270.92408826956
 31
0.0
  0
LINE
  5
421
330
3CA
100
AcDbEntity
  8
2
  6
Continuous
 62
    90
370
    18
100
AcDbLine
 10
820.9081928293697
 20
1270.956597269561
 30
0.0
 11
820.7979768293696
 21
1270.94060226956
 31
0.0
  0
LINE
  5
422
330
3CA
100
AcDbEntity
  8
2
  6
Continuous
 62
    90
370
    18
100
AcDbLine
 10
821.0185178293693
 20
1270.97207326956
 30
0.0
 11
820.9081928293697
 21
1270.956597269561
 31
0.0
  0
LINE
  5
423
330
3CA
100
AcDbEntity
  8
2
  6
Continuous
 62
    90
370
    18
100
AcDbLine
 10
821.1289498293697
 20
1270.987030269561
 30
0.0
 11
821.0185178293693
 21
1270.97207326956
 31
0.0
  0
LINE
  5
424
330
3CA
100
AcDbEntity
  8
2
  6
Continuous
 62
    90
370
    18
100
AcDbLine
 10
821.2394848293695
 20
1271.00146626956
 30
0.0
 11
821.1289498293697
 21
1270.987030269561
 31
0.0
  0
LINE
  5
425
330
3CA
100
AcDbEntity
  8
2
  6
Continuous
 62
    90
370
    18
100
AcDbLine
 10
821.3501188293692
 20
1271.015381269561
 30
0.0
 11
821.2394848293695
 21
1271.00146626956
 31
0.0
  0
LINE
  5
426
330
3CA
100
AcDbEntity
  8
2
  6
Continuous
 62
    90
370
    18
100
AcDbLine
 10
821.4608488293695
 20
1271.02877526956
 30
0.0
 11
821.3501188293692
 21
1271.015381269561
 31
0.0
  0
LINE
  5
427
330
3CA
100
AcDbEntity
  8
2
  6
Continuous
 62
    90
370
    18
100
AcDbLine
 10
821.5716698293697
 20
1271.041647269561
 30
0.0
 11
821.4608488293695
 21
1271.02877526956
 31
0.0
  0
LINE
  5
428
330
3CA
100
AcDbEntity
  8
2
  6
Continuous
 62
    90
370
    18
100
AcDbLine
 10
821.6825798293692
 20
1271.053997269561
 30
0.0
 11
821.5716698293697
 21
1271.041647269561
 31
0.0
  0
LINE
  5
429
330
3CA
100
AcDbEntity
  8
2
  6
Continuous
 62
    90
370
    18
100
AcDbLine
 10
821.7935738293697
 20
1271.065824269561
 30
0.0
 11
821.6825798293692
 21
1271.053997269561
 31
0.0
  0
LINE
  5
42A
330
3CA
100
AcDbEntity
  8
2
  6
Continuous
 62
    90
370
    18
100
AcDbLine
 10
821.9046488293695
 20
1271.077129269561
 30
0.0
 11
821.7935738293697
 21
1271.065824269561
 31
0.0
  0
LINE
  5
42B
330
3CA
100
AcDbEntity
  8
2
  6
Continuous
 62
    90
370
    18
100
AcDbLine
 10
822.0158018293694
 20
1271.087910269561
 30
0.0
 11
821.9046488293695
 21
1271.077129269561
 31
0.0
  0
LINE
  5
42C
330
3CA
100
AcDbEntity
  8
2
  6
Continuous
 62
    90
370
    18
100
AcDbLine
 10
822.1270278293694
 20
1271.098167269561
 30
0.0
 11
822.0158018293694
 21
1271.087910269561
 31
0.0
  0
LINE
  5
42D
330
3CA
100
AcDbEntity
  8
2
  6
Continuous
 62
    90
370
    18
100
AcDbLine
 10
822.2383238293694
 20
1271.107901269561
 30
0.0
 11
822.1270278293694
 21
1271.098167269561
 31
0.0
  0
LINE
  5
42E
330
3CA
100
AcDbEntity
  8
2
  6
Continuous
 62
    90
370
    18
100
AcDbLine
 10
822.349685829369
 20
1271.117110269561
 30
0.0
 11
822.2383238293694
 21
1271.107901269561
 31
0.0
  0
LINE
  5
42F
330
3CA
100
AcDbEntity
  8
2
  6
Continuous
 62
    90
370
    18
100
AcDbLine
 10
822.4611108293691
 20
1271.125795269561
 30
0.0
 11
822.349685829369
 21
1271.117110269561
 31
0.0
  0
LINE
  5
430
330
3CA
100
AcDbEntity
  8
2
  6
Continuous
 62
    90
370
    18
100
AcDbLine
 10
822.5725938293697
 20
1271.13395426956
 30
0.0
 11
822.4611108293691
 21
1271.125795269561
 31
0.0
  0
LINE
  5
431
330
3CA
100
AcDbEntity
  8
2
  6
Continuous
 62
    90
370
    18
100
AcDbLine
 10
822.6841328293692
 20
1271.14158926956
 30
0.0
 11
822.5725938293697
 21
1271.13395426956
 31
0.0
  0
LINE
  5
432
330
3CA
100
AcDbEntity
  8
2
  6
Continuous
 62
    90
370
    18
100
AcDbLine
 10
822.7957238293691
 20
1271.148698269561
 30
0.0
 11
822.6841328293692
 21
1271.14158926956
 31
0.0
  0
LINE
  5
433
330
3CA
100
AcDbEntity
  8
2
  6
Continuous
 62
    90
370
    18
100
AcDbLine
 10
822.9073618293694
 20
1271.155281269561
 30
0.0
 11
822.7957238293691
 21
1271.148698269561
 31
0.0
  0
LINE
  5
434
330
3CA
100
AcDbEntity
  8
2
  6
Continuous
 62
    90
370
    18
100
AcDbLine
 10
823.0190448293695
 20
1271.161339269561
 30
0.0
 11
822.9073618293694
 21
1271.155281269561
 31
0.0
  0
LINE
  5
435
330
3CA
100
AcDbEntity
  8
2
  6
Continuous
 62
    90
370
    18
100
AcDbLine
 10
823.1307678293695
 20
1271.166870269561
 30
0.0
 11
823.0190448293695
 21
1271.161339269561
 31
0.0
  0
LINE
  5
436
330
3CA
100
AcDbEntity
  8
2
  6
Continuous
 62
    90
370
    18
100
AcDbLine
 10
823.2425278293692
 20
1271.171876269561
 30
0.0
 11
823.1307678293695
 21
1271.166870269561
 31
0.0
  0
LINE
  5
437
330
3CA
100
AcDbEntity
  8
2
  6
Continuous
 62
    90
370
    18
100
AcDbLine
 10
823.3543208293693
 20
1271.176355269561
 30
0.0
 11
823.2425278293692
 21
1271.171876269561
 31
0.0
  0
LINE
  5
438
330
3CA
100
AcDbEntity
  8
2
  6
Continuous
 62
    90
370
    18
100
AcDbLine
 10
823.4661428293691
 20
1271.18030726956
 30
0.0
 11
823.3543208293693
 21
1271.176355269561
 31
0.0
  0
LINE
  5
439
330
3CA
100
AcDbEntity
  8
2
  6
Continuous
 62
    90
370
    18
100
AcDbLine
 10
823.577991829369
 20
1271.183732269561
 30
0.0
 11
823.4661428293691
 21
1271.18030726956
 31
0.0
  0
LINE
  5
43A
330
3CA
100
AcDbEntity
  8
2
  6
Continuous
 62
    90
370
    18
100
AcDbLine
 10
823.6898618293696
 20
1271.186631269561
 30
0.0
 11
823.577991829369
 21
1271.183732269561
 31
0.0
  0
LINE
  5
43B
330
3CA
100
AcDbEntity
  8
2
  6
Continuous
 62
    90
370
    18
100
AcDbLine
 10
823.8017508293694
 20
1271.189003269561
 30
0.0
 11
823.6898618293696
 21
1271.186631269561
 31
0.0
  0
LINE
  5
43C
330
3CA
100
AcDbEntity
  8
2
  6
Continuous
 62
    90
370
    18
100
AcDbLine
 10
823.9136548293698
 20
1271.190848269561
 30
0.0
 11
823.8017508293694
 21
1271.189003269561
 31
0.0
  0
LINE
  5
43D
330
3CA
100
AcDbEntity
  8
2
  6
Continuous
 62
    90
370
    18
100
AcDbLine
 10
824.0255698293693
 20
1271.192165269561
 30
0.0
 11
823.9136548293698
 21
1271.190848269561
 31
0.0
  0
LINE
  5
43E
330
3CA
100
AcDbEntity
  8
2
  6
Continuous
 62
    90
370
    18
100
AcDbLine
 10
824.1374918293693
 20
1271.19295626956
 30
0.0
 11
824.0255698293693
 21
1271.192165269561
 31
0.0
  0
LINE
  5
43F
330
3CA
100
AcDbEntity
  8
2
  6
Continuous
 62
    90
370
    18
100
AcDbLine
 10
824.2494178293698
 20
1271.193220269561
 30
0.0
 11
824.1374918293693
 21
1271.19295626956
 31
0.0
  0
LINE
  5
440
330
3CA
100
AcDbEntity
  8
2
  6
Continuous
 62
    90
370
    18
100
AcDbLine
 10
824.3613438293694
 20
1271.19295626956
 30
0.0
 11
824.2494178293698
 21
1271.193220269561
 31
0.0
  0
LINE
  5
441
330
3CA
100
AcDbEntity
  8
2
  6
Continuous
 62
    90
370
    18
100
AcDbLine
 10
824.4732658293694
 20
1271.192165269561
 30
0.0
 11
824.3613438293694
 21
1271.19295626956
 31
0.0
  0
LINE
  5
442
330
3CA
100
AcDbEntity
  8
2
  6
Continuous
 62
    90
370
    18
100
AcDbLine
 10
824.5851808293689
 20
1271.190848269561
 30
0.0
 11
824.4732658293694
 21
1271.192165269561
 31
0.0
  0
LINE
  5
443
330
3CA
100
AcDbEntity
  8
2
  6
Continuous
 62
    90
370
    18
100
AcDbLine
 10
824.6970848293693
 20
1271.189003269561
 30
0.0
 11
824.5851808293689
 21
1271.190848269561
 31
0.0
  0
LINE
  5
444
330
3CA
100
AcDbEntity
  8
2
  6
Continuous
 62
    90
370
    18
100
AcDbLine
 10
824.808973829369
 20
1271.186631269561
 30
0.0
 11
824.6970848293693
 21
1271.189003269561
 31
0.0
  0
LINE
  5
445
330
3CA
100
AcDbEntity
  8
2
  6
Continuous
 62
    90
370
    18
100
AcDbLine
 10
824.9208438293697
 20
1271.183732269561
 30
0.0
 11
824.808973829369
 21
1271.186631269561
 31
0.0
  0
LINE
  5
446
330
3CA
100
AcDbEntity
  8
2
  6
Continuous
 62
    90
370
    18
100
AcDbLine
 10
825.0326918293692
 20
1271.18030726956
 30
0.0
 11
824.9208438293697
 21
1271.183732269561
 31
0.0
  0
LINE
  5
447
330
3CA
100
AcDbEntity
  8
2
  6
Continuous
 62
    90
370
    18
100
AcDbLine
 10
825.1445148293694
 20
1271.176355269561
 30
0.0
 11
825.0326918293692
 21
1271.18030726956
 31
0.0
  0
LINE
  5
448
330
3CA
100
AcDbEntity
  8
2
  6
Continuous
 62
    90
370
    18
100
AcDbLine
 10
825.2563078293695
 20
1271.171876269561
 30
0.0
 11
825.1445148293694
 21
1271.176355269561
 31
0.0
  0
LINE
  5
449
330
3CA
100
AcDbEntity
  8
2
  6
Continuous
 62
    90
370
    18
100
AcDbLine
 10
825.3680678293692
 20
1271.166870269561
 30
0.0
 11
825.2563078293695
 21
1271.171876269561
 31
0.0
  0
LINE
  5
44A
330
3CA
100
AcDbEntity
  8
2
  6
Continuous
 62
    90
370
    18
100
AcDbLine
 10
825.4797908293692
 20
1271.161339269561
 30
0.0
 11
825.3680678293692
 21
1271.166870269561
 31
0.0
  0
LINE
  5
44B
330
3CA
100
AcDbEntity
  8
2
  6
Continuous
 62
    90
370
    18
100
AcDbLine
 10
825.5914738293693
 20
1271.155281269561
 30
0.0
 11
825.4797908293692
 21
1271.161339269561
 31
0.0
  0
LINE
  5
44C
330
3CA
100
AcDbEntity
  8
2
  6
Continuous
 62
    90
370
    18
100
AcDbLine
 10
825.7031118293696
 20
1271.148698269561
 30
0.0
 11
825.5914738293693
 21
1271.155281269561
 31
0.0
  0
LINE
  5
44D
330
3CA
100
AcDbEntity
  8
2
  6
Continuous
 62
    90
370
    18
100
AcDbLine
 10
825.8147028293695
 20
1271.14158926956
 30
0.0
 11
825.7031118293696
 21
1271.148698269561
 31
0.0
  0
LINE
  5
44E
330
3CA
100
AcDbEntity
  8
2
  6
Continuous
 62
    90
370
    18
100
AcDbLine
 10
825.926241829369
 20
1271.13395426956
 30
0.0
 11
825.8147028293695
 21
1271.14158926956
 31
0.0
  0
LINE
  5
44F
330
3CA
100
AcDbEntity
  8
2
  6
Continuous
 62
    90
370
    18
100
AcDbLine
 10
826.0377248293696
 20
1271.125795269561
 30
0.0
 11
825.926241829369
 21
1271.13395426956
 31
0.0
  0
LINE
  5
450
330
3CA
100
AcDbEntity
  8
2
  6
Continuous
 62
    90
370
    18
100
AcDbLine
 10
826.1491498293697
 20
1271.117110269561
 30
0.0
 11
826.0377248293696
 21
1271.125795269561
 31
0.0
  0
LINE
  5
451
330
3CA
100
AcDbEntity
  8
2
  6
Continuous
 62
    90
370
    18
100
AcDbLine
 10
826.2605118293693
 20
1271.107901269561
 30
0.0
 11
826.1491498293697
 21
1271.117110269561
 31
0.0
  0
LINE
  5
452
330
3CA
100
AcDbEntity
  8
2
  6
Continuous
 62
    90
370
    18
100
AcDbLine
 10
826.3718078293693
 20
1271.098167269561
 30
0.0
 11
826.2605118293693
 21
1271.107901269561
 31
0.0
  0
LINE
  5
453
330
3CA
100
AcDbEntity
  8
2
  6
Continuous
 62
    90
370
    18
100
AcDbLine
 10
826.4830338293693
 20
1271.087910269561
 30
0.0
 11
826.3718078293693
 21
1271.098167269561
 31
0.0
  0
LINE
  5
454
330
3CA
100
AcDbEntity
  8
2
  6
Continuous
 62
    90
370
    18
100
AcDbLine
 10
826.5941858293697
 20
1271.077129269561
 30
0.0
 11
826.4830338293693
 21
1271.087910269561
 31
0.0
  0
LINE
  5
455
330
3CA
100
AcDbEntity
  8
2
  6
Continuous
 62
    90
370
    18
100
AcDbLine
 10
826.705261829369
 20
1271.065824269561
 30
0.0
 11
826.5941858293697
 21
1271.077129269561
 31
0.0
  0
LINE
  5
456
330
3CA
100
AcDbEntity
  8
2
  6
Continuous
 62
    90
370
    18
100
AcDbLine
 10
826.8162558293695
 20
1271.053997269561
 30
0.0
 11
826.705261829369
 21
1271.065824269561
 31
0.0
  0
LINE
  5
457
330
3CA
100
AcDbEntity
  8
2
  6
Continuous
 62
    90
370
    18
100
AcDbLine
 10
826.927165829369
 20
1271.041647269561
 30
0.0
 11
826.8162558293695
 21
1271.053997269561
 31
0.0
  0
LINE
  5
458
330
3CA
100
AcDbEntity
  8
2
  6
Continuous
 62
    90
370
    18
100
AcDbLine
 10
827.0379868293692
 20
1271.02877526956
 30
0.0
 11
826.927165829369
 21
1271.041647269561
 31
0.0
  0
LINE
  5
459
330
3CA
100
AcDbEntity
  8
2
  6
Continuous
 62
    90
370
    18
100
AcDbLine
 10
827.1487168293695
 20
1271.015381269561
 30
0.0
 11
827.0379868293692
 21
1271.02877526956
 31
0.0
  0
LINE
  5
45A
330
3CA
100
AcDbEntity
  8
2
  6
Continuous
 62
    90
370
    18
100
AcDbLine
 10
827.2593508293692
 20
1271.00146626956
 30
0.0
 11
827.1487168293695
 21
1271.015381269561
 31
0.0
  0
LINE
  5
45B
330
3CA
100
AcDbEntity
  8
2
  6
Continuous
 62
    90
370
    18
100
AcDbLine
 10
827.3698848293695
 20
1270.987030269561
 30
0.0
 11
827.2593508293692
 21
1271.00146626956
 31
0.0
  0
LINE
  5
45C
330
3CA
100
AcDbEntity
  8
2
  6
Continuous
 62
    90
370
    18
100
AcDbLine
 10
827.4803178293694
 20
1270.97207326956
 30
0.0
 11
827.3698848293695
 21
1270.987030269561
 31
0.0
  0
LINE
  5
45D
330
3CA
100
AcDbEntity
  8
2
  6
Continuous
 62
    90
370
    18
100
AcDbLine
 10
827.590642829369
 20
1270.956597269561
 30
0.0
 11
827.4803178293694
 21
1270.97207326956
 31
0.0
  0
LINE
  5
45E
330
3CA
100
AcDbEntity
  8
2
  6
Continuous
 62
    90
370
    18
100
AcDbLine
 10
827.700858829369
 20
1270.94060226956
 30
0.0
 11
827.590642829369
 21
1270.956597269561
 31
0.0
  0
LINE
  5
45F
330
3CA
100
AcDbEntity
  8
2
  6
Continuous
 62
    90
370
    18
100
AcDbLine
 10
827.8109608293696
 20
1270.92408826956
 30
0.0
 11
827.700858829369
 21
1270.94060226956
 31
0.0
  0
LINE
  5
460
330
3CA
100
AcDbEntity
  8
2
  6
Continuous
 62
    90
370
    18
100
AcDbLine
 10
827.9209448293693
 20
1270.90705526956
 30
0.0
 11
827.8109608293696
 21
1270.92408826956
 31
0.0
  0
LINE
  5
461
330
3CA
100
AcDbEntity
  8
2
  6
Continuous
 62
    90
370
    18
100
AcDbLine
 10
828.0308088293693
 20
1270.889505269561
 30
0.0
 11
827.9209448293693
 21
1270.90705526956
 31
0.0
  0
LINE
  5
462
330
3CA
100
AcDbEntity
  8
2
  6
Continuous
 62
    90
370
    18
100
AcDbLine
 10
828.1405478293698
 20
1270.871438269561
 30
0.0
 11
828.0308088293693
 21
1270.889505269561
 31
0.0
  0
LINE
  5
463
330
3CA
100
AcDbEntity
  8
2
  6
Continuous
 62
    90
370
    18
100
AcDbLine
 10
828.2501578293693
 20
1270.85285426956
 30
0.0
 11
828.1405478293698
 21
1270.871438269561
 31
0.0
  0
LINE
  5
464
330
3CA
100
AcDbEntity
  8
2
  6
Continuous
 62
    90
370
    18
100
AcDbLine
 10
828.6110198293698
 20
1270.999444269561
 30
0.0
 11
828.2501578293693
 21
1271.064446269561
 31
0.0
  0
LINE
  5
465
330
3CA
100
AcDbEntity
  8
2
  6
Continuous
 62
    90
370
    18
100
AcDbLine
 10
828.9703158293694
 20
1270.928844269561
 30
0.0
 11
828.6110198293698
 21
1270.999444269561
 31
0.0
  0
LINE
  5
466
330
3CA
100
AcDbEntity
  8
2
  6
Continuous
 62
    90
370
    18
100
AcDbLine
 10
829.3279168293691
 20
1270.852670269561
 30
0.0
 11
828.9703158293694
 21
1270.928844269561
 31
0.0
  0
LINE
  5
467
330
3CA
100
AcDbEntity
  8
2
  6
Continuous
 62
    90
370
    18
100
AcDbLine
 10
829.6836948293692
 20
1270.77095226956
 30
0.0
 11
829.3279168293691
 21
1270.852670269561
 31
0.0
  0
LINE
  5
468
330
3CA
100
AcDbEntity
  8
2
  6
Continuous
 62
    90
370
    18
100
AcDbLine
 10
830.0375228293694
 20
1270.683718269561
 30
0.0
 11
829.6836948293692
 21
1270.77095226956
 31
0.0
  0
LINE
  5
469
330
3CA
100
AcDbEntity
  8
2
  6
Continuous
 62
    90
370
    18
100
AcDbLine
 10
830.3892728293692
 20
1270.590999269561
 30
0.0
 11
830.0375228293694
 21
1270.683718269561
 31
0.0
  0
LINE
  5
46A
330
3CA
100
AcDbEntity
  8
2
  6
Continuous
 62
    90
370
    18
100
AcDbLine
 10
830.7388188293696
 20
1270.49282926956
 30
0.0
 11
830.3892728293692
 21
1270.590999269561
 31
0.0
  0
LINE
  5
46B
330
3CA
100
AcDbEntity
  8
2
  6
Continuous
 62
    90
370
    18
100
AcDbLine
 10
831.0860348293697
 20
1270.389242269561
 30
0.0
 11
830.7388188293696
 21
1270.49282926956
 31
0.0
  0
LINE
  5
46C
330
3CA
100
AcDbEntity
  8
2
  6
Continuous
 62
    90
370
    18
100
AcDbLine
 10
831.4307968293695
 20
1270.28027726956
 30
0.0
 11
831.0860348293697
 21
1270.389242269561
 31
0.0
  0
LINE
  5
46D
330
3CA
100
AcDbEntity
  8
2
  6
Continuous
 62
    90
370
    18
100
AcDbLine
 10
831.7729808293695
 20
1270.16597226956
 30
0.0
 11
831.4307968293695
 21
1270.28027726956
 31
0.0
  0
LINE
  5
46E
330
3CA
100
AcDbEntity
  8
2
  6
Continuous
 62
    90
370
    18
100
AcDbLine
 10
832.1124648293696
 20
1270.046368269561
 30
0.0
 11
831.7729808293695
 21
1270.16597226956
 31
0.0
  0
LINE
  5
46F
330
3CA
100
AcDbEntity
  8
2
  6
Continuous
 62
    90
370
    18
100
AcDbLine
 10
832.449125829369
 20
1269.92150926956
 30
0.0
 11
832.1124648293696
 21
1270.046368269561
 31
0.0
  0
LINE
  5
470
330
3CA
100
AcDbEntity
  8
2
  6
Continuous
 62
    90
370
    18
100
AcDbLine
 10
832.7828438293698
 20
1269.791438269561
 30
0.0
 11
832.449125829369
 21
1269.92150926956
 31
0.0
  0
LINE
  5
471
330
3CA
100
AcDbEntity
  8
2
  6
Continuous
 62
    90
370
    18
100
AcDbLine
 10
833.1134978293692
 20
1269.656203269561
 30
0.0
 11
832.7828438293698
 21
1269.791438269561
 31
0.0
  0
LINE
  5
472
330
3CA
100
AcDbEntity
  8
2
  6
Continuous
 62
    90
370
    18
100
AcDbLine
 10
833.4409698293691
 20
1269.515852269561
 30
0.0
 11
833.1134978293692
 21
1269.656203269561
 31
0.0
  0
LINE
  5
473
330
3CA
100
AcDbEntity
  8
2
  6
Continuous
 62
    90
370
    18
100
AcDbLine
 10
833.7651428293691
 20
1269.370436269561
 30
0.0
 11
833.4409698293691
 21
1269.515852269561
 31
0.0
  0
LINE
  5
474
330
3CA
100
AcDbEntity
  8
2
  6
Continuous
 62
    90
370
    18
100
AcDbLine
 10
834.0859008293689
 20
1269.22000726956
 30
0.0
 11
833.7651428293691
 21
1269.370436269561
 31
0.0
  0
LINE
  5
475
330
3CA
100
AcDbEntity
  8
2
  6
Continuous
 62
    90
370
    18
100
AcDbLine
 10
834.4031268293691
 20
1269.064618269561
 30
0.0
 11
834.0859008293689
 21
1269.22000726956
 31
0.0
  0
LINE
  5
476
330
3CA
100
AcDbEntity
  8
2
  6
Continuous
 62
    90
370
    18
100
AcDbLine
 10
834.7167078293694
 20
1268.90432626956
 30
0.0
 11
834.4031268293691
 21
1269.064618269561
 31
0.0
  0
LINE
  5
477
330
3CA
100
AcDbEntity
  8
2
  6
Continuous
 62
    90
370
    18
100
AcDbLine
 10
835.0265318293693
 20
1268.739188269561
 30
0.0
 11
834.7167078293694
 21
1268.90432626956
 31
0.0
  0
LINE
  5
478
330
3CA
100
AcDbEntity
  8
2
  6
Continuous
 62
    90
370
    18
100
AcDbLine
 10
835.3324868293691
 20
1268.56926426956
 30
0.0
 11
835.0265318293693
 21
1268.739188269561
 31
0.0
  0
LINE
  5
479
330
3CA
100
AcDbEntity
  8
2
  6
Continuous
 62
    90
370
    18
100
AcDbLine
 10
835.6344638293692
 20
1268.39461426956
 30
0.0
 11
835.3324868293691
 21
1268.56926426956
 31
0.0
  0
LINE
  5
47A
330
3CA
100
AcDbEntity
  8
2
  6
Continuous
 62
    90
370
    18
100
AcDbLine
 10
835.932353829369
 20
1268.215301269561
 30
0.0
 11
835.6344638293692
 21
1268.39461426956
 31
0.0
  0
LINE
  5
47B
330
3CA
100
AcDbEntity
  8
2
  6
Continuous
 62
    90
370
    18
100
AcDbLine
 10
836.2260508293691
 20
1268.03138926956
 30
0.0
 11
835.932353829369
 21
1268.215301269561
 31
0.0
  0
LINE
  5
47C
330
3CA
100
AcDbEntity
  8
2
  6
Continuous
 62
    90
370
    18
100
AcDbLine
 10
836.5154478293696
 20
1267.842945269561
 30
0.0
 11
836.2260508293691
 21
1268.03138926956
 31
0.0
  0
LINE
  5
47D
330
3CA
100
AcDbEntity
  8
2
  6
Continuous
 62
    90
370
    18
100
AcDbLine
 10
836.8004408293698
 20
1267.650036269561
 30
0.0
 11
836.5154478293696
 21
1267.842945269561
 31
0.0
  0
LINE
  5
47E
330
3CA
100
AcDbEntity
  8
2
  6
Continuous
 62
    90
370
    18
100
AcDbLine
 10
837.0809298293696
 20
1267.45273226956
 30
0.0
 11
836.8004408293698
 21
1267.650036269561
 31
0.0
  0
LINE
  5
47F
330
3CA
100
AcDbEntity
  8
2
  6
Continuous
 62
    90
370
    18
100
AcDbLine
 10
837.3568118293695
 20
1267.251102269561
 30
0.0
 11
837.0809298293696
 21
1267.45273226956
 31
0.0
  0
LINE
  5
480
330
3CA
100
AcDbEntity
  8
2
  6
Continuous
 62
    90
370
    18
100
AcDbLine
 10
837.6279898293694
 20
1267.045221269561
 30
0.0
 11
837.3568118293695
 21
1267.251102269561
 31
0.0
  0
LINE
  5
481
330
3CA
100
AcDbEntity
  8
2
  6
Continuous
 62
    90
370
    18
100
AcDbLine
 10
837.8943638293692
 20
1266.83516026956
 30
0.0
 11
837.6279898293694
 21
1267.045221269561
 31
0.0
  0
LINE
  5
482
330
3CA
100
AcDbEntity
  8
2
  6
Continuous
 62
    90
370
    18
100
AcDbLine
 10
838.1558408293693
 20
1266.620997269561
 30
0.0
 11
837.8943638293692
 21
1266.83516026956
 31
0.0
  0
LINE
  5
483
330
3CA
100
AcDbEntity
  8
2
  6
Continuous
 62
    90
370
    18
100
AcDbLine
 10
838.4123258293691
 20
1266.402807269561
 30
0.0
 11
838.1558408293693
 21
1266.620997269561
 31
0.0
  0
LINE
  5
484
330
3CA
100
AcDbEntity
  8
2
  6
Continuous
 62
    90
370
    18
100
AcDbLine
 10
838.6637268293696
 20
1266.18067026956
 30
0.0
 11
838.4123258293691
 21
1266.402807269561
 31
0.0
  0
LINE
  5
485
330
3CA
100
AcDbEntity
  8
2
  6
Continuous
 62
    90
370
    18
100
AcDbLine
 10
838.9099528293698
 20
1265.95466426956
 30
0.0
 11
838.6637268293696
 21
1266.18067026956
 31
0.0
  0
LINE
  5
486
330
3CA
100
AcDbEntity
  8
2
  6
Continuous
 62
    90
370
    18
100
AcDbLine
 10
839.1509168293694
 20
1265.724871269561
 30
0.0
 11
838.9099528293698
 21
1265.95466426956
 31
0.0
  0
LINE
  5
487
330
3CA
100
AcDbEntity
  8
2
  6
Continuous
 62
    90
370
    18
100
AcDbLine
 10
839.386531829369
 20
1265.491374269561
 30
0.0
 11
839.1509168293694
 21
1265.724871269561
 31
0.0
  0
LINE
  5
488
330
3CA
100
AcDbEntity
  8
2
  6
Continuous
 62
    90
370
    18
100
AcDbLine
 10
839.6167128293698
 20
1265.254256269561
 30
0.0
 11
839.386531829369
 21
1265.491374269561
 31
0.0
  0
LINE
  5
489
330
3CA
100
AcDbEntity
  8
2
  6
Continuous
 62
    90
370
    18
100
AcDbLine
 10
839.8413778293695
 20
1265.013602269561
 30
0.0
 11
839.6167128293698
 21
1265.254256269561
 31
0.0
  0
LINE
  5
48A
330
3CA
100
AcDbEntity
  8
2
  6
Continuous
 62
    90
370
    18
100
AcDbLine
 10
840.0604448293695
 20
1264.769499269561
 30
0.0
 11
839.8413778293695
 21
1265.013602269561
 31
0.0
  0
LINE
  5
48B
330
3CA
100
AcDbEntity
  8
2
  6
Continuous
 62
    90
370
    18
100
AcDbLine
 10
840.2738368293692
 20
1264.522035269561
 30
0.0
 11
840.0604448293695
 21
1264.769499269561
 31
0.0
  0
LINE
  5
48C
330
3CA
100
AcDbEntity
  8
2
  6
Continuous
 62
    90
370
    18
100
AcDbLine
 10
840.4814768293697
 20
1264.271297269561
 30
0.0
 11
840.2738368293692
 21
1264.522035269561
 31
0.0
  0
LINE
  5
48D
330
3CA
100
AcDbEntity
  8
2
  6
Continuous
 62
    90
370
    18
100
AcDbLine
 10
840.6832898293694
 20
1264.017377269561
 30
0.0
 11
840.4814768293697
 21
1264.271297269561
 31
0.0
  0
LINE
  5
48E
330
3CA
100
AcDbEntity
  8
2
  6
Continuous
 62
    90
370
    18
100
AcDbLine
 10
840.8792038293693
 20
1263.760365269561
 30
0.0
 11
840.6832898293694
 21
1264.017377269561
 31
0.0
  0
LINE
  5
48F
330
3CA
100
AcDbEntity
  8
2
  6
Continuous
 62
    90
370
    18
100
AcDbLine
 10
841.0691478293691
 20
1263.500354269561
 30
0.0
 11
840.8792038293693
 21
1263.760365269561
 31
0.0
  0
LINE
  5
490
330
3CA
100
AcDbEntity
  8
2
  6
Continuous
 62
    90
370
    18
100
AcDbLine
 10
841.2530548293696
 20
1263.237437269561
 30
0.0
 11
841.0691478293691
 21
1263.500354269561
 31
0.0
  0
LINE
  5
491
330
3CA
100
AcDbEntity
  8
2
  6
Continuous
 62
    90
370
    18
100
AcDbLine
 10
841.4308568293698
 20
1262.971708269561
 30
0.0
 11
841.2530548293696
 21
1263.237437269561
 31
0.0
  0
LINE
  5
492
330
3CA
100
AcDbEntity
  8
2
  6
Continuous
 62
    90
370
    18
100
AcDbLine
 10
841.6024928293698
 20
1262.703263269561
 30
0.0
 11
841.4308568293698
 21
1262.971708269561
 31
0.0
  0
LINE
  5
493
330
3CA
100
AcDbEntity
  8
2
  6
Continuous
 62
    90
370
    18
100
AcDbLine
 10
841.767898829369
 20
1262.432198269561
 30
0.0
 11
841.6024928293698
 21
1262.703263269561
 31
0.0
  0
LINE
  5
494
330
3CA
100
AcDbEntity
  8
2
  6
Continuous
 62
    90
370
    18
100
AcDbLine
 10
841.9270158293691
 20
1262.158611269561
 30
0.0
 11
841.767898829369
 21
1262.432198269561
 31
0.0
  0
LINE
  5
495
330
3CA
100
AcDbEntity
  8
2
  6
Continuous
 62
    90
370
    18
100
AcDbLine
 10
842.0797878293695
 20
1261.882599269562
 30
0.0
 11
841.9270158293691
 21
1262.158611269561
 31
0.0
  0
LINE
  5
496
330
3CA
100
AcDbEntity
  8
2
  6
Continuous
 62
    90
370
    18
100
AcDbLine
 10
842.2261588293693
 20
1261.604261269561
 30
0.0
 11
842.0797878293695
 21
1261.882599269562
 31
0.0
  0
LINE
  5
497
330
3CA
100
AcDbEntity
  8
2
  6
Continuous
 62
    90
370
    18
100
AcDbLine
 10
842.3660778293695
 20
1261.323699269562
 30
0.0
 11
842.2261588293693
 21
1261.604261269561
 31
0.0
  0
LINE
  5
498
330
3CA
100
AcDbEntity
  8
2
  6
Continuous
 62
    90
370
    18
100
AcDbLine
 10
842.4994918293694
 20
1261.041011269561
 30
0.0
 11
842.3660778293695
 21
1261.323699269562
 31
0.0
  0
LINE
  5
499
330
3CA
100
AcDbEntity
  8
2
  6
Continuous
 62
    90
370
    18
100
AcDbLine
 10
842.6263558293692
 20
1260.756301269561
 30
0.0
 11
842.4994918293694
 21
1261.041011269561
 31
0.0
  0
LINE
  5
49A
330
3CA
100
AcDbEntity
  8
2
  6
Continuous
 62
    90
370
    18
100
AcDbLine
 10
842.7466228293695
 20
1260.469669269561
 30
0.0
 11
842.6263558293692
 21
1260.756301269561
 31
0.0
  0
LINE
  5
49B
330
3CA
100
AcDbEntity
  8
2
  6
Continuous
 62
    90
370
    18
100
AcDbLine
 10
842.8602498293692
 20
1260.181219269561
 30
0.0
 11
842.7466228293695
 21
1260.469669269561
 31
0.0
  0
LINE
  5
49C
330
3CA
100
AcDbEntity
  8
2
  6
Continuous
 62
    90
370
    18
100
AcDbLine
 10
842.9671968293694
 20
1259.891055269561
 30
0.0
 11
842.8602498293692
 21
1260.181219269561
 31
0.0
  0
LINE
  5
49D
330
3CA
100
AcDbEntity
  8
2
  6
Continuous
 62
    90
370
    18
100
AcDbLine
 10
843.0674238293693
 20
1259.599281269561
 30
0.0
 11
842.9671968293694
 21
1259.891055269561
 31
0.0
  0
LINE
  5
49E
330
3CA
100
AcDbEntity
  8
2
  6
Continuous
 62
    90
370
    18
100
AcDbLine
 10
843.1608968293692
 20
1259.306000269562
 30
0.0
 11
843.0674238293693
 21
1259.599281269561
 31
0.0
  0
LINE
  5
49F
330
3CA
100
AcDbEntity
  8
2
  6
Continuous
 62
    90
370
    18
100
AcDbLine
 10
843.2475808293691
 20
1259.011319269561
 30
0.0
 11
843.1608968293692
 21
1259.306000269562
 31
0.0
  0
LINE
  5
4A0
330
3CA
100
AcDbEntity
  8
2
  6
Continuous
 62
    90
370
    18
100
AcDbLine
 10
843.3274448293694
 20
1258.715344269561
 30
0.0
 11
843.2475808293691
 21
1259.011319269561
 31
0.0
  0
LINE
  5
4A1
330
3CA
100
AcDbEntity
  8
2
  6
Continuous
 62
    90
370
    18
100
AcDbLine
 10
843.4004598293693
 20
1258.418180269561
 30
0.0
 11
843.3274448293694
 21
1258.715344269561
 31
0.0
  0
LINE
  5
4A2
330
3CA
100
AcDbEntity
  8
2
  6
Continuous
 62
    90
370
    18
100
AcDbLine
 10
843.466601829369
 20
1258.119935269561
 30
0.0
 11
843.4004598293693
 21
1258.418180269561
 31
0.0
  0
LINE
  5
4A3
330
3CA
100
AcDbEntity
  8
2
  6
Continuous
 62
    90
370
    18
100
AcDbLine
 10
843.5258438293693
 20
1257.820715269561
 30
0.0
 11
843.466601829369
 21
1258.119935269561
 31
0.0
  0
LINE
  5
4A4
330
3CA
100
AcDbEntity
  8
2
  6
Continuous
 62
    90
370
    18
100
AcDbLine
 10
843.5781678293695
 20
1257.520628269561
 30
0.0
 11
843.5258438293693
 21
1257.820715269561
 31
0.0
  0
LINE
  5
4A5
330
3CA
100
AcDbEntity
  8
2
  6
Continuous
 62
    90
370
    18
100
AcDbLine
 10
843.6235518293695
 20
1257.219781269561
 30
0.0
 11
843.5781678293695
 21
1257.520628269561
 31
0.0
  0
LINE
  5
4A6
330
3CA
100
AcDbEntity
  8
2
  6
Continuous
 62
    90
370
    18
100
AcDbLine
 10
843.6619828293694
 20
1256.918282269561
 30
0.0
 11
843.6235518293695
 21
1257.219781269561
 31
0.0
  0
LINE
  5
4A7
330
3CA
100
AcDbEntity
  8
2
  6
Continuous
 62
    90
370
    18
100
AcDbLine
 10
843.693443829369
 20
1256.616241269561
 30
0.0
 11
843.6619828293694
 21
1256.918282269561
 31
0.0
  0
LINE
  5
4A8
330
3CA
100
AcDbEntity
  8
2
  6
Continuous
 62
    90
370
    18
100
AcDbLine
 10
843.7179258293697
 20
1256.313764269561
 30
0.0
 11
843.693443829369
 21
1256.616241269561
 31
0.0
  0
LINE
  5
4A9
330
3CA
100
AcDbEntity
  8
2
  6
Continuous
 62
    90
370
    18
100
AcDbLine
 10
843.7354188293691
 20
1256.010962269561
 30
0.0
 11
843.7179258293697
 21
1256.313764269561
 31
0.0
  0
LINE
  5
4AA
330
3CA
100
AcDbEntity
  8
2
  6
Continuous
 62
    90
370
    18
100
AcDbLine
 10
843.7459178293691
 20
1255.707941269561
 30
0.0
 11
843.7354188293691
 21
1256.010962269561
 31
0.0
  0
LINE
  5
4AB
330
3CA
100
AcDbEntity
  8
2
  6
Continuous
 62
    90
370
    18
100
AcDbLine
 10
843.7494178293698
 20
1255.404812269561
 30
0.0
 11
843.7459178293691
 21
1255.707941269561
 31
0.0
  0
LINE
  5
4AC
330
3CA
100
AcDbEntity
  8
2
  6
Continuous
 62
    90
370
    18
100
AcDbLine
 10
820.2494178293698
 20
1271.06154826956
 30
0.0
 11
820.2494178293698
 21
1270.84995526956
 31
0.0
  0
LINE
  5
4AD
330
3CA
100
AcDbEntity
  8
2
  6
Continuous
 62
    90
370
    18
100
AcDbLine
 10
828.2494178293698
 20
1271.06154826956
 30
0.0
 11
828.2494178293698
 21
1270.84995526956
 31
0.0
  0
ARC
  5
4AE
330
3CA
100
AcDbEntity
  8
1
  6
Continuous
 62
    45
370
     9
100
AcDbCircle
 10
824.2494178293698
 20
1205.098220466107
 30
0.0
 40
38.58502999999999
100
AcDbArc
 50
59.64359600000041
 51
120.3564039999999
  0
ENDBLK
  5
3CC
330
3CA
100
AcDbEntity
  8
0
100
AcDbBlockEnd
  0
BLOCK
  5
4B1
330
4B0
100
AcDbEntity
  8
0
100
AcDbBlockBegin
  2
Dim13
 70
     0
 71
     0
 10
0.0
 20
0.0
 30
0.0
  3
Dim13
  1

  0
LINE
  5
4B3
330
4B0
100
AcDbEntity
  8
6
  6
Continuous
 62
     7
370
     9
100
AcDbLine
 10
668.7494178293844
 20
1271.393183466108
 30
0.0
 11
668.7494178293844
 21
639.3931834661072
 31
0.0
  0
LINE
  5
4B4
330
4B0
100
AcDbEntity
  8
6
  6
Continuous
 62
     7
370
     9
100
AcDbLine
 10
660.7494178293844
 20
1271.393183466108
 30
0.0
 11
788.7494178293716
 21
1271.393183466107
 31
0.0
  0
LINE
  5
4B5
330
4B0
100
AcDbEntity
  8
6
  6
Continuous
 62
     7
370
     9
100
AcDbLine
 10
660.7494178293844
 20
639.3931834661072
 30
0.0
 11
788.7494178293716
 21
639.3931834661068
 31
0.0
  0
LINE
  5
4B6
330
4B0
100
AcDbEntity
  8
6
  6
Continuous
 62
     7
370
     9
100
AcDbLine
 10
668.7494178293844
 20
1271.393183466108
 30
0.0
 11
672.8905225510247
 21
1255.938370245482
 31
0.0
  0
LINE
  5
4B7
330
4B0
100
AcDbEntity
  8
6
  6
Continuous
 62
     7
370
     9
100
AcDbLine
 10
668.7494178293844
 20
1271.393183466108
 30
0.0
 11
664.608313107744
 21
1255.938370245482
 31
0.0
  0
LINE
  5
4B8
330
4B0
100
AcDbEntity
  8
6
  6
Continuous
 62
     7
370
     9
100
AcDbLine
 10
668.7494178293844
 20
639.3931834661072
 30
0.0
 11
664.608313107744
 21
654.8479966867322
 31
0.0
  0
LINE
  5
4B9
330
4B0
100
AcDbEntity
  8
6
  6
Continuous
 62
     7
370
     9
100
AcDbLine
 10
668.7494178293844
 20
639.3931834661072
 30
0.0
 11
672.8905225510247
 21
654.8479966867322
 31
0.0
  0
MTEXT
  5
4BA
330
4B0
100
AcDbEntity
  8
6
  6
Continuous
 62
     7
370
     9
100
AcDbMText
 10
656.7494178293844
 20
955.3931834661074
 30
0.0
 40
24.0
 41
0.0
 71
     8
 72
     1
  1
632
 11
1.615544574432587E-15
 21
1.0
 31
0.0
 73
     1
 44
1.0
  0
ENDBLK
  5
4B2
330
4B0
100
AcDbEntity
  8
0
100
AcDbBlockEnd
  0
BLOCK
  5
4C0
330
4BF
100
AcDbEntity
  8
0
100
AcDbBlockBegin
  2
*G34
 70
     1
 71
     0
 10
0.0
 20
0.0
 30
0.0
  3
*G34
  1

  0
LINE
  5
4C2
330
4BF
100
AcDbEntity
  8
2
  6
Continuous
 62
    90
370
    18
100
AcDbLine
 10
297.813682365492
 20
1239.393183466107
 30
0.0
 11
297.813682365492
 21
1270.393183466106
 31
0.0
  0
ARC
  5
4C3
330
4BF
100
AcDbEntity
  8
2
  6
Continuous
 62
    90
370
    18
100
AcDbCircle
 10
338.3136823654925
 20
1222.393183466107
 30
0.0
 40
5.0
100
AcDbArc
 50
179.9999999999998
 51
209.9999999999995
  0
LINE
  5
4C4
330
4BF
100
AcDbEntity
  8
2
  6
Continuous
 62
    90
370
    18
100
AcDbLine
 10
333.3136823654925
 20
1222.393183466107
 30
0.0
 11
333.3136823654925
 21
1223.225604466107
 31
0.0
  0
ARC
  5
4C5
330
4BF
100
AcDbEntity
  8
2
  6
Continuous
 62
    90
370
    18
100
AcDbCircle
 10
367.3136823654925
 20
1222.393183466107
 30
0.0
 40
5.0
100
AcDbArc
 50
329.9999999999972
 51
0.0
  0
LINE
  5
4C6
330
4BF
100
AcDbEntity
  8
2
  6
Continuous
 62
    90
370
    18
100
AcDbLine
 10
372.3136823654925
 20
1222.393183466107
 30
0.0
 11
372.313682365492
 21
1226.134853466107
 31
0.0
  0
ARC
  5
4C7
330
4BF
100
AcDbEntity
  8
2
  6
Continuous
 62
    90
370
    18
100
AcDbCircle
 10
334.8495803654921
 20
1220.393183466107
 30
0.0
 40
1.0
100
AcDbArc
 50
209.9999999999969
 51
269.9999999999998
  0
LINE
  5
4C8
330
4BF
100
AcDbEntity
  8
2
  6
Continuous
 62
    90
370
    18
100
AcDbLine
 10
334.8495803654921
 20
1219.393183466107
 30
0.0
 11
370.777783365492
 21
1219.393183466107
 31
0.0
  0
ARC
  5
4C9
330
4BF
100
AcDbEntity
  8
2
  6
Continuous
 62
    90
370
    18
100
AcDbCircle
 10
370.777783365492
 20
1220.393183466107
 30
0.0
 40
1.0
100
AcDbArc
 50
269.9999999999998
 51
330.0000000000024
  0
ARC
  5
4CA
330
4BF
100
AcDbEntity
  8
2
  6
Continuous
 62
    90
370
    18
100
AcDbCircle
 10
301.5501633654924
 20
1198.913490466108
 30
0.0
 40
40.0
100
AcDbArc
 50
37.43080400000012
 51
85.00000000000021
  0
LINE
  5
4CB
330
4BF
100
AcDbEntity
  8
2
  6
Continuous
 62
    90
370
    18
100
AcDbLine
 10
297.813682365492
 20
1239.393183466107
 30
0.0
 11
305.0363933654919
 21
1238.761278466108
 31
0.0
  0
ARC
  5
4CC
330
4BF
100
AcDbEntity
  8
2
  6
Continuous
 62
    90
370
    18
100
AcDbCircle
 10
326.8531083654923
 20
1205.315289466107
 30
0.0
 40
50.0
100
AcDbArc
 50
25.00000000000098
 51
47.00000000000011
  0
LINE
  5
4CD
330
4BF
100
AcDbEntity
  8
2
  6
Continuous
 62
    90
370
    18
100
AcDbLine
 10
360.0948353654919
 20
1242.683250466107
 30
0.0
 11
360.9530263654922
 21
1241.882974466107
 31
0.0
  0
ARC
  5
4CE
330
4BF
100
AcDbEntity
  8
2
  6
Continuous
 62
    90
370
    18
100
AcDbCircle
 10
279.785526697088
 20
1146.026028755605
 30
0.0
 40
125.6670345301031
100
AcDbArc
 50
50.2779219805423
 51
81.75190573713566
  0
ARC
  5
4CF
330
4BF
100
AcDbEntity
  8
1
  6
Continuous
 62
    45
370
     9
100
AcDbCircle
 10
288.9307253654922
 20
1135.711961466108
 30
0.0
 40
120.0
100
AcDbArc
 50
59.99999999999989
 51
85.0
  0
LINE
  5
4D0
330
4BF
100
AcDbEntity
  8
1
  6
Continuous
 62
    45
370
     9
100
AcDbLine
 10
352.813682365492
 20
1237.393183466107
 30
0.0
 11
360.0948353654919
 21
1242.683250466107
 31
0.0
  0
LINE
  5
4D1
330
4BF
100
AcDbEntity
  8
1
  6
Continuous
 62
    45
370
     9
100
AcDbLine
 10
297.813682365492
 20
1255.393183466107
 30
0.0
 11
299.3894153654921
 21
1255.255324466107
 31
0.0
  0
LINE
  5
4D2
330
4BF
100
AcDbEntity
  8
1
  6
Continuous
 62
    45
370
     9
100
AcDbLine
 10
352.813682365492
 20
1237.393183466107
 30
0.0
 11
372.313682365492
 21
1226.134853466107
 31
0.0
  0
LINE
  5
4D3
330
4BF
100
AcDbEntity
  8
1
  6
Continuous
 62
    45
370
     9
100
AcDbLine
 10
348.9307253654922
 20
1239.635009466107
 30
0.0
 11
352.813682365492
 21
1237.393183466107
 31
0.0
  0
LINE
  5
4D4
330
4BF
100
AcDbEntity
  8
2
  6
Continuous
 62
    90
370
    18
100
AcDbLine
 10
372.313682365492
 20
1226.134853466107
 30
0.0
 11
372.1684973654922
 21
1226.446202466108
 31
0.0
  0
ENDBLK
  5
4C1
330
4BF
100
AcDbEntity
  8
0
100
AcDbBlockEnd
  0
BLOCK
  5
4D7
330
4D6
100
AcDbEntity
  8
0
100
AcDbBlockBegin
  2
Dim14
 70
     0
 71
     0
 10
0.0
 20
0.0
 30
0.0
  3
Dim14
  1

  0
LINE
  5
4D9
330
4D6
100
AcDbEntity
  8
6
  6
Continuous
 62
     7
370
     9
100
AcDbLine
 10
297.8136823654933
 20
1350.393183159956
 30
0.0
 11
372.813682365492
 21
1350.393183159956
 31
0.0
  0
LINE
  5
4DA
330
4D6
100
AcDbEntity
  8
6
  6
Continuous
 62
     7
370
     9
100
AcDbLine
 10
297.8136823654934
 20
1358.393183159956
 30
0.0
 11
297.813682365493
 21
1286.393183159956
 31
0.0
  0
LINE
  5
4DB
330
4D6
100
AcDbEntity
  8
6
  6
Continuous
 62
     7
370
     9
100
AcDbLine
 10
372.813682365492
 20
1358.393183159956
 30
0.0
 11
372.813682365492
 21
1286.393183159956
 31
0.0
  0
LINE
  5
4DC
330
4D6
100
AcDbEntity
  8
6
  6
Continuous
 62
     7
370
     9
100
AcDbLine
 10
297.8136823654933
 20
1350.393183159956
 30
0.0
 11
313.2684955861184
 21
1354.534287881596
 31
0.0
  0
LINE
  5
4DD
330
4D6
100
AcDbEntity
  8
6
  6
Continuous
 62
     7
370
     9
100
AcDbLine
 10
297.8136823654933
 20
1350.393183159956
 30
0.0
 11
313.2684955861184
 21
1346.252078438315
 31
0.0
  0
LINE
  5
4DE
330
4D6
100
AcDbEntity
  8
6
  6
Continuous
 62
     7
370
     9
100
AcDbLine
 10
372.813682365492
 20
1350.393183159956
 30
0.0
 11
357.3588691448669
 21
1346.252078438316
 31
0.0
  0
LINE
  5
4DF
330
4D6
100
AcDbEntity
  8
6
  6
Continuous
 62
     7
370
     9
100
AcDbLine
 10
372.813682365492
 20
1350.393183159956
 30
0.0
 11
357.358869144867
 21
1354.534287881596
 31
0.0
  0
MTEXT
  5
4E0
330
4D6
100
AcDbEntity
  8
6
  6
Continuous
 62
     7
370
     9
100
AcDbMText
 10
335.3136823654929
 20
1362.393183159956
 30
0.0
 40
24.0
 41
0.0
 71
     8
 72
     1
  1
75
 73
     1
 44
1.0
  0
ENDBLK
  5
4D8
330
4D6
100
AcDbEntity
  8
0
100
AcDbBlockEnd
  0
BLOCK
  5
4E4
330
4E3
100
AcDbEntity
  8
0
100
AcDbBlockBegin
  2
Dim15
 70
     0
 71
     0
 10
0.0
 20
0.0
 30
0.0
  3
Dim15
  1

  0
LINE
  5
4E6
330
4E3
100
AcDbEntity
  8
6
  6
Continuous
 62
     7
370
     9
100
AcDbLine
 10
217.8136823654929
 20
654.8931834661072
 30
0.0
 11
217.8136823654929
 21
1254.893183466107
 31
0.0
  0
LINE
  5
4E7
330
4E3
100
AcDbEntity
  8
6
  6
Continuous
 62
     7
370
     9
100
AcDbLine
 10
209.8136823654929
 20
654.8931834661072
 30
0.0
 11
281.8136823654929
 21
654.893183466107
 31
0.0
  0
LINE
  5
4E8
330
4E3
100
AcDbEntity
  8
6
  6
Continuous
 62
     7
370
     9
100
AcDbLine
 10
209.8136823654929
 20
1254.893183466107
 30
0.0
 11
281.8136823654929
 21
1254.893183466107
 31
0.0
  0
LINE
  5
4E9
330
4E3
100
AcDbEntity
  8
6
  6
Continuous
 62
     7
370
     9
100
AcDbLine
 10
217.8136823654929
 20
654.8931834661072
 30
0.0
 11
213.6725776438526
 21
670.3479966867322
 31
0.0
  0
LINE
  5
4EA
330
4E3
100
AcDbEntity
  8
6
  6
Continuous
 62
     7
370
     9
100
AcDbLine
 10
217.8136823654929
 20
654.8931834661072
 30
0.0
 11
221.9547870871333
 21
670.3479966867322
 31
0.0
  0
LINE
  5
4EB
330
4E3
100
AcDbEntity
  8
6
  6
Continuous
 62
     7
370
     9
100
AcDbLine
 10
217.8136823654929
 20
1254.893183466107
 30
0.0
 11
221.9547870871333
 21
1239.438370245482
 31
0.0
  0
LINE
  5
4EC
330
4E3
100
AcDbEntity
  8
6
  6
Continuous
 62
     7
370
     9
100
AcDbLine
 10
217.8136823654929
 20
1254.893183466107
 30
0.0
 11
213.6725776438526
 21
1239.438370245482
 31
0.0
  0
MTEXT
  5
4ED
330
4E3
100
AcDbEntity
  8
6
  6
Continuous
 62
     7
370
     9
100
AcDbMText
 10
205.8136823654929
 20
954.8931834661071
 30
0.0
 40
24.0
 41
0.0
 71
     8
 72
     1
  1
600
 11
1.615544574432587E-15
 21
1.0
 31
0.0
 73
     1
 44
1.0
  0
ENDBLK
  5
4E5
330
4E3
100
AcDbEntity
  8
0
100
AcDbBlockEnd
  0
BLOCK
  5
4F3
330
4F2
100
AcDbEntity
  8
0
100
AcDbBlockBegin
  2
*G37
 70
     1
 71
     0
 10
0.0
 20
0.0
 30
0.0
  3
*G37
  1

  0
LINE
  5
4F5
330
4F2
100
AcDbEntity
  8
2
  6
Continuous
 62
    90
370
    18
100
AcDbLine
 10
814.7494178293716
 20
539.3931834661068
 30
0.0
 11
1394.749417829372
 21
539.3931834661068
 31
0.0
  0
LINE
  5
4F6
330
4F2
100
AcDbEntity
  8
2
  6
Continuous
 62
    90
370
    18
100
AcDbLine
 10
1394.749417829372
 20
519.3931834661068
 30
0.0
 11
814.7494178293716
 21
519.3931834661068
 31
0.0
  0
ENDBLK
  5
4F4
330
4F2
100
AcDbEntity
  8
0
100
AcDbBlockEnd
  0
ENDSEC
  0
SECTION
  2
ENTITIES
  0
INSERT
  5
9C
330
1F
100
AcDbEntity
  8
0
100
AcDbBlockReference
  2
*G12
 10
0.0
 20
0.0
 30
0.0
  0
LINE
  5
9D
330
1F
100
AcDbEntity
  8
8
  6
Continuous
 62
   171
370
    18
100
AcDbLine
 10
1896.0
 20
287.9999999999999
 30
0.0
 11
1896.0
 21
160.0
 31
0.0
  0
TEXT
  5
9E
330
1F
100
AcDbEntity
  8
8
  6
Continuous
 62
   171
370
     9
100
AcDbText
 10
1500.0
 20
156.0
 30
0.0
 40
28.0
  1
備考
 50
-0.0000000000000891
  7
T_STANDARD
100
AcDbText
  0
TEXT
  5
9F
330
1F
100
AcDbEntity
  8
8
  6
Continuous
 62
   171
370
     9
100
AcDbText
 10
1500.0
 20
220.0
 30
0.0
 40
28.0
  1
品番
 50
-0.0000000000000891
  7
T_STANDARD
100
AcDbText
  0
TEXT
  5
A0
330
1F
100
AcDbEntity
  8
8
  6
Continuous
 62
   171
370
     9
100
AcDbText
 10
1500.0
 20
283.9999999999999
 30
0.0
 40
28.0
  1
品名
 50
-0.0000000000000891
  7
T_STANDARD
100
AcDbText
  0
LINE
  5
A1
330
1F
100
AcDbEntity
  8
8
  6
Continuous
 62
   171
370
    18
100
AcDbLine
 10
1896.0
 20
224.0
 30
0.0
 11
1480.0
 21
224.0
 31
0.0
  0
LINE
  5
A2
330
1F
100
AcDbEntity
  8
8
  6
Continuous
 62
   171
370
    18
100
AcDbLine
 10
1520.0
 20
287.9999999999999
 30
0.0
 11
1520.0
 21
96.0
 31
0.0
  0
LINE
  5
A3
330
1F
100
AcDbEntity
  8
9
  6
Continuous
 62
   170
370
    30
100
AcDbLine
 10
2280.0
 20
287.9999999999999
 30
0.0
 11
1480.0
 21
287.9999999999999
 31
0.0
  0
LINE
  5
A4
330
1F
100
AcDbEntity
  8
9
  6
Continuous
 62
   170
370
    30
100
AcDbLine
 10
1480.0
 20
287.9999999999999
 30
0.0
 11
1480.0
 21
96.0
 31
0.0
  0
LINE
  5
A5
330
1F
100
AcDbEntity
  8
8
  6
Continuous
 62
   171
370
    18
100
AcDbLine
 10
1992.0
 20
287.9999999999999
 30
0.0
 11
1992.0
 21
96.0
 31
0.0
  0
TEXT
  5
A6
330
1F
100
AcDbEntity
  8
8
  6
Continuous
 62
   171
370
     9
100
AcDbText
 10
1908.0
 20
256.0
 30
0.0
 40
24.0
  1
縮　尺
100
AcDbText
  0
LINE
  5
A7
330
1F
100
AcDbEntity
  8
8
  6
Continuous
 62
   171
370
    18
100
AcDbLine
 10
1896.0
 20
248.0
 30
0.0
 11
1992.0
 21
248.0
 31
0.0
  0
LINE
  5
A8
330
1F
100
AcDbEntity
  8
8
  6
Continuous
 62
   171
370
    18
100
AcDbLine
 10
1992.0
 20
160.0
 30
0.0
 11
1480.0
 21
160.0
 31
0.0
  0
LINE
  5
A9
330
1F
100
AcDbEntity
  8
8
  6
Continuous
 62
   171
370
    18
100
AcDbLine
 10
2280.0
 20
144.0
 30
0.0
 11
1992.0
 21
144.0
 31
0.0
  0
LINE
  5
AA
330
1F
100
AcDbEntity
  8
8
  6
Continuous
 62
   171
370
    18
100
AcDbLine
 10
1992.0
 20
192.0
 30
0.0
 11
2280.0
 21
192.0
 31
0.0
  0
LINE
  5
AB
330
1F
100
AcDbEntity
  8
8
  6
Continuous
 62
   171
370
    18
100
AcDbLine
 10
2280.0
 20
224.0
 30
0.0
 11
1992.0
 21
224.0
 31
0.0
  0
TEXT
  5
AC
330
1F
100
AcDbEntity
  8
8
  6
Continuous
 62
   171
370
     9
100
AcDbText
 10
2008.0
 20
236.0
 30
0.0
 40
40.0
  1
株式会社シマブン
 41
0.8
100
AcDbText
  0
TEXT
  5
AD
330
1F
100
AcDbEntity
  8
8
  6
Continuous
 62
   171
370
     9
100
AcDbText
 10
2004.0
 20
95.99999999999994
 30
0.0
 40
24.0
  1
年月日
100
AcDbText
  0
TEXT
  5
AE
330
1F
100
AcDbEntity
  8
8
  6
Continuous
 62
   171
370
     9
100
AcDbText
 10
2004.0
 20
120.0
 30
0.0
 40
24.0
  1
作　成
100
AcDbText
  0
TEXT
  5
AF
330
1F
100
AcDbEntity
  8
8
  6
Continuous
 62
   171
370
     9
100
AcDbText
 10
2010.0
 20
196.0
 30
0.0
 40
24.0
  1
承 認
100
AcDbText
  0
LINE
  5
B0
330
1F
100
AcDbEntity
  8
8
  6
Continuous
 62
   171
370
    18
100
AcDbLine
 10
2088.0
 20
224.0
 30
0.0
 11
2088.0
 21
96.0
 31
0.0
  0
TEXT
  5
B1
330
1F
100
AcDbEntity
  8
8
  6
Continuous
 62
   171
370
     9
100
AcDbText
 10
2106.0
 20
196.0
 30
0.0
 40
24.0
  1
検 図
100
AcDbText
  0
LINE
  5
B2
330
1F
100
AcDbEntity
  8
8
  6
Continuous
 62
   171
370
    18
100
AcDbLine
 10
2184.0
 20
224.0
 30
0.0
 11
2184.0
 21
144.0
 31
0.0
  0
TEXT
  5
B3
330
1F
100
AcDbEntity
  8
8
  6
Continuous
 62
   171
370
     9
100
AcDbText
 10
2200.0
 20
152.0
 30
0.0
 40
32.0
  1
藤戸
100
AcDbText
  0
TEXT
  5
B4
330
1F
100
AcDbEntity
  8
8
  6
Continuous
 62
   171
370
     9
100
AcDbText
 10
2202.0
 20
196.0
 30
0.0
 40
24.0
  1
設 計
100
AcDbText
  0
LINE
  5
B5
330
1F
100
AcDbEntity
  8
8
  6
Continuous
 62
   171
370
    18
100
AcDbLine
 10
2040.0
 20
1508.0
 30
0.0
 11
2040.0
 21
1535.999999999999
 31
0.0
  0
LINE
  5
B6
330
1F
100
AcDbEntity
  8
8
  6
Continuous
 62
   171
370
    18
100
AcDbLine
 10
1880.0
 20
1508.0
 30
0.0
 11
1880.0
 21
1535.999999999999
 31
0.0
  0
LINE
  5
B7
330
1F
100
AcDbEntity
  8
8
  6
Continuous
 62
   171
370
    18
100
AcDbLine
 10
1480.0
 20
1508.0
 30
0.0
 11
1480.0
 21
1535.999999999999
 31
0.0
  0
LINE
  5
B8
330
1F
100
AcDbEntity
  8
8
  6
Continuous
 62
   171
370
    18
100
AcDbLine
 10
1424.0
 20
1508.0
 30
0.0
 11
1424.0
 21
1535.999999999999
 31
0.0
  0
LINE
  5
B9
330
1F
100
AcDbEntity
  8
8
  6
Continuous
 62
   171
370
    18
100
AcDbLine
 10
2280.0
 20
1508.0
 30
0.0
 11
1424.0
 21
1508.0
 31
0.0
  0
TEXT
  5
BA
330
1F
100
AcDbEntity
  8
8
  6
Continuous
 62
   171
370
     9
100
AcDbText
 10
1432.0
 20
1512.0
 30
0.0
 40
20.0
  1
記号
100
AcDbText
  0
TEXT
  5
BB
330
1F
100
AcDbEntity
  8
8
  6
Continuous
 62
   171
370
     9
100
AcDbText
 10
1595.0
 20
1512.0
 30
0.0
 40
20.0
  1
訂　 正　 記　 事
100
AcDbText
  0
TEXT
  5
BC
330
1F
100
AcDbEntity
  8
8
  6
Continuous
 62
   171
370
     9
100
AcDbText
 10
1890.0
 20
1512.0
 30
0.0
 40
20.0
  1
訂 正 年 月 日
100
AcDbText
  0
TEXT
  5
BD
330
1F
100
AcDbEntity
  8
8
  6
Continuous
 62
   171
370
     9
100
AcDbText
 10
2090.0
 20
1512.0
 30
0.0
 40
20.0
  1
備　　　　　考
100
AcDbText
  0
TEXT
  5
BE
330
1F
100
AcDbEntity
  8
8
  6
Continuous
 62
   171
370
     9
100
AcDbText
 10
1544.8
 20
239.9999999999999
 30
0.0
 40
32.0
  1
ペーパーホルダー「おくだけ」
 41
0.6000000000000001
100
AcDbText
  0
TEXT
  5
BF
330
1F
100
AcDbEntity
  8
8
  6
Continuous
 62
   171
370
     9
100
AcDbText
 10
1536.8
 20
111.9999999999997
 30
0.0
 40
32.00000000000001
  1
色については品番表参照のこと
 41
0.5999999999999998
100
AcDbText
  0
TEXT
  5
C0
330
1F
100
AcDbEntity
  8
8
  6
Continuous
 62
   171
370
     9
100
AcDbText
 10
1910.4
 20
188.0
 30
0.0
 40
32.0
  1
１：８
 41
0.7000000000000002
100
AcDbText
  0
LINE
  5
C1
330
1F
100
AcDbEntity
  8
2
  6
Continuous
 62
    90
370
    18
100
AcDbLine
 10
297.8136823654929
 20
519.3931834661068
 30
0.0
 11
387.8136823654929
 21
519.3931834661068
 31
0.0
  0
LINE
  5
C2
330
1F
100
AcDbEntity
  8
2
  6
Continuous
 62
    90
370
    18
100
AcDbLine
 10
387.8136823654929
 20
519.3931834661068
 30
0.0
 11
387.8136823654929
 21
516.3931834661068
 31
0.0
  0
LINE
  5
C3
330
1F
100
AcDbEntity
  8
2
  6
Continuous
 62
    90
370
    18
100
AcDbLine
 10
297.8136823654929
 20
519.3931834661068
 30
0.0
 11
297.8136823654929
 21
394.3931834661068
 31
0.0
  0
LINE
  5
C4
330
1F
100
AcDbEntity
  8
2
  6
Continuous
 62
    90
370
    18
100
AcDbLine
 10
297.8136823654929
 20
394.3931834661068
 30
0.0
 11
300.8136823654929
 21
394.3931834661068
 31
0.0
  0
LINE
  5
C5
330
1F
100
AcDbEntity
  8
2
  6
Continuous
 62
    90
370
    18
100
AcDbLine
 10
300.8136823654929
 20
491.3931834661068
 30
0.0
 11
358.671546741766
 21
491.3931834661068
 31
0.0
  0
LINE
  5
C6
330
1F
100
AcDbEntity
  8
2
  6
Continuous
 62
    90
370
    18
100
AcDbLine
 10
387.8136823654929
 20
516.3931834661068
 30
0.0
 11
365.7426145536317
 21
494.3221156542419
 31
0.0
  0
ARC
  5
C7
330
1F
100
AcDbEntity
  8
2
  6
Continuous
 62
    90
370
    18
100
AcDbCircle
 10
358.671546741766
 20
501.3931834661068
 30
0.0
 40
10.0
100
AcDbArc
 50
269.9999999999998
 51
315.0000000000028
  0
LINE
  5
C8
330
1F
100
AcDbEntity
  8
2
  6
Continuous
 62
    90
370
    18
100
AcDbLine
 10
300.8136823654929
 20
394.3931834661068
 30
0.0
 11
300.8136823654929
 21
491.3931834661068
 31
0.0
  0
LINE
  5
C9
330
1F
100
AcDbEntity
  8
2
  6
Continuous
 62
    90
370
    18
100
AcDbLine
 10
300.8136823654929
 20
394.2364511235069
 30
0.0
 11
300.8136823654929
 21
484.3931834661068
 31
0.0
  0
LINE
  5
CA
330
1F
100
AcDbEntity
  8
2
  6
Continuous
 62
    90
370
    18
100
AcDbLine
 10
352.1672202164934
 20
342.882913272507
 30
0.0
 11
300.8136823654929
 21
394.2364511235069
 31
0.0
  0
ARC
  5
CB
330
1F
100
AcDbEntity
  8
2
  6
Continuous
 62
    90
370
    18
100
AcDbCircle
 10
330.1840384112936
 20
457.4822931983069
 30
0.0
 40
14.861
100
AcDbArc
 50
89.00000000000118
 51
96.29635500000086
  0
LINE
  5
CC
330
1F
100
AcDbEntity
  8
2
  6
HIDDEN
 62
    90
370
    18
100
AcDbLine
 10
326.2698144822932
 20
482.3227221963068
 30
0.0
 11
318.2470679658934
 21
482.4627603715069
 31
0.0
  0
LINE
  5
CD
330
1F
100
AcDbEntity
  8
2
  6
Continuous
 62
    90
370
    18
100
AcDbLine
 10
354.3832925364929
 20
471.9231578673068
 30
0.0
 11
330.4433985276935
 21
472.3410283819069
 31
0.0
  0
ARC
  5
CE
330
1F
100
AcDbEntity
  8
2
  6
Continuous
 62
    90
370
    18
100
AcDbCircle
 10
371.7960451244933
 20
453.7833011323071
 30
0.0
 40
17.8332
100
AcDbArc
 50
67.89025200000017
 51
88.99999999999942
  0
ARC
  5
CF
330
1F
100
AcDbEntity
  8
2
  6
Continuous
 62
    90
370
    18
100
AcDbCircle
 10
347.5280975128933
 20
394.0477104791069
 30
0.0
 40
82.3101243426
100
AcDbArc
 50
24.69329099999998
 51
67.89025200000017
  0
ARC
  5
D0
330
1F
100
AcDbEntity
  8
2
  6
HIDDEN
 62
    90
370
    18
100
AcDbCircle
 10
330.1840384112936
 20
457.4822931983069
 30
0.0
 40
14.861
100
AcDbArc
 50
96.29635500000086
 51
112.8093760000001
  0
ARC
  5
D1
330
1F
100
AcDbEntity
  8
2
  6
HIDDEN
 62
    90
370
    18
100
AcDbCircle
 10
321.1582962550935
 20
478.943847959107
 30
0.0
 40
8.4212323426
100
AcDbArc
 50
268.9999999999987
 51
292.8093760000012
  0
ARC
  5
D2
330
1F
100
AcDbEntity
  8
2
  6
HIDDEN
 62
    90
370
    18
100
AcDbCircle
 10
319.1425502150939
 20
476.9972650131069
 30
0.0
 40
6.4397676574
100
AcDbArc
 50
178.9999999999999
 51
268.9999999999955
  0
ARC
  5
D3
330
1F
100
AcDbEntity
  8
2
  6
HIDDEN
 62
    90
370
    18
100
AcDbCircle
 10
318.151969454693
 20
477.014557272707
 30
0.0
 40
5.4490323426
100
AcDbArc
 50
88.99999999999412
 51
179.0000000000012
  0
CIRCLE
  5
D4
330
1F
100
AcDbEntity
  8
2
  6
Continuous
 62
    90
370
    18
100
AcDbCircle
 10
321.1237147080935
 20
476.9626834661069
 30
0.0
 40
2.37776
  0
LINE
  5
D5
330
1F
100
AcDbEntity
  8
2
  6
Continuous
 62
    90
370
    18
100
AcDbLine
 10
371.7808869044936
 20
481.528324469107
 30
0.0
 11
326.2698144822932
 21
482.3227221963068
 31
0.0
  0
ARC
  5
D6
330
1F
100
AcDbEntity
  8
2
  6
Continuous
 62
    90
370
    18
100
AcDbCircle
 10
371.296748218693
 20
453.7920156227069
 30
0.0
 40
27.7405323426
100
AcDbArc
 50
64.24666799999994
 51
88.99999999999885
  0
ARC
  5
D7
330
1F
100
AcDbEntity
  8
2
  6
Continuous
 62
    90
370
    18
100
AcDbCircle
 10
348.9122421362933
 20
407.3910249097069
 30
0.0
 40
79.25866765739998
100
AcDbArc
 50
16.00000000000014
 51
64.24666800000027
  0
LINE
  5
D8
330
1F
100
AcDbEntity
  8
2
  6
Continuous
 62
    90
370
    18
100
AcDbLine
 10
430.4487087632931
 20
410.5864698239068
 30
0.0
 11
425.100561805293
 21
429.2376727635069
 31
0.0
  0
LINE
  5
D9
330
1F
100
AcDbEntity
  8
2
  6
Continuous
 62
    90
370
    18
100
AcDbLine
 10
430.3819828732937
 20
406.763831265707
 30
0.0
 11
429.4789928468933
 21
406.779592842307
 31
0.0
  0
LINE
  5
DA
330
1F
100
AcDbEntity
  8
2
  6
Continuous
 62
    90
370
    18
100
AcDbLine
 10
354.3832925364929
 20
471.9231578673068
 30
0.0
 11
372.1072760752938
 21
471.6137845415069
 31
0.0
  0
LINE
  5
DB
330
1F
100
AcDbEntity
  8
2
  6
Continuous
 62
    90
370
    18
100
AcDbLine
 10
430.4487087632931
 20
410.5864698239068
 30
0.0
 11
430.3819828732937
 21
406.763831265707
 31
0.0
  0
LINE
  5
DC
330
1F
100
AcDbEntity
  8
2
  6
Continuous
 62
    90
370
    18
100
AcDbLine
 10
321.1237147080935
 20
484.3931834661068
 30
0.0
 11
300.8136823654929
 21
484.3931834661068
 31
0.0
  0
LINE
  5
DD
330
1F
100
AcDbEntity
  8
2
  6
Continuous
 62
    90
370
    18
100
AcDbLine
 10
429.6090147080938
 20
366.1851693265071
 30
0.0
 11
429.6090147080938
 21
368.5879493061068
 31
0.0
  0
ARC
  5
DE
330
1F
100
AcDbEntity
  8
2
  6
Continuous
 62
    90
370
    18
100
AcDbCircle
 10
426.6368147080937
 20
366.1851693265071
 30
0.0
 40
2.9722
100
AcDbArc
 50
293.4999999999939
 51
0.0
  0
ARC
  5
DF
330
1F
100
AcDbEntity
  8
2
  6
Continuous
 62
    90
370
    18
100
AcDbCircle
 10
426.6368147080937
 20
368.5879493061068
 30
0.0
 40
2.9722
100
AcDbArc
 50
0.0
 51
82.00000000000793
  0
ARC
  5
E0
330
1F
100
AcDbEntity
  8
2
  6
Continuous
 62
    90
370
    18
100
AcDbCircle
 10
397.2190372112934
 20
357.7153028753069
 30
0.0
 40
17.8332
100
AcDbArc
 50
81.99999999999905
 51
113.5000000000005
  0
LINE
  5
E1
330
1F
100
AcDbEntity
  8
2
  6
Continuous
 62
    90
370
    18
100
AcDbLine
 10
427.0504646986935
 20
371.5312238557069
 30
0.0
 11
399.7009401270932
 21
375.3749501729069
 31
0.0
  0
ARC
  5
E2
330
1F
100
AcDbEntity
  8
2
  6
Continuous
 62
    90
370
    18
100
AcDbCircle
 10
373.2958231888931
 20
386.2053021977069
 30
0.0
 40
17.8332
100
AcDbArc
 50
225.0000000000007
 51
293.4999999999998
  0
LINE
  5
E3
330
1F
100
AcDbEntity
  8
2
  6
Continuous
 62
    90
370
    18
100
AcDbLine
 10
390.1080665444931
 20
374.0694172673068
 30
0.0
 11
380.406796827893
 21
369.851184833507
 31
0.0
  0
ARC
  5
E4
330
1F
100
AcDbEntity
  8
2
  6
Continuous
 62
    90
370
    18
100
AcDbCircle
 10
346.387414708093
 20
413.1137106785068
 30
0.0
 40
17.8332
100
AcDbArc
 50
179.9999999999993
 51
225.0000000000002
  0
LINE
  5
E5
330
1F
100
AcDbEntity
  8
2
  6
Continuous
 62
    90
370
    18
100
AcDbLine
 10
360.6858485808932
 20
373.595324617507
 30
0.0
 11
333.7774401000931
 21
400.5037330983071
 31
0.0
  0
ARC
  5
E6
330
1F
100
AcDbEntity
  8
2
  6
Continuous
 62
    90
370
    18
100
AcDbCircle
 10
364.7771977966929
 20
355.4928878805069
 30
0.0
 40
17.8332
100
AcDbArc
 50
225.0000000000002
 51
293.5000000000001
  0
LINE
  5
E7
330
1F
100
AcDbEntity
  8
2
  6
Continuous
 62
    90
370
    18
100
AcDbLine
 10
427.8219764858929
 20
363.459483594507
 30
0.0
 11
371.8881714356937
 21
339.1387734885068
 31
0.0
  0
ARC
  5
E8
330
1F
100
AcDbEntity
  8
2
  6
Continuous
 62
    90
370
    18
100
AcDbCircle
 10
321.1237147080935
 20
476.9626834661069
 30
0.0
 40
7.4305
100
AcDbArc
 50
0.0
 51
89.99999999999991
  0
LINE
  5
E9
330
1F
100
AcDbEntity
  8
2
  6
Continuous
 62
    90
370
    18
100
AcDbLine
 10
328.5542147080939
 20
413.1137106785068
 30
0.0
 11
328.5542147080939
 21
476.9626834661069
 31
0.0
  0
CIRCLE
  5
EA
330
1F
100
AcDbEntity
  8
7
  6
HIDDEN
 62
   132
370
     9
100
AcDbCircle
 10
366.6530899378938
 20
416.2930373521069
 30
0.0
 40
56.96716765739993
  0
LINE
  5
EB
330
1F
100
AcDbEntity
  8
7
  6
Continuous
 62
   132
370
     9
100
AcDbLine
 10
300.8136823654929
 20
461.6638669889069
 30
0.0
 11
300.811265966893
 21
461.6680191523069
 31
0.0
  0
LINE
  5
EC
330
1F
100
AcDbEntity
  8
7
  6
Continuous
 62
   132
370
     9
100
AcDbLine
 10
300.8083353776935
 20
416.6638699611069
 30
0.0
 11
300.8059219512932
 21
416.6680221245069
 31
0.0
  0
LINE
  5
ED
330
1F
100
AcDbEntity
  8
1
  6
Continuous
 62
    45
370
     9
100
AcDbLine
 10
305.7673500228937
 20
396.288327226707
 30
0.0
 11
305.7673500228937
 21
468.5414511235069
 31
0.0
  0
LINE
  5
EE
330
1F
100
AcDbEntity
  8
1
  6
Continuous
 62
    45
370
     9
100
AcDbLine
 10
323.6005500228928
 20
413.1137106785068
 30
0.0
 11
323.6005500228928
 21
468.5414511235069
 31
0.0
  0
LINE
  5
EF
330
1F
100
AcDbEntity
  8
1
  6
Continuous
 62
    45
370
     9
100
AcDbLine
 10
318.6468823654939
 20
473.4951187809072
 30
0.0
 11
310.721014708093
 21
473.4951187809072
 31
0.0
  0
ARC
  5
F0
330
1F
100
AcDbEntity
  8
1
  6
Continuous
 62
    45
370
     9
100
AcDbCircle
 10
310.721014708093
 20
468.5414511235069
 30
0.0
 40
4.9536676574
100
AcDbArc
 50
89.99999999999991
 51
179.9999999999998
  0
ARC
  5
F1
330
1F
100
AcDbEntity
  8
1
  6
Continuous
 62
    45
370
     9
100
AcDbCircle
 10
318.6468823654939
 20
468.5414511235069
 30
0.0
 40
4.9536676574
100
AcDbArc
 50
0.0
 51
89.99999999999991
  0
CIRCLE
  5
F2
330
1F
100
AcDbEntity
  8
1
  6
HIDDEN
 62
    45
370
     9
100
AcDbCircle
 10
321.1237147080935
 20
476.9626834661069
 30
0.0
 40
2.4768323426
  0
LINE
  5
F3
330
1F
100
AcDbEntity
  8
1
  6
Continuous
 62
    45
370
     9
100
AcDbLine
 10
355.6699935828935
 20
346.3856836667071
 30
0.0
 11
305.7673500228937
 21
396.288327226707
 31
0.0
  0
LINE
  5
F4
330
1F
100
AcDbEntity
  8
1
  6
Continuous
 62
    45
370
     9
100
AcDbLine
 10
357.1830752144931
 20
370.0925542233069
 30
0.0
 11
330.2746667336939
 21
397.000962704107
 31
0.0
  0
ARC
  5
F5
330
1F
100
AcDbEntity
  8
1
  6
Continuous
 62
    45
370
     9
100
AcDbCircle
 10
346.387414708093
 20
413.1137106785068
 30
0.0
 40
22.7868676574
100
AcDbArc
 50
179.9999999999994
 51
225.0000000000004
  0
LINE
  5
F6
330
1F
100
AcDbEntity
  8
1
  6
Continuous
 62
    45
370
     9
100
AcDbLine
 10
423.579853508493
 20
367.0166393043071
 30
0.0
 11
369.9129008152938
 21
343.6815820511069
 31
0.0
  0
ARC
  5
F7
330
1F
100
AcDbEntity
  8
1
  6
Continuous
 62
    45
370
     9
100
AcDbCircle
 10
364.7771977966929
 20
355.4928878805069
 30
0.0
 40
12.8795323426
100
AcDbArc
 50
224.9999999999996
 51
293.5000000000003
  0
LINE
  5
F8
330
1F
100
AcDbEntity
  8
1
  6
Continuous
 62
    45
370
     9
100
AcDbLine
 10
392.0833341926934
 20
369.5266087047069
 30
0.0
 11
382.3820644760933
 21
365.308376270907
 31
0.0
  0
ARC
  5
F9
330
1F
100
AcDbEntity
  8
1
  6
Continuous
 62
    45
370
     9
100
AcDbCircle
 10
373.2958231888931
 20
386.2053021977069
 30
0.0
 40
22.7868676574
100
AcDbArc
 50
225.0000000000004
 51
293.4999999999999
  0
LINE
  5
FA
330
1F
100
AcDbEntity
  8
1
  6
Continuous
 62
    45
370
     9
100
AcDbLine
 10
423.579853508493
 20
367.0166393043071
 30
0.0
 11
399.0115205038935
 21
370.4694915995071
 31
0.0
  0
ARC
  5
FB
330
1F
100
AcDbEntity
  8
1
  6
Continuous
 62
    45
370
     9
100
AcDbCircle
 10
397.2190372112934
 20
357.7153028753069
 30
0.0
 40
12.8795323426
100
AcDbArc
 50
81.99999999999937
 51
113.5000000000006
  0
CIRCLE
  5
FC
330
1F
100
AcDbEntity
  8
1
  6
HIDDEN
 62
    45
370
     9
100
AcDbCircle
 10
321.1237147080935
 20
476.9626834661069
 30
0.0
 40
3.9629323426
  0
CIRCLE
  5
FD
330
1F
100
AcDbEntity
  8
1
  6
HIDDEN
 62
    45
370
     9
100
AcDbCircle
 10
321.1237147080935
 20
476.9626834661069
 30
0.0
 40
3.9629323426
  0
ARC
  5
FE
330
1F
100
AcDbEntity
  8
1
  6
HIDDEN
 62
    45
370
     9
100
AcDbCircle
 10
318.151969454693
 20
477.014557272707
 30
0.0
 40
3.4675676574
100
AcDbArc
 50
88.99999999998522
 51
179.0000000000002
  0
LINE
  5
FF
330
1F
100
AcDbEntity
  8
1
  6
HIDDEN
 62
    45
370
     9
100
AcDbLine
 10
314.6849308488934
 20
477.0750742369071
 30
0.0
 11
314.6330570422931
 21
474.103326011307
 31
0.0
  0
LINE
  5
100
330
1F
100
AcDbEntity
  8
1
  6
HIDDEN
 62
    45
370
     9
100
AcDbLine
 10
314.1291205322939
 20
473.6166817609071
 30
0.0
 11
313.6563891500934
 21
473.624932588107
 31
0.0
  0
ARC
  5
101
330
1F
100
AcDbEntity
  8
1
  6
HIDDEN
 62
    45
370
     9
100
AcDbCircle
 10
314.1377666620936
 20
474.1119721411071
 30
0.0
 40
0.4953676574
100
AcDbArc
 50
268.9999999999523
 51
359.0000000000036
  0
LINE
  5
102
330
1F
100
AcDbEntity
  8
1
  6
HIDDEN
 62
    45
370
     9
100
AcDbLine
 10
327.7550139056937
 20
480.3150308183069
 30
0.0
 11
323.1024865800935
 21
480.3962402389068
 31
0.0
  0
LINE
  5
103
330
1F
100
AcDbEntity
  8
1
  6
HIDDEN
 62
    45
370
     9
100
AcDbLine
 10
319.2659797366939
 20
480.4632068771068
 30
0.0
 11
318.2124864188934
 21
480.4815958785071
 31
0.0
  0
ARC
  5
104
330
1F
100
AcDbEntity
  8
1
  6
HIDDEN
 62
    45
370
     9
100
AcDbCircle
 10
371.296748218693
 20
453.7920156227069
 30
0.0
 40
25.7590676574
100
AcDbArc
 50
64.24666799999873
 51
88.99999999999801
  0
ARC
  5
105
330
1F
100
AcDbEntity
  8
1
  6
HIDDEN
 62
    45
370
     9
100
AcDbCircle
 10
348.9122421362933
 20
407.3910249097069
 30
0.0
 40
77.2772
100
AcDbArc
 50
16.00000000000005
 51
64.24666800000011
  0
LINE
  5
106
330
1F
100
AcDbEntity
  8
1
  6
HIDDEN
 62
    45
370
     9
100
AcDbLine
 10
371.7463053574936
 20
479.547159976107
 30
0.0
 11
327.7550139056937
 21
480.3150308183069
 31
0.0
  0
INSERT
  5
11D
330
1F
100
AcDbEntity
  8
0
100
AcDbBlockReference
  2
*G13
 10
0.0
 20
0.0
 30
0.0
  0
LINE
  5
11E
330
1F
100
AcDbEntity
  8
2
  6
HIDDEN
 62
    90
370
    18
100
AcDbLine
 10
321.0113254855476
 20
470.5238982109818
 30
0.0
 11
319.0301607725748
 21
470.558478163513
 31
0.0
  0
ARC
  5
11F
330
1F
100
AcDbEntity
  8
2
  6
Continuous
 62
    90
370
    18
100
AcDbCircle
 10
347.5280975128933
 20
394.0477104791069
 30
0.0
 40
82.3101243426
100
AcDbArc
 50
17.39754849623698
 51
24.69329099999998
  0
LINE
  5
120
330
1F
100
AcDbEntity
  8
1
  6
HIDDEN
 62
    45
370
     9
100
AcDbLine
 10
426.0727906921218
 20
418.6584346187001
 30
0.0
 11
423.1958541850934
 21
428.6915072359068
 31
0.0
  0
LINE
  5
121
330
1F
100
AcDbEntity
  8
2
  6
Continuous
 62
    90
370
    18
100
AcDbLine
 10
429.4789928468933
 20
406.779592842307
 30
0.0
 11
426.0727906921218
 21
418.6584346187001
 31
0.0
  0
DIMENSION
  5
12D
330
1F
100
AcDbEntity
  8
6
  6
Continuous
 62
     7
370
     9
100
AcDbDimension
  2
Dim1
 10
297.8136823654929
 20
257.3931834661068
 30
0.0
 11
364.3136823654929
 21
269.3931834661068
 31
0.0
 70
   160
  1
<>
 71
     5
 42
-1.0
  3
Standard
100
AcDbAlignedDimension
 13
297.8136823654929
 23
337.3931834661068
 33
0.0
 14
430.8136823654929
 24
524.3931834661068
 34
0.0
100
AcDbRotatedDimension
1001
ACAD
1000
DSTYLE
1002
{
1070
   344
1005
3C
1070
   343
1005
3C
1070
   173
1070
     1
1070
   289
1070
     2
1070
   279
1070
     2
1070
   288
1070
     1
1070
    77
1070
     3
1070
   172
1070
     1
1070
   174
1070
     0
1070
    74
1070
     0
1070
    73
1070
     0
1070
   284
1070
     8
1070
    78
1070
     8
1070
   140
1040
3.0
1070
    40
1040
8.0
1070
    42
1040
2.0
1070
    44
1040
1.0
1070
    43
1040
10.0
1070
   271
1070
     2
1070
    41
1040
2.0
1002
}
  0
LINE
  5
12E
330
1F
100
AcDbEntity
  8
2
  6
Continuous
 62
    90
370
    18
100
AcDbLine
 10
1084.144913144172
 20
359.8711940897072
 30
0.0
 11
1084.144913144172
 21
364.6026244087068
 31
0.0
  0
LINE
  5
12F
330
1F
100
AcDbEntity
  8
2
  6
Continuous
 62
    90
370
    18
100
AcDbLine
 10
1082.163445486771
 20
359.8711940897072
 30
0.0
 11
1082.163445486771
 21
364.6026244087068
 31
0.0
  0
LINE
  5
130
330
1F
100
AcDbEntity
  8
2
  6
Continuous
 62
    90
370
    18
100
AcDbLine
 10
1082.163445486771
 20
359.8711940897072
 30
0.0
 11
1084.144913144172
 21
359.8711940897072
 31
0.0
  0
LINE
  5
131
330
1F
100
AcDbEntity
  8
2
  6
Continuous
 62
    90
370
    18
100
AcDbLine
 10
1056.404377829371
 20
359.8711940897072
 30
0.0
 11
1056.404377829371
 21
364.6026244087068
 31
0.0
  0
LINE
  5
132
330
1F
100
AcDbEntity
  8
2
  6
Continuous
 62
    90
370
    18
100
AcDbLine
 10
1054.422913144171
 20
359.8711940897072
 30
0.0
 11
1054.422913144171
 21
364.6026244087068
 31
0.0
  0
LINE
  5
133
330
1F
100
AcDbEntity
  8
2
  6
Continuous
 62
    90
370
    18
100
AcDbLine
 10
1054.422913144171
 20
359.8711940897072
 30
0.0
 11
1056.404377829371
 21
359.8711940897072
 31
0.0
  0
LINE
  5
134
330
1F
100
AcDbEntity
  8
2
  6
Continuous
 62
    90
370
    18
100
AcDbLine
 10
1027.078673144172
 20
359.8711940897072
 30
0.0
 11
1027.078673144172
 21
364.6026244087068
 31
0.0
  0
LINE
  5
135
330
1F
100
AcDbEntity
  8
2
  6
Continuous
 62
    90
370
    18
100
AcDbLine
 10
1025.097205486771
 20
359.8711940897072
 30
0.0
 11
1025.097205486771
 21
364.6026244087068
 31
0.0
  0
LINE
  5
136
330
1F
100
AcDbEntity
  8
2
  6
Continuous
 62
    90
370
    18
100
AcDbLine
 10
1025.097205486771
 20
359.8711940897072
 30
0.0
 11
1027.078673144172
 21
359.8711940897072
 31
0.0
  0
LINE
  5
137
330
1F
100
AcDbEntity
  8
2
  6
Continuous
 62
    90
370
    18
100
AcDbLine
 10
999.3381378293714
 20
359.8711940897072
 30
0.0
 11
999.3381378293714
 21
364.6026244087068
 31
0.0
  0
LINE
  5
138
330
1F
100
AcDbEntity
  8
2
  6
Continuous
 62
    90
370
    18
100
AcDbLine
 10
997.3566731441722
 20
359.8711940897072
 30
0.0
 11
997.3566731441722
 21
364.6026244087068
 31
0.0
  0
LINE
  5
139
330
1F
100
AcDbEntity
  8
2
  6
Continuous
 62
    90
370
    18
100
AcDbLine
 10
997.3566731441722
 20
359.8711940897072
 30
0.0
 11
999.3381378293714
 21
359.8711940897072
 31
0.0
  0
ARC
  5
13A
330
1F
100
AcDbEntity
  8
2
  6
Continuous
 62
    90
370
    18
100
AcDbCircle
 10
1054.323338499772
 20
351.629194323707
 30
0.0
 40
6.9351323426
100
AcDbArc
 50
225.000000000001
 51
269.9999999999998
  0
LINE
  5
13B
330
1F
100
AcDbEntity
  8
2
  6
Continuous
 62
    90
370
    18
100
AcDbLine
 10
1054.323338499772
 20
344.6940590089068
 30
0.0
 11
1055.413645486772
 21
344.6940590089068
 31
0.0
  0
LINE
  5
13C
330
1F
100
AcDbEntity
  8
2
  6
Continuous
 62
    90
370
    18
100
AcDbLine
 10
1048.478513144172
 20
347.666259008907
 30
0.0
 11
1049.419458164572
 21
346.725313988507
 31
0.0
  0
ARC
  5
13D
330
1F
100
AcDbEntity
  8
2
  6
Continuous
 62
    90
370
    18
100
AcDbCircle
 10
1056.503952473772
 20
351.629194323707
 30
0.0
 40
6.9351323426
100
AcDbArc
 50
269.9999999999998
 51
314.9999999999983
  0
LINE
  5
13E
330
1F
100
AcDbEntity
  8
2
  6
Continuous
 62
    90
370
    18
100
AcDbLine
 10
1056.503952473772
 20
344.6940590089068
 30
0.0
 11
1055.413645486772
 21
344.6940590089068
 31
0.0
  0
LINE
  5
13F
330
1F
100
AcDbEntity
  8
2
  6
Continuous
 62
    90
370
    18
100
AcDbLine
 10
1062.348777829372
 20
347.666259008907
 30
0.0
 11
1061.407832808972
 21
346.725313988507
 31
0.0
  0
ARC
  5
140
330
1F
100
AcDbEntity
  8
2
  6
Continuous
 62
    90
370
    18
100
AcDbCircle
 10
1082.063870842372
 20
351.629194323707
 30
0.0
 40
6.9351323426
100
AcDbArc
 50
224.9999999999957
 51
269.9999999999998
  0
LINE
  5
141
330
1F
100
AcDbEntity
  8
2
  6
Continuous
 62
    90
370
    18
100
AcDbLine
 10
1082.063870842372
 20
344.6940590089068
 30
0.0
 11
1083.154177829372
 21
344.6940590089068
 31
0.0
  0
LINE
  5
142
330
1F
100
AcDbEntity
  8
2
  6
Continuous
 62
    90
370
    18
100
AcDbLine
 10
1076.219045486772
 20
347.666259008907
 30
0.0
 11
1077.159990507171
 21
346.725313988507
 31
0.0
  0
ARC
  5
143
330
1F
100
AcDbEntity
  8
2
  6
Continuous
 62
    90
370
    18
100
AcDbCircle
 10
1084.244484816372
 20
351.629194323707
 30
0.0
 40
6.9351323426
100
AcDbArc
 50
269.9999999999998
 51
314.9999999999983
  0
LINE
  5
144
330
1F
100
AcDbEntity
  8
2
  6
Continuous
 62
    90
370
    18
100
AcDbLine
 10
1076.219045486772
 20
347.666259008907
 30
0.0
 11
1062.348777829372
 21
347.666259008907
 31
0.0
  0
LINE
  5
145
330
1F
100
AcDbEntity
  8
2
  6
Continuous
 62
    90
370
    18
100
AcDbLine
 10
1084.244484816372
 20
344.6940590089068
 30
0.0
 11
1083.154177829372
 21
344.6940590089068
 31
0.0
  0
LINE
  5
146
330
1F
100
AcDbEntity
  8
2
  6
Continuous
 62
    90
370
    18
100
AcDbLine
 10
1090.089313144171
 20
347.666259008907
 30
0.0
 11
1089.148365151572
 21
346.725313988507
 31
0.0
  0
LINE
  5
147
330
1F
100
AcDbEntity
  8
2
  6
Continuous
 62
    90
370
    18
100
AcDbLine
 10
1101.978113144172
 20
347.666259008907
 30
0.0
 11
1090.089313144171
 21
347.666259008907
 31
0.0
  0
LINE
  5
148
330
1F
100
AcDbEntity
  8
2
  6
Continuous
 62
    90
370
    18
100
AcDbLine
 10
1100.194793144172
 20
406.779592842307
 30
0.0
 11
1100.194793144172
 21
482.4627603715069
 31
0.0
  0
ARC
  5
149
330
1F
100
AcDbEntity
  8
2
  6
Continuous
 62
    90
370
    18
100
AcDbCircle
 10
1027.178244816372
 20
351.629194323707
 30
0.0
 40
6.9351323426
100
AcDbArc
 50
269.9999999999998
 51
314.9999999999983
  0
LINE
  5
14A
330
1F
100
AcDbEntity
  8
2
  6
Continuous
 62
    90
370
    18
100
AcDbLine
 10
1027.178244816372
 20
344.6940590089068
 30
0.0
 11
1026.087937829372
 21
344.6940590089068
 31
0.0
  0
LINE
  5
14B
330
1F
100
AcDbEntity
  8
2
  6
Continuous
 62
    90
370
    18
100
AcDbLine
 10
1033.023073144172
 20
347.666259008907
 30
0.0
 11
1032.082125151572
 21
346.725313988507
 31
0.0
  0
ARC
  5
14C
330
1F
100
AcDbEntity
  8
2
  6
Continuous
 62
    90
370
    18
100
AcDbCircle
 10
1024.997630842372
 20
351.629194323707
 30
0.0
 40
6.9351323426
100
AcDbArc
 50
224.9999999999957
 51
269.9999999999998
  0
LINE
  5
14D
330
1F
100
AcDbEntity
  8
2
  6
Continuous
 62
    90
370
    18
100
AcDbLine
 10
1024.997630842372
 20
344.6940590089068
 30
0.0
 11
1026.087937829372
 21
344.6940590089068
 31
0.0
  0
LINE
  5
14E
330
1F
100
AcDbEntity
  8
2
  6
Continuous
 62
    90
370
    18
100
AcDbLine
 10
1019.152805486772
 20
347.666259008907
 30
0.0
 11
1020.093750507171
 21
346.725313988507
 31
0.0
  0
ARC
  5
14F
330
1F
100
AcDbEntity
  8
2
  6
Continuous
 62
    90
370
    18
100
AcDbCircle
 10
999.4377124737719
 20
351.629194323707
 30
0.0
 40
6.9351323426
100
AcDbArc
 50
269.9999999999998
 51
314.9999999999983
  0
LINE
  5
150
330
1F
100
AcDbEntity
  8
2
  6
Continuous
 62
    90
370
    18
100
AcDbLine
 10
999.4377124737719
 20
344.6940590089068
 30
0.0
 11
998.3474054867718
 21
344.6940590089068
 31
0.0
  0
LINE
  5
151
330
1F
100
AcDbEntity
  8
2
  6
Continuous
 62
    90
370
    18
100
AcDbLine
 10
1005.282537829372
 20
347.666259008907
 30
0.0
 11
1004.341592808971
 21
346.725313988507
 31
0.0
  0
ARC
  5
152
330
1F
100
AcDbEntity
  8
2
  6
Continuous
 62
    90
370
    18
100
AcDbCircle
 10
997.2570984997717
 20
351.629194323707
 30
0.0
 40
6.9351323426
100
AcDbArc
 50
225.000000000001
 51
269.9999999999998
  0
LINE
  5
153
330
1F
100
AcDbEntity
  8
2
  6
Continuous
 62
    90
370
    18
100
AcDbLine
 10
1005.282537829372
 20
347.666259008907
 30
0.0
 11
1019.152805486772
 21
347.666259008907
 31
0.0
  0
LINE
  5
154
330
1F
100
AcDbEntity
  8
2
  6
Continuous
 62
    90
370
    18
100
AcDbLine
 10
997.2570984997717
 20
344.6940590089068
 30
0.0
 11
998.3474054867718
 21
344.6940590089068
 31
0.0
  0
LINE
  5
155
330
1F
100
AcDbEntity
  8
2
  6
Continuous
 62
    90
370
    18
100
AcDbLine
 10
991.4122731441719
 20
347.666259008907
 30
0.0
 11
992.3532181645721
 21
346.725313988507
 31
0.0
  0
LINE
  5
156
330
1F
100
AcDbEntity
  8
2
  6
Continuous
 62
    90
370
    18
100
AcDbLine
 10
979.5234731441712
 20
347.666259008907
 30
0.0
 11
991.4122731441719
 21
347.666259008907
 31
0.0
  0
LINE
  5
157
330
1F
100
AcDbEntity
  8
2
  6
Continuous
 62
    90
370
    18
100
AcDbLine
 10
981.3067931441717
 20
406.779592842307
 30
0.0
 11
981.3067931441717
 21
482.4627603715069
 31
0.0
  0
LINE
  5
158
330
1F
100
AcDbEntity
  8
2
  6
Continuous
 62
    90
370
    18
100
AcDbLine
 10
951.144913144172
 20
359.8711940897072
 30
0.0
 11
951.144913144172
 21
364.6026244087068
 31
0.0
  0
LINE
  5
159
330
1F
100
AcDbEntity
  8
2
  6
Continuous
 62
    90
370
    18
100
AcDbLine
 10
949.1634454867715
 20
359.8711940897072
 30
0.0
 11
949.1634454867715
 21
364.6026244087068
 31
0.0
  0
LINE
  5
15A
330
1F
100
AcDbEntity
  8
2
  6
Continuous
 62
    90
370
    18
100
AcDbLine
 10
949.1634454867715
 20
359.8711940897072
 30
0.0
 11
951.144913144172
 21
359.8711940897072
 31
0.0
  0
LINE
  5
15B
330
1F
100
AcDbEntity
  8
2
  6
Continuous
 62
    90
370
    18
100
AcDbLine
 10
923.4043778293715
 20
359.8711940897072
 30
0.0
 11
923.4043778293715
 21
364.6026244087068
 31
0.0
  0
LINE
  5
15C
330
1F
100
AcDbEntity
  8
2
  6
Continuous
 62
    90
370
    18
100
AcDbLine
 10
921.4229131441714
 20
359.8711940897072
 30
0.0
 11
921.4229131441714
 21
364.6026244087068
 31
0.0
  0
LINE
  5
15D
330
1F
100
AcDbEntity
  8
2
  6
Continuous
 62
    90
370
    18
100
AcDbLine
 10
921.4229131441714
 20
359.8711940897072
 30
0.0
 11
923.4043778293715
 21
359.8711940897072
 31
0.0
  0
LINE
  5
15E
330
1F
100
AcDbEntity
  8
2
  6
Continuous
 62
    90
370
    18
100
AcDbLine
 10
894.078673144172
 20
359.8711940897072
 30
0.0
 11
894.078673144172
 21
364.6026244087068
 31
0.0
  0
LINE
  5
15F
330
1F
100
AcDbEntity
  8
2
  6
Continuous
 62
    90
370
    18
100
AcDbLine
 10
892.0972054867714
 20
359.8711940897072
 30
0.0
 11
892.0972054867714
 21
364.6026244087068
 31
0.0
  0
LINE
  5
160
330
1F
100
AcDbEntity
  8
2
  6
Continuous
 62
    90
370
    18
100
AcDbLine
 10
892.0972054867714
 20
359.8711940897072
 30
0.0
 11
894.078673144172
 21
359.8711940897072
 31
0.0
  0
LINE
  5
161
330
1F
100
AcDbEntity
  8
2
  6
Continuous
 62
    90
370
    18
100
AcDbLine
 10
866.3381378293714
 20
359.8711940897072
 30
0.0
 11
866.3381378293714
 21
364.6026244087068
 31
0.0
  0
LINE
  5
162
330
1F
100
AcDbEntity
  8
2
  6
Continuous
 62
    90
370
    18
100
AcDbLine
 10
864.3566731441722
 20
359.8711940897072
 30
0.0
 11
864.3566731441722
 21
364.6026244087068
 31
0.0
  0
LINE
  5
163
330
1F
100
AcDbEntity
  8
2
  6
Continuous
 62
    90
370
    18
100
AcDbLine
 10
864.3566731441722
 20
359.8711940897072
 30
0.0
 11
866.3381378293714
 21
359.8711940897072
 31
0.0
  0
ARC
  5
164
330
1F
100
AcDbEntity
  8
2
  6
Continuous
 62
    90
370
    18
100
AcDbCircle
 10
921.3233384997718
 20
351.629194323707
 30
0.0
 40
6.9351323426
100
AcDbArc
 50
225.000000000001
 51
269.9999999999998
  0
LINE
  5
165
330
1F
100
AcDbEntity
  8
2
  6
Continuous
 62
    90
370
    18
100
AcDbLine
 10
921.3233384997718
 20
344.6940590089068
 30
0.0
 11
922.4136454867719
 21
344.6940590089068
 31
0.0
  0
LINE
  5
166
330
1F
100
AcDbEntity
  8
2
  6
Continuous
 62
    90
370
    18
100
AcDbLine
 10
915.478513144172
 20
347.666259008907
 30
0.0
 11
916.4194581645722
 21
346.725313988507
 31
0.0
  0
ARC
  5
167
330
1F
100
AcDbEntity
  8
2
  6
Continuous
 62
    90
370
    18
100
AcDbCircle
 10
923.503952473772
 20
351.629194323707
 30
0.0
 40
6.9351323426
100
AcDbArc
 50
269.9999999999998
 51
314.9999999999983
  0
LINE
  5
168
330
1F
100
AcDbEntity
  8
2
  6
Continuous
 62
    90
370
    18
100
AcDbLine
 10
923.503952473772
 20
344.6940590089068
 30
0.0
 11
922.4136454867719
 21
344.6940590089068
 31
0.0
  0
LINE
  5
169
330
1F
100
AcDbEntity
  8
2
  6
Continuous
 62
    90
370
    18
100
AcDbLine
 10
929.3487778293718
 20
347.666259008907
 30
0.0
 11
928.4078328089715
 21
346.725313988507
 31
0.0
  0
ARC
  5
16A
330
1F
100
AcDbEntity
  8
2
  6
Continuous
 62
    90
370
    18
100
AcDbCircle
 10
949.0638708423719
 20
351.629194323707
 30
0.0
 40
6.9351323426
100
AcDbArc
 50
224.9999999999957
 51
269.9999999999998
  0
LINE
  5
16B
330
1F
100
AcDbEntity
  8
2
  6
Continuous
 62
    90
370
    18
100
AcDbLine
 10
949.0638708423719
 20
344.6940590089068
 30
0.0
 11
950.154177829372
 21
344.6940590089068
 31
0.0
  0
LINE
  5
16C
330
1F
100
AcDbEntity
  8
2
  6
Continuous
 62
    90
370
    18
100
AcDbLine
 10
943.2190454867721
 20
347.666259008907
 30
0.0
 11
944.1599905071714
 21
346.725313988507
 31
0.0
  0
ARC
  5
16D
330
1F
100
AcDbEntity
  8
2
  6
Continuous
 62
    90
370
    18
100
AcDbCircle
 10
951.244484816372
 20
351.629194323707
 30
0.0
 40
6.9351323426
100
AcDbArc
 50
269.9999999999998
 51
314.9999999999983
  0
LINE
  5
16E
330
1F
100
AcDbEntity
  8
2
  6
Continuous
 62
    90
370
    18
100
AcDbLine
 10
943.2190454867721
 20
347.666259008907
 30
0.0
 11
929.3487778293718
 21
347.666259008907
 31
0.0
  0
LINE
  5
16F
330
1F
100
AcDbEntity
  8
2
  6
Continuous
 62
    90
370
    18
100
AcDbLine
 10
951.244484816372
 20
344.6940590089068
 30
0.0
 11
950.154177829372
 21
344.6940590089068
 31
0.0
  0
LINE
  5
170
330
1F
100
AcDbEntity
  8
2
  6
Continuous
 62
    90
370
    18
100
AcDbLine
 10
957.0893131441715
 20
347.666259008907
 30
0.0
 11
956.1483651515716
 21
346.725313988507
 31
0.0
  0
LINE
  5
171
330
1F
100
AcDbEntity
  8
2
  6
Continuous
 62
    90
370
    18
100
AcDbLine
 10
968.9781131441721
 20
347.666259008907
 30
0.0
 11
957.0893131441715
 21
347.666259008907
 31
0.0
  0
LINE
  5
172
330
1F
100
AcDbEntity
  8
2
  6
Continuous
 62
    90
370
    18
100
AcDbLine
 10
967.1947931441716
 20
406.779592842307
 30
0.0
 11
967.1947931441716
 21
482.4627603715069
 31
0.0
  0
ARC
  5
173
330
1F
100
AcDbEntity
  8
2
  6
Continuous
 62
    90
370
    18
100
AcDbCircle
 10
894.178244816372
 20
351.629194323707
 30
0.0
 40
6.9351323426
100
AcDbArc
 50
269.9999999999998
 51
314.9999999999983
  0
LINE
  5
174
330
1F
100
AcDbEntity
  8
2
  6
Continuous
 62
    90
370
    18
100
AcDbLine
 10
894.178244816372
 20
344.6940590089068
 30
0.0
 11
893.0879378293719
 21
344.6940590089068
 31
0.0
  0
LINE
  5
175
330
1F
100
AcDbEntity
  8
2
  6
Continuous
 62
    90
370
    18
100
AcDbLine
 10
900.0230731441723
 20
347.666259008907
 30
0.0
 11
899.0821251515715
 21
346.725313988507
 31
0.0
  0
ARC
  5
176
330
1F
100
AcDbEntity
  8
2
  6
Continuous
 62
    90
370
    18
100
AcDbCircle
 10
891.9976308423718
 20
351.629194323707
 30
0.0
 40
6.9351323426
100
AcDbArc
 50
224.9999999999957
 51
269.9999999999998
  0
LINE
  5
177
330
1F
100
AcDbEntity
  8
2
  6
Continuous
 62
    90
370
    18
100
AcDbLine
 10
891.9976308423718
 20
344.6940590089068
 30
0.0
 11
893.0879378293719
 21
344.6940590089068
 31
0.0
  0
LINE
  5
178
330
1F
100
AcDbEntity
  8
2
  6
Continuous
 62
    90
370
    18
100
AcDbLine
 10
886.152805486772
 20
347.666259008907
 30
0.0
 11
887.0937505071713
 21
346.725313988507
 31
0.0
  0
ARC
  5
179
330
1F
100
AcDbEntity
  8
2
  6
Continuous
 62
    90
370
    18
100
AcDbCircle
 10
866.4377124737719
 20
351.629194323707
 30
0.0
 40
6.9351323426
100
AcDbArc
 50
269.9999999999998
 51
314.9999999999983
  0
LINE
  5
17A
330
1F
100
AcDbEntity
  8
2
  6
Continuous
 62
    90
370
    18
100
AcDbLine
 10
866.4377124737719
 20
344.6940590089068
 30
0.0
 11
865.3474054867718
 21
344.6940590089068
 31
0.0
  0
LINE
  5
17B
330
1F
100
AcDbEntity
  8
2
  6
Continuous
 62
    90
370
    18
100
AcDbLine
 10
872.2825378293717
 20
347.666259008907
 30
0.0
 11
871.3415928089714
 21
346.725313988507
 31
0.0
  0
ARC
  5
17C
330
1F
100
AcDbEntity
  8
2
  6
Continuous
 62
    90
370
    18
100
AcDbCircle
 10
864.2570984997717
 20
351.629194323707
 30
0.0
 40
6.9351323426
100
AcDbArc
 50
225.000000000001
 51
269.9999999999998
  0
LINE
  5
17D
330
1F
100
AcDbEntity
  8
2
  6
Continuous
 62
    90
370
    18
100
AcDbLine
 10
872.2825378293717
 20
347.666259008907
 30
0.0
 11
886.152805486772
 21
347.666259008907
 31
0.0
  0
LINE
  5
17E
330
1F
100
AcDbEntity
  8
2
  6
Continuous
 62
    90
370
    18
100
AcDbLine
 10
864.2570984997717
 20
344.6940590089068
 30
0.0
 11
865.3474054867718
 21
344.6940590089068
 31
0.0
  0
LINE
  5
17F
330
1F
100
AcDbEntity
  8
2
  6
Continuous
 62
    90
370
    18
100
AcDbLine
 10
858.4122731441719
 20
347.666259008907
 30
0.0
 11
859.3532181645721
 21
346.725313988507
 31
0.0
  0
LINE
  5
180
330
1F
100
AcDbEntity
  8
2
  6
Continuous
 62
    90
370
    18
100
AcDbLine
 10
846.5234731441722
 20
347.666259008907
 30
0.0
 11
858.4122731441719
 21
347.666259008907
 31
0.0
  0
LINE
  5
181
330
1F
100
AcDbEntity
  8
2
  6
Continuous
 62
    90
370
    18
100
AcDbLine
 10
848.3067931441717
 20
406.779592842307
 30
0.0
 11
848.3067931441717
 21
482.4627603715069
 31
0.0
  0
LINE
  5
182
330
1F
100
AcDbEntity
  8
1
  6
Continuous
 62
    45
370
     9
100
AcDbLine
 10
974.2507901719716
 20
482.3931834661068
 30
0.0
 11
970.9595778293722
 21
482.3931834661068
 31
0.0
  0
LINE
  5
183
330
1F
100
AcDbEntity
  8
1
  6
Continuous
 62
    45
370
     9
100
AcDbLine
 10
971.7521654867712
 20
391.3931834661068
 30
0.0
 11
974.2507901719716
 21
391.3931834661068
 31
0.0
  0
LINE
  5
184
330
1F
100
AcDbEntity
  8
1
  6
Continuous
 62
    45
370
     9
100
AcDbLine
 10
976.7494178293716
 20
391.3931834661068
 30
0.0
 11
974.2507901719716
 21
391.3931834661068
 31
0.0
  0
LINE
  5
185
330
1F
100
AcDbEntity
  8
1
  6
Continuous
 62
    45
370
     9
100
AcDbLine
 10
974.2507901719716
 20
482.3931834661068
 30
0.0
 11
977.5420054867716
 21
482.3931834661068
 31
0.0
  0
LINE
  5
186
330
1F
100
AcDbEntity
  8
2
  6
Continuous
 62
    90
370
    18
100
AcDbLine
 10
844.5420054867716
 20
484.3931834661068
 30
0.0
 11
970.9595778293722
 21
484.3931834661068
 31
0.0
  0
LINE
  5
187
330
1F
100
AcDbEntity
  8
2
  6
Continuous
 62
    90
370
    18
100
AcDbLine
 10
848.3067931441717
 20
482.4627603715069
 30
0.0
 11
967.1947931441716
 21
482.4627603715069
 31
0.0
  0
LINE
  5
188
330
1F
100
AcDbEntity
  8
2
  6
Continuous
 62
    90
370
    18
100
AcDbLine
 10
977.5420054867716
 20
484.3931834661068
 30
0.0
 11
1103.959577829372
 21
484.3931834661068
 31
0.0
  0
LINE
  5
189
330
1F
100
AcDbEntity
  8
2
  6
Continuous
 62
    90
370
    18
100
AcDbLine
 10
981.3067931441717
 20
482.4627603715069
 30
0.0
 11
1100.194793144172
 21
482.4627603715069
 31
0.0
  0
LINE
  5
18A
330
1F
100
AcDbEntity
  8
2
  6
Continuous
 62
    90
370
    18
100
AcDbLine
 10
848.3067931441717
 20
406.779592842307
 30
0.0
 11
967.1947931441716
 21
406.779592842307
 31
0.0
  0
LINE
  5
18B
330
1F
100
AcDbEntity
  8
2
  6
Continuous
 62
    90
370
    18
100
AcDbLine
 10
981.3067931441717
 20
406.779592842307
 30
0.0
 11
1100.194793144172
 21
406.779592842307
 31
0.0
  0
LINE
  5
18C
330
1F
100
AcDbEntity
  8
2
  6
Continuous
 62
    90
370
    18
100
AcDbLine
 10
846.5234731441722
 20
372.0205371417069
 30
0.0
 11
968.9781131441721
 21
372.0205371417069
 31
0.0
  0
LINE
  5
18D
330
1F
100
AcDbEntity
  8
2
  6
Continuous
 62
    90
370
    18
100
AcDbLine
 10
846.5234731441722
 20
364.6026244087068
 30
0.0
 11
968.9781131441721
 21
364.6026244087068
 31
0.0
  0
LINE
  5
18E
330
1F
100
AcDbEntity
  8
2
  6
Continuous
 62
    90
370
    18
100
AcDbLine
 10
900.0230731441723
 20
347.666259008907
 30
0.0
 11
915.478513144172
 21
347.666259008907
 31
0.0
  0
LINE
  5
18F
330
1F
100
AcDbEntity
  8
2
  6
Continuous
 62
    90
370
    18
100
AcDbLine
 10
979.5234731441712
 20
372.0205371417069
 30
0.0
 11
1101.978113144172
 21
372.0205371417069
 31
0.0
  0
LINE
  5
190
330
1F
100
AcDbEntity
  8
2
  6
Continuous
 62
    90
370
    18
100
AcDbLine
 10
979.5234731441712
 20
364.6026244087068
 30
0.0
 11
1101.978113144172
 21
364.6026244087068
 31
0.0
  0
LINE
  5
191
330
1F
100
AcDbEntity
  8
2
  6
Continuous
 62
    90
370
    18
100
AcDbLine
 10
1033.023073144172
 20
347.666259008907
 30
0.0
 11
1048.478513144172
 21
347.666259008907
 31
0.0
  0
LINE
  5
192
330
1F
100
AcDbEntity
  8
2
  6
Continuous
 62
    90
370
    18
100
AcDbLine
 10
872.7494178293716
 20
516.3931834661067
 30
0.0
 11
845.7494178293716
 21
516.3931834661067
 31
0.0
  0
LINE
  5
193
330
1F
100
AcDbEntity
  8
2
  6
Continuous
 62
    90
370
    18
100
AcDbLine
 10
845.7494178293716
 20
516.3931834661067
 30
0.0
 11
845.7494178293716
 21
491.3931834661067
 31
0.0
  0
LINE
  5
194
330
1F
100
AcDbEntity
  8
2
  6
Continuous
 62
    90
370
    18
100
AcDbLine
 10
845.7494178293716
 20
491.3931834661067
 30
0.0
 11
842.7494178293716
 21
491.3931834661067
 31
0.0
  0
INSERT
  5
19C
330
1F
100
AcDbEntity
  8
0
100
AcDbBlockReference
  2
*G15
 10
0.0
 20
0.0
 30
0.0
  0
LINE
  5
19D
330
1F
100
AcDbEntity
  8
1
  6
Continuous
 62
    45
370
     9
100
AcDbLine
 10
844.5420054867716
 20
375.543687911307
 30
0.0
 11
846.5234731441722
 21
375.543687911307
 31
0.0
  0
LINE
  5
19E
330
1F
100
AcDbEntity
  8
1
  6
Continuous
 62
    45
370
     9
100
AcDbLine
 10
844.5420054867716
 20
371.5312238557069
 30
0.0
 11
846.5234731441722
 21
371.5312238557069
 31
0.0
  0
LINE
  5
19F
330
1F
100
AcDbEntity
  8
1
  6
Continuous
 62
    45
370
     9
100
AcDbLine
 10
844.5420054867716
 20
363.459483594507
 30
0.0
 11
846.5234731441722
 21
363.459483594507
 31
0.0
  0
LINE
  5
1A0
330
1F
100
AcDbEntity
  8
1
  6
Continuous
 62
    45
370
     9
100
AcDbLine
 10
970.9595778293722
 20
375.543687911307
 30
0.0
 11
968.9781131441721
 21
375.543687911307
 31
0.0
  0
LINE
  5
1A1
330
1F
100
AcDbEntity
  8
1
  6
Continuous
 62
    45
370
     9
100
AcDbLine
 10
970.9595778293722
 20
371.5312238557069
 30
0.0
 11
968.9781131441721
 21
371.5312238557069
 31
0.0
  0
LINE
  5
1A2
330
1F
100
AcDbEntity
  8
1
  6
Continuous
 62
    45
370
     9
100
AcDbLine
 10
970.9595778293722
 20
363.459483594507
 30
0.0
 11
968.9781131441721
 21
363.459483594507
 31
0.0
  0
LINE
  5
1A3
330
1F
100
AcDbEntity
  8
1
  6
Continuous
 62
    45
370
     9
100
AcDbLine
 10
977.5420054867716
 20
375.543687911307
 30
0.0
 11
979.5234731441712
 21
375.543687911307
 31
0.0
  0
LINE
  5
1A4
330
1F
100
AcDbEntity
  8
1
  6
Continuous
 62
    45
370
     9
100
AcDbLine
 10
977.5420054867716
 20
371.5312238557069
 30
0.0
 11
979.5234731441712
 21
371.5312238557069
 31
0.0
  0
LINE
  5
1A5
330
1F
100
AcDbEntity
  8
1
  6
Continuous
 62
    45
370
     9
100
AcDbLine
 10
977.5420054867716
 20
363.459483594507
 30
0.0
 11
979.5234731441712
 21
363.459483594507
 31
0.0
  0
LINE
  5
1A6
330
1F
100
AcDbEntity
  8
1
  6
Continuous
 62
    45
370
     9
100
AcDbLine
 10
1103.959577829372
 20
375.543687911307
 30
0.0
 11
1101.978113144172
 21
375.543687911307
 31
0.0
  0
LINE
  5
1A7
330
1F
100
AcDbEntity
  8
1
  6
Continuous
 62
    45
370
     9
100
AcDbLine
 10
1103.959577829372
 20
371.5312238557069
 30
0.0
 11
1101.978113144172
 21
371.5312238557069
 31
0.0
  0
LINE
  5
1A8
330
1F
100
AcDbEntity
  8
1
  6
Continuous
 62
    45
370
     9
100
AcDbLine
 10
1103.959577829372
 20
363.459483594507
 30
0.0
 11
1101.978113144172
 21
363.459483594507
 31
0.0
  0
LINE
  5
1A9
330
1F
100
AcDbEntity
  8
1
  6
Continuous
 62
    45
370
     9
100
AcDbLine
 10
979.5234731441712
 20
368.4796720601069
 30
0.0
 11
1101.978113144172
 21
368.4796720601069
 31
0.0
  0
LINE
  5
1AA
330
1F
100
AcDbEntity
  8
1
  6
Continuous
 62
    45
370
     9
100
AcDbLine
 10
979.5234731441712
 20
369.309944241307
 30
0.0
 11
1101.978113144172
 21
369.309944241307
 31
0.0
  0
LINE
  5
1AB
330
1F
100
AcDbEntity
  8
1
  6
Continuous
 62
    45
370
     9
100
AcDbLine
 10
846.5234731441722
 20
368.4796720601069
 30
0.0
 11
968.9781131441721
 21
368.4796720601069
 31
0.0
  0
LINE
  5
1AC
330
1F
100
AcDbEntity
  8
1
  6
Continuous
 62
    45
370
     9
100
AcDbLine
 10
846.5234731441722
 20
369.309944241307
 30
0.0
 11
968.9781131441721
 21
369.309944241307
 31
0.0
  0
LINE
  5
1AD
330
1F
100
AcDbEntity
  8
1
  6
Continuous
 62
    45
370
     9
100
AcDbLine
 10
847.8114254867721
 20
474.0415250567069
 30
0.0
 11
847.8114254867721
 21
477.5090927141068
 31
0.0
  0
LINE
  5
1AE
330
1F
100
AcDbEntity
  8
1
  6
Continuous
 62
    45
370
     9
100
AcDbLine
 10
846.5234731441722
 20
476.2211403715069
 30
0.0
 11
847.8114254867721
 21
476.2211403715069
 31
0.0
  0
LINE
  5
1AF
330
1F
100
AcDbEntity
  8
1
  6
Continuous
 62
    45
370
     9
100
AcDbLine
 10
846.5234731441722
 20
471.8619127141069
 30
0.0
 11
847.8114254867721
 21
471.8619127141069
 31
0.0
  0
ARC
  5
1B0
330
1F
100
AcDbEntity
  8
1
  6
Continuous
 62
    45
370
     9
100
AcDbCircle
 10
848.3067931441717
 20
477.5090927141068
 30
0.0
 40
0.4953676574
100
AcDbArc
 50
89.99999999999991
 51
179.9999999999998
  0
ARC
  5
1B1
330
1F
100
AcDbEntity
  8
1
  6
Continuous
 62
    45
370
     9
100
AcDbCircle
 10
848.3067931441717
 20
470.5739603715069
 30
0.0
 40
0.4953676574
100
AcDbArc
 50
179.9999999999998
 51
269.9999999999998
  0
LINE
  5
1B2
330
1F
100
AcDbEntity
  8
1
  6
Continuous
 62
    45
370
     9
100
AcDbLine
 10
847.8114254867721
 20
474.0415250567069
 30
0.0
 11
847.8114254867721
 21
470.5739603715069
 31
0.0
  0
LINE
  5
1B3
330
1F
100
AcDbEntity
  8
1
  6
Continuous
 62
    45
370
     9
100
AcDbLine
 10
850.7836254867723
 20
406.779592842307
 30
0.0
 11
850.7836254867723
 21
372.0205371417069
 31
0.0
  0
LINE
  5
1B4
330
1F
100
AcDbEntity
  8
1
  6
Continuous
 62
    45
370
     9
100
AcDbLine
 10
967.6901578293716
 20
474.0415250567069
 30
0.0
 11
967.6901578293716
 21
477.5090927141068
 31
0.0
  0
LINE
  5
1B5
330
1F
100
AcDbEntity
  8
1
  6
Continuous
 62
    45
370
     9
100
AcDbLine
 10
968.9781131441721
 20
476.2211403715069
 30
0.0
 11
967.6901578293716
 21
476.2211403715069
 31
0.0
  0
LINE
  5
1B6
330
1F
100
AcDbEntity
  8
1
  6
Continuous
 62
    45
370
     9
100
AcDbLine
 10
968.9781131441721
 20
471.8619127141069
 30
0.0
 11
967.6901578293716
 21
471.8619127141069
 31
0.0
  0
ARC
  5
1B7
330
1F
100
AcDbEntity
  8
1
  6
Continuous
 62
    45
370
     9
100
AcDbCircle
 10
967.1947931441716
 20
477.5090927141068
 30
0.0
 40
0.4953676574
100
AcDbArc
 50
0.0
 51
89.99999999999991
  0
ARC
  5
1B8
330
1F
100
AcDbEntity
  8
1
  6
Continuous
 62
    45
370
     9
100
AcDbCircle
 10
967.1947931441716
 20
470.5739603715069
 30
0.0
 40
0.4953676574
100
AcDbArc
 50
269.9999999999998
 51
0.0
  0
LINE
  5
1B9
330
1F
100
AcDbEntity
  8
1
  6
Continuous
 62
    45
370
     9
100
AcDbLine
 10
967.6901578293716
 20
474.0415250567069
 30
0.0
 11
967.6901578293716
 21
470.5739603715069
 31
0.0
  0
LINE
  5
1BA
330
1F
100
AcDbEntity
  8
1
  6
Continuous
 62
    45
370
     9
100
AcDbLine
 10
964.7179578293715
 20
406.779592842307
 30
0.0
 11
964.7179578293715
 21
372.0205371417069
 31
0.0
  0
LINE
  5
1BB
330
1F
100
AcDbEntity
  8
1
  6
Continuous
 62
    45
370
     9
100
AcDbLine
 10
980.8114254867721
 20
474.0415250567069
 30
0.0
 11
980.8114254867721
 21
477.5090927141068
 31
0.0
  0
LINE
  5
1BC
330
1F
100
AcDbEntity
  8
1
  6
Continuous
 62
    45
370
     9
100
AcDbLine
 10
979.5234731441712
 20
476.2211403715069
 30
0.0
 11
980.8114254867721
 21
476.2211403715069
 31
0.0
  0
LINE
  5
1BD
330
1F
100
AcDbEntity
  8
1
  6
Continuous
 62
    45
370
     9
100
AcDbLine
 10
979.5234731441712
 20
471.8619127141069
 30
0.0
 11
980.8114254867721
 21
471.8619127141069
 31
0.0
  0
ARC
  5
1BE
330
1F
100
AcDbEntity
  8
1
  6
Continuous
 62
    45
370
     9
100
AcDbCircle
 10
981.3067931441717
 20
477.5090927141068
 30
0.0
 40
0.4953676574
100
AcDbArc
 50
89.99999999999991
 51
179.9999999999998
  0
ARC
  5
1BF
330
1F
100
AcDbEntity
  8
1
  6
Continuous
 62
    45
370
     9
100
AcDbCircle
 10
981.3067931441717
 20
470.5739603715069
 30
0.0
 40
0.4953676574
100
AcDbArc
 50
179.9999999999998
 51
269.9999999999998
  0
LINE
  5
1C0
330
1F
100
AcDbEntity
  8
1
  6
Continuous
 62
    45
370
     9
100
AcDbLine
 10
980.8114254867721
 20
474.0415250567069
 30
0.0
 11
980.8114254867721
 21
470.5739603715069
 31
0.0
  0
LINE
  5
1C1
330
1F
100
AcDbEntity
  8
1
  6
Continuous
 62
    45
370
     9
100
AcDbLine
 10
983.7836254867714
 20
406.779592842307
 30
0.0
 11
983.7836254867714
 21
372.0205371417069
 31
0.0
  0
LINE
  5
1C2
330
1F
100
AcDbEntity
  8
1
  6
Continuous
 62
    45
370
     9
100
AcDbLine
 10
1100.690157829372
 20
474.0415250567069
 30
0.0
 11
1100.690157829372
 21
477.5090927141068
 31
0.0
  0
LINE
  5
1C3
330
1F
100
AcDbEntity
  8
1
  6
Continuous
 62
    45
370
     9
100
AcDbLine
 10
1101.978113144172
 20
476.2211403715069
 30
0.0
 11
1100.690157829372
 21
476.2211403715069
 31
0.0
  0
LINE
  5
1C4
330
1F
100
AcDbEntity
  8
1
  6
Continuous
 62
    45
370
     9
100
AcDbLine
 10
1101.978113144172
 20
471.8619127141069
 30
0.0
 11
1100.690157829372
 21
471.8619127141069
 31
0.0
  0
ARC
  5
1C5
330
1F
100
AcDbEntity
  8
1
  6
Continuous
 62
    45
370
     9
100
AcDbCircle
 10
1100.194793144172
 20
477.5090927141068
 30
0.0
 40
0.4953676574
100
AcDbArc
 50
0.0
 51
89.99999999999991
  0
ARC
  5
1C6
330
1F
100
AcDbEntity
  8
1
  6
Continuous
 62
    45
370
     9
100
AcDbCircle
 10
1100.194793144172
 20
470.5739603715069
 30
0.0
 40
0.4953676574
100
AcDbArc
 50
269.9999999999998
 51
0.0
  0
LINE
  5
1C7
330
1F
100
AcDbEntity
  8
1
  6
Continuous
 62
    45
370
     9
100
AcDbLine
 10
1100.690157829372
 20
474.0415250567069
 30
0.0
 11
1100.690157829372
 21
470.5739603715069
 31
0.0
  0
LINE
  5
1C8
330
1F
100
AcDbEntity
  8
1
  6
Continuous
 62
    45
370
     9
100
AcDbLine
 10
1097.717957829371
 20
406.779592842307
 30
0.0
 11
1097.717957829371
 21
372.0205371417069
 31
0.0
  0
ARC
  5
1C9
330
1F
100
AcDbEntity
  8
1
  6
Continuous
 62
    45
370
     9
100
AcDbCircle
 10
853.9539731441716
 20
364.6026244087068
 30
0.0
 40
1.6842476574
100
AcDbArc
 50
179.9999999999998
 51
0.0
  0
ARC
  5
1CA
330
1F
100
AcDbEntity
  8
1
  6
Continuous
 62
    45
370
     9
100
AcDbCircle
 10
907.7507931441712
 20
364.6026244087068
 30
0.0
 40
1.6842476574
100
AcDbArc
 50
179.9999999999998
 51
269.9999999999998
  0
ARC
  5
1CB
330
1F
100
AcDbEntity
  8
1
  6
Continuous
 62
    45
370
     9
100
AcDbCircle
 10
880.2084054867717
 20
364.6026244087068
 30
0.0
 40
1.6842476574
100
AcDbArc
 50
179.9999999999998
 51
0.0
  0
LINE
  5
1CC
330
1F
100
AcDbEntity
  8
1
  6
Continuous
 62
    45
370
     9
100
AcDbLine
 10
858.4122731441719
 20
347.666259008907
 30
0.0
 11
858.4122731441719
 21
364.6026244087068
 31
0.0
  0
LINE
  5
1CD
330
1F
100
AcDbEntity
  8
1
  6
Continuous
 62
    45
370
     9
100
AcDbLine
 10
872.2825378293717
 20
347.666259008907
 30
0.0
 11
872.2825378293717
 21
364.6026244087068
 31
0.0
  0
LINE
  5
1CE
330
1F
100
AcDbEntity
  8
1
  6
Continuous
 62
    45
370
     9
100
AcDbLine
 10
886.152805486772
 20
347.666259008907
 30
0.0
 11
886.152805486772
 21
364.6026244087068
 31
0.0
  0
LINE
  5
1CF
330
1F
100
AcDbEntity
  8
1
  6
Continuous
 62
    45
370
     9
100
AcDbLine
 10
900.0230731441723
 20
347.666259008907
 30
0.0
 11
900.0230731441723
 21
364.6026244087068
 31
0.0
  0
ARC
  5
1D0
330
1F
100
AcDbEntity
  8
1
  6
Continuous
 62
    45
370
     9
100
AcDbCircle
 10
961.5476131441717
 20
364.6026244087068
 30
0.0
 40
1.6842476574
100
AcDbArc
 50
179.9999999999998
 51
0.0
  0
ARC
  5
1D1
330
1F
100
AcDbEntity
  8
1
  6
Continuous
 62
    45
370
     9
100
AcDbCircle
 10
907.7507931441712
 20
364.6026244087068
 30
0.0
 40
1.6842476574
100
AcDbArc
 50
269.9999999999998
 51
0.0
  0
ARC
  5
1D2
330
1F
100
AcDbEntity
  8
1
  6
Continuous
 62
    45
370
     9
100
AcDbCircle
 10
935.2931778293721
 20
364.6026244087068
 30
0.0
 40
1.6842476574
100
AcDbArc
 50
179.9999999999998
 51
0.0
  0
LINE
  5
1D3
330
1F
100
AcDbEntity
  8
1
  6
Continuous
 62
    45
370
     9
100
AcDbLine
 10
957.0893131441715
 20
347.666259008907
 30
0.0
 11
957.0893131441715
 21
364.6026244087068
 31
0.0
  0
LINE
  5
1D4
330
1F
100
AcDbEntity
  8
1
  6
Continuous
 62
    45
370
     9
100
AcDbLine
 10
943.2190454867721
 20
347.666259008907
 30
0.0
 11
943.2190454867721
 21
364.6026244087068
 31
0.0
  0
LINE
  5
1D5
330
1F
100
AcDbEntity
  8
1
  6
Continuous
 62
    45
370
     9
100
AcDbLine
 10
929.3487778293718
 20
347.666259008907
 30
0.0
 11
929.3487778293718
 21
364.6026244087068
 31
0.0
  0
LINE
  5
1D6
330
1F
100
AcDbEntity
  8
1
  6
Continuous
 62
    45
370
     9
100
AcDbLine
 10
915.478513144172
 20
347.666259008907
 30
0.0
 11
915.478513144172
 21
364.6026244087068
 31
0.0
  0
ARC
  5
1D7
330
1F
100
AcDbEntity
  8
1
  6
Continuous
 62
    45
370
     9
100
AcDbCircle
 10
986.9539731441716
 20
364.6026244087068
 30
0.0
 40
1.6842476574
100
AcDbArc
 50
179.9999999999998
 51
0.0
  0
ARC
  5
1D8
330
1F
100
AcDbEntity
  8
1
  6
Continuous
 62
    45
370
     9
100
AcDbCircle
 10
1040.750793144171
 20
364.6026244087068
 30
0.0
 40
1.6842476574
100
AcDbArc
 50
179.9999999999998
 51
269.9999999999998
  0
ARC
  5
1D9
330
1F
100
AcDbEntity
  8
1
  6
Continuous
 62
    45
370
     9
100
AcDbCircle
 10
1013.208405486772
 20
364.6026244087068
 30
0.0
 40
1.6842476574
100
AcDbArc
 50
179.9999999999998
 51
0.0
  0
LINE
  5
1DA
330
1F
100
AcDbEntity
  8
1
  6
Continuous
 62
    45
370
     9
100
AcDbLine
 10
991.4122731441719
 20
347.666259008907
 30
0.0
 11
991.4122731441719
 21
364.6026244087068
 31
0.0
  0
LINE
  5
1DB
330
1F
100
AcDbEntity
  8
1
  6
Continuous
 62
    45
370
     9
100
AcDbLine
 10
1005.282537829372
 20
347.666259008907
 30
0.0
 11
1005.282537829372
 21
364.6026244087068
 31
0.0
  0
LINE
  5
1DC
330
1F
100
AcDbEntity
  8
1
  6
Continuous
 62
    45
370
     9
100
AcDbLine
 10
1019.152805486772
 20
347.666259008907
 30
0.0
 11
1019.152805486772
 21
364.6026244087068
 31
0.0
  0
LINE
  5
1DD
330
1F
100
AcDbEntity
  8
1
  6
Continuous
 62
    45
370
     9
100
AcDbLine
 10
1033.023073144172
 20
347.666259008907
 30
0.0
 11
1033.023073144172
 21
364.6026244087068
 31
0.0
  0
ARC
  5
1DE
330
1F
100
AcDbEntity
  8
1
  6
Continuous
 62
    45
370
     9
100
AcDbCircle
 10
1094.547613144172
 20
364.6026244087068
 30
0.0
 40
1.6842476574
100
AcDbArc
 50
179.9999999999998
 51
0.0
  0
ARC
  5
1DF
330
1F
100
AcDbEntity
  8
1
  6
Continuous
 62
    45
370
     9
100
AcDbCircle
 10
1040.750793144171
 20
364.6026244087068
 30
0.0
 40
1.6842476574
100
AcDbArc
 50
269.9999999999998
 51
0.0
  0
ARC
  5
1E0
330
1F
100
AcDbEntity
  8
1
  6
Continuous
 62
    45
370
     9
100
AcDbCircle
 10
1068.293177829372
 20
364.6026244087068
 30
0.0
 40
1.6842476574
100
AcDbArc
 50
179.9999999999998
 51
0.0
  0
LINE
  5
1E1
330
1F
100
AcDbEntity
  8
1
  6
Continuous
 62
    45
370
     9
100
AcDbLine
 10
1090.089313144171
 20
347.666259008907
 30
0.0
 11
1090.089313144171
 21
364.6026244087068
 31
0.0
  0
LINE
  5
1E2
330
1F
100
AcDbEntity
  8
1
  6
Continuous
 62
    45
370
     9
100
AcDbLine
 10
1076.219045486772
 20
347.666259008907
 30
0.0
 11
1076.219045486772
 21
364.6026244087068
 31
0.0
  0
LINE
  5
1E3
330
1F
100
AcDbEntity
  8
1
  6
Continuous
 62
    45
370
     9
100
AcDbLine
 10
1062.348777829372
 20
347.666259008907
 30
0.0
 11
1062.348777829372
 21
364.6026244087068
 31
0.0
  0
LINE
  5
1E4
330
1F
100
AcDbEntity
  8
1
  6
Continuous
 62
    45
370
     9
100
AcDbLine
 10
1048.478513144172
 20
347.666259008907
 30
0.0
 11
1048.478513144172
 21
364.6026244087068
 31
0.0
  0
LINE
  5
1E5
330
1F
100
AcDbEntity
  8
1
  6
Continuous
 62
    45
370
     9
100
AcDbLine
 10
843.7494178293716
 20
341.602935342507
 30
0.0
 11
843.7494178293716
 21
471.2875558695071
 31
0.0
  0
LINE
  5
1E6
330
1F
100
AcDbEntity
  8
1
  6
Continuous
 62
    45
370
     9
100
AcDbLine
 10
843.7494178293716
 20
471.2875558695071
 30
0.0
 11
844.5420054867716
 21
471.2875558695071
 31
0.0
  0
LINE
  5
1E7
330
1F
100
AcDbEntity
  8
1
  6
Continuous
 62
    45
370
     9
100
AcDbLine
 10
970.9595778293722
 20
341.602935342507
 30
0.0
 11
971.7521654867712
 21
341.602935342507
 31
0.0
  0
LINE
  5
1E8
330
1F
100
AcDbEntity
  8
1
  6
Continuous
 62
    45
370
     9
100
AcDbLine
 10
971.7521654867712
 20
341.602935342507
 30
0.0
 11
971.7521654867712
 21
471.2875558695071
 31
0.0
  0
LINE
  5
1E9
330
1F
100
AcDbEntity
  8
1
  6
Continuous
 62
    45
370
     9
100
AcDbLine
 10
971.7521654867712
 20
471.2875558695071
 30
0.0
 11
970.9595778293722
 21
471.2875558695071
 31
0.0
  0
LINE
  5
1EA
330
1F
100
AcDbEntity
  8
1
  6
Continuous
 62
    45
370
     9
100
AcDbLine
 10
844.5420054867716
 20
341.602935342507
 30
0.0
 11
843.7494178293716
 21
341.602935342507
 31
0.0
  0
LINE
  5
1EB
330
1F
100
AcDbEntity
  8
1
  6
Continuous
 62
    45
370
     9
100
AcDbLine
 10
976.7494178293716
 20
341.602935342507
 30
0.0
 11
976.7494178293716
 21
471.2875558695071
 31
0.0
  0
LINE
  5
1EC
330
1F
100
AcDbEntity
  8
1
  6
Continuous
 62
    45
370
     9
100
AcDbLine
 10
976.7494178293716
 20
471.2875558695071
 30
0.0
 11
977.5420054867716
 21
471.2875558695071
 31
0.0
  0
LINE
  5
1ED
330
1F
100
AcDbEntity
  8
1
  6
Continuous
 62
    45
370
     9
100
AcDbLine
 10
1103.959577829372
 20
341.602935342507
 30
0.0
 11
1104.752165486771
 21
341.602935342507
 31
0.0
  0
LINE
  5
1EE
330
1F
100
AcDbEntity
  8
1
  6
Continuous
 62
    45
370
     9
100
AcDbLine
 10
1104.752165486771
 20
341.602935342507
 30
0.0
 11
1104.752165486771
 21
471.2875558695071
 31
0.0
  0
LINE
  5
1EF
330
1F
100
AcDbEntity
  8
1
  6
Continuous
 62
    45
370
     9
100
AcDbLine
 10
1104.752165486771
 20
471.2875558695071
 30
0.0
 11
1103.959577829372
 21
471.2875558695071
 31
0.0
  0
LINE
  5
1F0
330
1F
100
AcDbEntity
  8
1
  6
Continuous
 62
    45
370
     9
100
AcDbLine
 10
977.5420054867716
 20
341.602935342507
 30
0.0
 11
976.7494178293716
 21
341.602935342507
 31
0.0
  0
CIRCLE
  5
1F1
330
1F
100
AcDbEntity
  8
1
  6
Continuous
 62
    45
370
     9
100
AcDbCircle
 10
859.7494178293716
 20
504.3931834661067
 30
0.0
 40
2.5
  0
LINE
  5
1F2
330
1F
100
AcDbEntity
  8
2
  6
Continuous
 62
    90
370
    18
100
AcDbLine
 10
1075.752165486771
 20
516.3931834661067
 30
0.0
 11
1102.752165486771
 21
516.3931834661067
 31
0.0
  0
LINE
  5
1F3
330
1F
100
AcDbEntity
  8
2
  6
Continuous
 62
    90
370
    18
100
AcDbLine
 10
1102.752165486771
 20
516.3931834661067
 30
0.0
 11
1102.752165486771
 21
491.3931834661067
 31
0.0
  0
LINE
  5
1F4
330
1F
100
AcDbEntity
  8
2
  6
Continuous
 62
    90
370
    18
100
AcDbLine
 10
1102.752165486771
 20
491.3931834661067
 30
0.0
 11
1105.752165486771
 21
491.3931834661067
 31
0.0
  0
INSERT
  5
1FC
330
1F
100
AcDbEntity
  8
0
100
AcDbBlockReference
  2
*G16
 10
0.0
 20
0.0
 30
0.0
  0
CIRCLE
  5
1FD
330
1F
100
AcDbEntity
  8
1
  6
Continuous
 62
    45
370
     9
100
AcDbCircle
 10
1088.752165486771
 20
504.3931834661067
 30
0.0
 40
2.5
  0
LINE
  5
1FE
330
1F
100
AcDbEntity
  8
2
  6
Continuous
 62
    90
370
    18
100
AcDbLine
 10
977.5420054867716
 20
337.3931834661068
 30
0.0
 11
979.5234731441712
 21
337.3931834661068
 31
0.0
  0
LINE
  5
1FF
330
1F
100
AcDbEntity
  8
2
  6
Continuous
 62
    90
370
    18
100
AcDbLine
 10
1103.959577829372
 20
337.3931834661068
 30
0.0
 11
1101.978113144172
 21
337.3931834661068
 31
0.0
  0
LINE
  5
200
330
1F
100
AcDbEntity
  8
2
  6
Continuous
 62
    90
370
    18
100
AcDbLine
 10
1101.978113144172
 20
337.3931834661068
 30
0.0
 11
1101.978113144172
 21
484.3931834661068
 31
0.0
  0
LINE
  5
201
330
1F
100
AcDbEntity
  8
2
  6
Continuous
 62
    90
370
    18
100
AcDbLine
 10
1103.959577829372
 20
337.3931834661068
 30
0.0
 11
1103.959577829372
 21
484.3931834661068
 31
0.0
  0
LINE
  5
202
330
1F
100
AcDbEntity
  8
2
  6
Continuous
 62
    90
370
    18
100
AcDbLine
 10
979.5234731441712
 20
337.3931834661068
 30
0.0
 11
979.5234731441712
 21
484.3931834661068
 31
0.0
  0
LINE
  5
203
330
1F
100
AcDbEntity
  8
2
  6
Continuous
 62
    90
370
    18
100
AcDbLine
 10
977.5420054867716
 20
337.3931834661068
 30
0.0
 11
977.5420054867716
 21
484.3931834661068
 31
0.0
  0
LINE
  5
204
330
1F
100
AcDbEntity
  8
2
  6
Continuous
 62
    90
370
    18
100
AcDbLine
 10
844.5420054867716
 20
337.3931834661068
 30
0.0
 11
846.5234731441722
 21
337.3931834661068
 31
0.0
  0
LINE
  5
205
330
1F
100
AcDbEntity
  8
2
  6
Continuous
 62
    90
370
    18
100
AcDbLine
 10
970.9595778293722
 20
337.3931834661068
 30
0.0
 11
968.9781131441721
 21
337.3931834661068
 31
0.0
  0
LINE
  5
206
330
1F
100
AcDbEntity
  8
2
  6
Continuous
 62
    90
370
    18
100
AcDbLine
 10
968.9781131441721
 20
337.3931834661068
 30
0.0
 11
968.9781131441721
 21
484.3931834661068
 31
0.0
  0
LINE
  5
207
330
1F
100
AcDbEntity
  8
2
  6
Continuous
 62
    90
370
    18
100
AcDbLine
 10
970.9595778293722
 20
337.3931834661068
 30
0.0
 11
970.9595778293722
 21
484.3931834661068
 31
0.0
  0
LINE
  5
208
330
1F
100
AcDbEntity
  8
2
  6
Continuous
 62
    90
370
    18
100
AcDbLine
 10
846.5234731441722
 20
337.3931834661068
 30
0.0
 11
846.5234731441722
 21
484.3931834661068
 31
0.0
  0
LINE
  5
209
330
1F
100
AcDbEntity
  8
2
  6
Continuous
 62
    90
370
    18
100
AcDbLine
 10
844.5420054867716
 20
337.3931834661068
 30
0.0
 11
844.5420054867716
 21
484.3931834661068
 31
0.0
  0
LINE
  5
20A
330
1F
100
AcDbEntity
  8
6
  6
Continuous
 62
     7
370
     9
100
AcDbLine
 10
821.6472279695734
 20
1069.154548824468
 30
0.0
 11
832.9609364685581
 21
1080.468257323453
 31
0.0
  0
LINE
  5
20B
330
1F
100
AcDbEntity
  8
6
  6
Continuous
 62
     7
370
     9
100
AcDbLine
 10
821.6472279695734
 20
1069.154548824468
 30
0.0
 11
837.1020411901984
 21
1073.295653546109
 31
0.0
  0
POLYLINE
  5
20C
330
1F
100
AcDbEntity
  8
6
  6
Continuous
 62
     7
370
     9
100
AcDb2dPolyline
 66
     1
 10
0.0
 20
0.0
 30
0.0
  0
VERTEX
  5
20E
330
20C
100
AcDbEntity
  8
6
  6
Continuous
 62
     7
370
     9
100
AcDbVertex
100
AcDb2dVertex
 10
821.6472279695734
 20
1069.154548824468
 30
0.0
  0
VERTEX
  5
20F
330
20C
100
AcDbEntity
  8
6
  6
Continuous
 62
     7
370
     9
100
AcDbVertex
100
AcDb2dVertex
 10
964.7472279695837
 20
1151.77337234551
 30
0.0
  0
VERTEX
  5
210
330
20C
100
AcDbEntity
  8
6
  6
Continuous
 62
     7
370
     9
100
AcDbVertex
100
AcDb2dVertex
 10
1036.747227969583
 20
1151.77337234551
 30
0.0
  0
SEQEND
  5
20D
330
20C
100
AcDbEntity
  8
6
  6
Continuous
370
     9
  0
TEXT
  5
211
330
1F
100
AcDbEntity
  8
6
  6
Continuous
 62
     7
370
     9
100
AcDbText
 10
964.7472279695837
 20
1151.77337234551
 30
0.0
 40
24.0
  1
手すり
100
AcDbText
  0
LINE
  5
212
330
1F
100
AcDbEntity
  8
6
  6
Continuous
 62
     7
370
     9
100
AcDbLine
 10
1148.447227969595
 20
529.2212154910972
 30
0.0
 11
1152.588332691236
 21
544.6760287117222
 31
0.0
  0
LINE
  5
213
330
1F
100
AcDbEntity
  8
6
  6
Continuous
 62
     7
370
     9
100
AcDbLine
 10
1148.447227969595
 20
529.2212154910972
 30
0.0
 11
1159.76093646858
 21
540.5349239900819
 31
0.0
  0
POLYLINE
  5
214
330
1F
100
AcDbEntity
  8
6
  6
Continuous
 62
     7
370
     9
100
AcDb2dPolyline
 66
     1
 10
0.0
 20
0.0
 30
0.0
  0
VERTEX
  5
216
330
214
100
AcDbEntity
  8
6
  6
Continuous
 62
     7
370
     9
100
AcDbVertex
100
AcDb2dVertex
 10
1148.447227969595
 20
529.2212154910972
 30
0.0
  0
VERTEX
  5
217
330
214
100
AcDbEntity
  8
6
  6
Continuous
 62
     7
370
     9
100
AcDbVertex
100
AcDb2dVertex
 10
1228.467975279283
 20
667.8212154911066
 30
0.0
  0
VERTEX
  5
218
330
214
100
AcDbEntity
  8
6
  6
Continuous
 62
     7
370
     9
100
AcDbVertex
100
AcDb2dVertex
 10
1300.467975279283
 20
667.8212154911066
 30
0.0
  0
SEQEND
  5
215
330
214
100
AcDbEntity
  8
6
  6
Continuous
370
     9
  0
TEXT
  5
219
330
1F
100
AcDbEntity
  8
6
  6
Continuous
 62
     7
370
     9
100
AcDbText
 10
1228.467975279283
 20
667.8212154911066
 30
0.0
 40
24.0
  1
棚　板
100
AcDbText
  0
LINE
  5
21A
330
1F
100
AcDbEntity
  8
6
  6
Continuous
 62
     7
370
     9
100
AcDbLine
 10
1080.997227969591
 20
437.9712154910904
 30
0.0
 11
1096.452041190216
 21
433.83011076945
 31
0.0
  0
LINE
  5
21B
330
1F
100
AcDbEntity
  8
6
  6
Continuous
 62
     7
370
     9
100
AcDbLine
 10
1080.997227969591
 20
437.9712154910904
 30
0.0
 11
1092.310936468576
 21
426.6575069921057
 31
0.0
  0
POLYLINE
  5
21C
330
1F
100
AcDbEntity
  8
6
  6
Continuous
 62
     7
370
     9
100
AcDb2dPolyline
 66
     1
 10
0.0
 20
0.0
 30
0.0
  0
VERTEX
  5
21E
330
21C
100
AcDbEntity
  8
6
  6
Continuous
 62
     7
370
     9
100
AcDbVertex
100
AcDb2dVertex
 10
1080.997227969591
 20
437.9712154910904
 30
0.0
  0
VERTEX
  5
21F
330
21C
100
AcDbEntity
  8
6
  6
Continuous
 62
     7
370
     9
100
AcDbVertex
100
AcDb2dVertex
 10
1169.797227969598
 20
386.7025115870475
 30
0.0
  0
VERTEX
  5
220
330
21C
100
AcDbEntity
  8
6
  6
Continuous
 62
     7
370
     9
100
AcDbVertex
100
AcDb2dVertex
 10
1323.397227969598
 20
386.7025115870475
 30
0.0
  0
SEQEND
  5
21D
330
21C
100
AcDbEntity
  8
6
  6
Continuous
370
     9
  0
TEXT
  5
221
330
1F
100
AcDbEntity
  8
6
  6
Continuous
 62
     7
370
     9
100
AcDbText
 10
1169.797227969598
 20
386.7025115870475
 30
0.0
 40
24.0
  1
ペーパーホルダー
 41
0.8000000000000002
100
AcDbText
  0
INSERT
  5
307
330
1F
100
AcDbEntity
  8
0
100
AcDbBlockReference
  2
*G17
 10
0.0
 20
0.0
 30
0.0
  0
DIMENSION
  5
313
330
1F
100
AcDbEntity
  8
6
  6
Continuous
 62
     7
370
     9
100
AcDbDimension
  2
Dim2
 10
808.2494178293562
 20
965.4507043312998
 30
0.0
 11
872.6787770526341
 21
977.4507043312998
 31
0.0
 70
   160
  1
<>
 71
     5
 42
-1.0
  3
Standard
100
AcDbAlignedDimension
 13
808.2494178293562
 23
889.8507043312949
 33
0.0
 14
840.2494178293653
 24
889.8507043312949
 34
0.0
100
AcDbRotatedDimension
1001
ACAD
1000
DSTYLE
1002
{
1070
   344
1005
3C
1070
   343
1005
3C
1070
   173
1070
     1
1070
   289
1070
     2
1070
   279
1070
     2
1070
   288
1070
     1
1070
    77
1070
     3
1070
   172
1070
     1
1070
   174
1070
     0
1070
    74
1070
     0
1070
    73
1070
     0
1070
   284
1070
     8
1070
    78
1070
     8
1070
   140
1040
3.0
1070
    40
1040
8.0
1070
    42
1040
2.0
1070
    44
1040
1.0
1070
    43
1040
10.0
1070
   271
1070
     2
1070
    41
1040
2.0
1002
}
  0
DIMENSION
  5
31E
330
1F
100
AcDbEntity
  8
6
  6
Continuous
 62
     7
370
     9
100
AcDbDimension
  2
Dim3
 10
724.7494178293844
 20
539.3931834661068
 30
0.0
 11
712.7494178293844
 21
559.3271421040572
 31
0.0
 70
   160
  1
<>
 71
     5
 42
-1.0
  3
Standard
100
AcDbAlignedDimension
 13
804.7494178293716
 23
539.3931834661068
 33
0.0
 14
804.7494178293716
 24
519.3931834661068
 34
0.0
 50
89.99999999999991
100
AcDbRotatedDimension
1001
ACAD
1000
DSTYLE
1002
{
1070
   344
1005
3C
1070
   343
1005
3C
1070
   173
1070
     1
1070
   289
1070
     2
1070
   279
1070
     2
1070
   288
1070
     1
1070
    77
1070
     3
1070
   172
1070
     1
1070
   174
1070
     0
1070
    74
1070
     0
1070
    73
1070
     0
1070
   284
1070
     8
1070
    78
1070
     8
1070
   140
1040
3.0
1070
    40
1040
8.0
1070
    42
1040
2.0
1070
    44
1040
1.0
1070
    43
1040
10.0
1070
   271
1070
     2
1070
    41
1040
2.0
1002
}
  0
DIMENSION
  5
329
330
1F
100
AcDbEntity
  8
6
  6
Continuous
 62
     7
370
     9
100
AcDbDimension
  2
Dim4
 10
724.7494178293844
 20
519.3931834661068
 30
0.0
 11
712.7494178293844
 21
501.8931834661067
 31
0.0
 70
   160
  1
<>
 71
     5
 42
-1.0
  3
Standard
100
AcDbAlignedDimension
 13
804.7494178293716
 23
519.3931834661068
 33
0.0
 14
842.7494178293716
 24
484.3931834661068
 34
0.0
 50
89.99999999999991
100
AcDbRotatedDimension
1001
ACAD
1000
DSTYLE
1002
{
1070
   344
1005
3C
1070
   343
1005
3C
1070
   173
1070
     1
1070
   289
1070
     2
1070
   279
1070
     2
1070
   288
1070
     1
1070
    77
1070
     3
1070
   172
1070
     1
1070
   174
1070
     0
1070
    74
1070
     0
1070
    73
1070
     0
1070
   284
1070
     8
1070
    78
1070
     8
1070
   140
1040
3.0
1070
    40
1040
8.0
1070
    42
1040
2.0
1070
    44
1040
1.0
1070
    43
1040
10.0
1070
   271
1070
     2
1070
    41
1040
2.0
1002
}
  0
DIMENSION
  5
333
330
1F
100
AcDbEntity
  8
6
  6
Continuous
 62
     7
370
     9
100
AcDbDimension
  2
Dim5
 10
724.7494178293844
 20
484.3931834661068
 30
0.0
 11
712.7494178293844
 21
410.8931834661067
 31
0.0
 70
   160
  1
<>
 71
     5
 42
-1.0
  3
Standard
100
AcDbAlignedDimension
 13
842.7494178293716
 23
484.3931834661068
 33
0.0
 14
842.7494178293716
 24
337.3931834661067
 34
0.0
 50
90.0
100
AcDbRotatedDimension
1001
ACAD
1000
DSTYLE
1002
{
1070
   344
1005
3C
1070
   343
1005
3C
1070
   173
1070
     1
1070
   289
1070
     2
1070
   279
1070
     2
1070
   288
1070
     1
1070
    77
1070
     3
1070
   172
1070
     1
1070
   174
1070
     0
1070
    74
1070
     0
1070
    73
1070
     0
1070
   284
1070
     8
1070
    78
1070
     8
1070
   140
1040
3.0
1070
    40
1040
8.0
1070
    42
1040
2.0
1070
    44
1040
1.0
1070
    43
1040
10.0
1070
   271
1070
     2
1070
    41
1040
2.0
1002
}
  0
DIMENSION
  5
33F
330
1F
100
AcDbEntity
  8
6
  6
Continuous
 62
     7
370
     9
100
AcDbDimension
  2
Dim6
 10
668.7494178293844
 20
539.3931834661072
 30
0.0
 11
656.7494178293844
 21
438.3931834661072
 31
0.0
 70
   160
  1
<>
 71
     5
 42
-1.0
  3
Standard
100
AcDbAlignedDimension
 13
804.7494178293716
 23
539.3931834661068
 33
0.0
 14
842.7494178293716
 24
337.3931834661067
 34
0.0
 50
89.99999999999994
100
AcDbRotatedDimension
1001
ACAD
1000
DSTYLE
1002
{
1070
   344
1005
3C
1070
   343
1005
3C
1070
   173
1070
     1
1070
   289
1070
     2
1070
   279
1070
     2
1070
   288
1070
     1
1070
    77
1070
     3
1070
   172
1070
     1
1070
   174
1070
     0
1070
    74
1070
     0
1070
    73
1070
     0
1070
   284
1070
     8
1070
    78
1070
     8
1070
   140
1040
3.0
1070
    40
1040
8.0
1070
    42
1040
2.0
1070
    44
1040
1.0
1070
    43
1040
10.0
1070
   271
1070
     2
1070
    41
1040
2.0
1002
}
  0
DIMENSION
  5
34B
330
1F
100
AcDbEntity
  8
6
  6
Continuous
 62
     7
370
     9
100
AcDbDimension
  2
Dim7
 10
668.7494178293844
 20
639.3931834661072
 30
0.0
 11
656.7494178293844
 21
589.3931834661072
 31
0.0
 70
   160
  1
<>
 71
     5
 42
-1.0
  3
Standard
100
AcDbAlignedDimension
 13
804.7494178293716
 23
639.3931834661068
 33
0.0
 14
804.7494178293716
 24
539.3931834661068
 34
0.0
 50
89.99999999999991
100
AcDbRotatedDimension
1001
ACAD
1000
DSTYLE
1002
{
1070
   344
1005
3C
1070
   343
1005
3C
1070
   173
1070
     1
1070
   289
1070
     2
1070
   279
1070
     2
1070
   288
1070
     1
1070
    77
1070
     3
1070
   172
1070
     1
1070
   174
1070
     0
1070
    74
1070
     0
1070
    73
1070
     0
1070
   284
1070
     8
1070
    78
1070
     8
1070
   140
1040
3.0
1070
    40
1040
8.0
1070
    42
1040
2.0
1070
    44
1040
1.0
1070
    43
1040
10.0
1070
   271
1070
     2
1070
    41
1040
2.0
1002
}
  0
LINE
  5
34C
330
1F
100
AcDbEntity
  8
8
  6
Continuous
 62
   171
370
    18
100
AcDbLine
 10
1918.841872000001
 20
1130.785000000002
 30
0.0
 11
1918.841872000001
 21
890.7850000000021
 31
0.0
  0
LINE
  5
34D
330
1F
100
AcDbEntity
  8
8
  6
Continuous
 62
   171
370
    18
100
AcDbLine
 10
1739.420936
 20
1130.785000000002
 30
0.0
 11
1739.420936
 21
890.7850000000021
 31
0.0
  0
LINE
  5
34E
330
1F
100
AcDbEntity
  8
8
  6
Continuous
 62
   171
370
    18
100
AcDbLine
 10
1560.0
 20
1130.785000000002
 30
0.0
 11
1560.0
 21
890.7850000000021
 31
0.0
  0
TEXT
  5
34F
330
1F
100
AcDbEntity
  8
8
  6
Continuous
 62
   171
370
     9
100
AcDbText
 10
1620.910468
 20
1094.235954332392
 30
0.0
 40
24.0
  1
品　番
 41
0.8000000000000002
100
AcDbText
  0
TEXT
  5
350
330
1F
100
AcDbEntity
  8
8
  6
Continuous
 62
   171
370
     9
100
AcDbText
 10
1753.127043065689
 20
1046.678164762261
 30
0.0
 40
24.0
  1
オフホワイト
 41
0.7000000000000001
100
AcDbText
  0
LINE
  5
351
330
1F
100
AcDbEntity
  8
8
  6
Continuous
 62
   171
370
    18
100
AcDbLine
 10
2098.262808000001
 20
1130.785000000002
 30
0.0
 11
2098.262808000001
 21
890.7850000000021
 31
0.0
  0
LINE
  5
352
330
1F
100
AcDbEntity
  8
8
  6
Continuous
 62
   171
370
    18
100
AcDbLine
 10
1560.0
 20
890.7850000000021
 30
0.0
 11
2098.262808000001
 21
890.7850000000021
 31
0.0
  0
LINE
  5
353
330
1F
100
AcDbEntity
  8
8
  6
Continuous
 62
   171
370
    18
100
AcDbLine
 10
1560.0
 20
1130.785000000002
 30
0.0
 11
2098.262808000001
 21
1130.785000000002
 31
0.0
  0
LINE
  5
354
330
1F
100
AcDbEntity
  8
8
  6
Continuous
 62
   171
370
    18
100
AcDbLine
 10
1560.0
 20
1082.785000000002
 30
0.0
 11
2098.262808000001
 21
1082.785000000002
 31
0.0
  0
TEXT
  5
355
330
1F
100
AcDbEntity
  8
8
  6
Continuous
 62
   171
370
     9
100
AcDbText
 10
1781.098411646691
 20
1093.315475662429
 30
0.0
 40
24.0
  1
本　体　色
 41
0.8000000000000002
100
AcDbText
  0
TEXT
  5
356
330
1F
100
AcDbEntity
  8
8
  6
Continuous
 62
   171
370
     9
100
AcDbText
 10
1950.919347646691
 20
1093.315475662429
 30
0.0
 40
24.0
  1
棚・手すり色
 41
0.8000000000000002
100
AcDbText
  0
LINE
  5
357
330
1F
100
AcDbEntity
  8
8
  6
Continuous
 62
   171
370
    18
100
AcDbLine
 10
1560.0
 20
1034.785000000002
 30
0.0
 11
1918.841872000001
 21
1034.785000000002
 31
0.0
  0
LINE
  5
358
330
1F
100
AcDbEntity
  8
8
  6
Continuous
 62
   171
370
    18
100
AcDbLine
 10
1560.0
 20
986.7850000000021
 30
0.0
 11
1918.841872000001
 21
986.7850000000021
 31
0.0
  0
LINE
  5
359
330
1F
100
AcDbEntity
  8
8
  6
Continuous
 62
   171
370
    18
100
AcDbLine
 10
1560.0
 20
938.7850000000021
 30
0.0
 11
1918.841872000001
 21
938.7850000000021
 31
0.0
  0
TEXT
  5
35A
330
1F
100
AcDbEntity
  8
8
  6
Continuous
 62
   171
370
     9
100
AcDbText
 10
1753.127043065689
 20
999.1770687622598
 30
0.0
 40
24.0
  1
パステルアイボリー
 41
0.7000000000000001
100
AcDbText
  0
TEXT
  5
35B
330
1F
100
AcDbEntity
  8
8
  6
Continuous
 62
   171
370
     9
100
AcDbText
 10
1753.127043065689
 20
951.6759407622599
 30
0.0
 40
24.0
  1
パステルピンク
 41
0.7000000000000001
100
AcDbText
  0
TEXT
  5
35C
330
1F
100
AcDbEntity
  8
8
  6
Continuous
 62
   171
370
     9
100
AcDbText
 10
1753.127043065689
 20
903.6759407622599
 30
0.0
 40
24.0
  1
パステルブルー
 41
0.7000000000000001
100
AcDbText
  0
TEXT
  5
35D
330
1F
100
AcDbEntity
  8
8
  6
Continuous
 62
   171
370
     9
100
AcDbText
 10
1932.54797906569
 20
1022.286128000002
 30
0.0
 40
24.0
  1
Ｎ（ナチュラル）
 41
0.7000000000000001
100
AcDbText
  0
TEXT
  5
35E
330
1F
100
AcDbEntity
  8
8
  6
Continuous
 62
   171
370
     9
100
AcDbText
 10
1571.292919396381
 20
1142.235954332392
 30
0.0
 40
28.0
  1
品　番　表
100
AcDbText
  0
TEXT
  5
35F
330
1F
100
AcDbEntity
  8
8
  6
Continuous
 62
   171
370
     9
100
AcDbText
 10
1568.346666666667
 20
858.7850000000019
 30
0.0
 40
24.0
  1
※ ○に棚・手すり色記号を付記
100
AcDbText
  0
TEXT
  5
360
330
1F
100
AcDbEntity
  8
8
  6
Continuous
 62
   171
370
     9
100
AcDbText
 10
1604.0
 20
694.7850000000021
 30
0.0
 40
24.0
  1
名　称
100
AcDbText
  0
TEXT
  5
361
330
1F
100
AcDbEntity
  8
8
  6
Continuous
 62
   171
370
     9
100
AcDbText
 10
1569.903206233195
 20
742.2359543323923
 30
0.0
 40
28.0
  1
材　質　表
100
AcDbText
  0
TEXT
  5
362
330
1F
100
AcDbEntity
  8
8
  6
Continuous
 62
   171
370
     9
100
AcDbText
 10
1568.0
 20
646.7850000000021
 30
0.0
 40
24.0
  1
ﾍﾟｰﾊﾟｰﾎﾙﾀﾞｰ本体
 41
0.7999999999999997
100
AcDbText
  0
TEXT
  5
363
330
1F
100
AcDbEntity
  8
8
  6
Continuous
 62
   171
370
     9
100
AcDbText
 10
1803.999999999999
 20
694.7850000000021
 30
0.0
 40
24.0
  1
材　質
100
AcDbText
  0
LINE
  5
364
330
1F
100
AcDbEntity
  8
8
  6
Continuous
 62
   171
370
    18
100
AcDbLine
 10
1560.0
 20
586.7850000000021
 30
0.0
 11
1959.999999999999
 21
586.7850000000021
 31
0.0
  0
LINE
  5
365
330
1F
100
AcDbEntity
  8
8
  6
Continuous
 62
   171
370
    18
100
AcDbLine
 10
1560.0
 20
634.7850000000021
 30
0.0
 11
1959.999999999999
 21
634.7850000000021
 31
0.0
  0
LINE
  5
366
330
1F
100
AcDbEntity
  8
8
  6
Continuous
 62
   171
370
    18
100
AcDbLine
 10
1560.0
 20
730.7850000000021
 30
0.0
 11
1959.999999999999
 21
730.7850000000021
 31
0.0
  0
LINE
  5
367
330
1F
100
AcDbEntity
  8
8
  6
Continuous
 62
   171
370
    18
100
AcDbLine
 10
1560.0
 20
682.7850000000021
 30
0.0
 11
1959.999999999999
 21
682.7850000000021
 31
0.0
  0
TEXT
  5
368
330
1F
100
AcDbEntity
  8
8
  6
Continuous
 62
   171
370
     9
100
AcDbText
 10
1724.799999999999
 20
646.7850000000021
 30
0.0
 40
24.0
  1
ＡＢＳ樹脂＋ウレタン樹脂
 41
0.7999999999999997
100
AcDbText
  0
LINE
  5
369
330
1F
100
AcDbEntity
  8
8
  6
Continuous
 62
   171
370
    18
100
AcDbLine
 10
1560.0
 20
538.7850000000021
 30
0.0
 11
1959.999999999999
 21
538.7850000000021
 31
0.0
  0
LINE
  5
36A
330
1F
100
AcDbEntity
  8
8
  6
Continuous
 62
   171
370
    18
100
AcDbLine
 10
1560.0
 20
538.7850000000019
 30
0.0
 11
1560.0
 21
730.7850000000021
 31
0.0
  0
LINE
  5
36B
330
1F
100
AcDbEntity
  8
8
  6
Continuous
 62
   171
370
    18
100
AcDbLine
 10
1720.0
 20
538.7850000000021
 30
0.0
 11
1720.0
 21
730.7850000000021
 31
0.0
  0
LINE
  5
36C
330
1F
100
AcDbEntity
  8
8
  6
Continuous
 62
   171
370
    18
100
AcDbLine
 10
1959.999999999999
 20
538.7850000000024
 30
0.0
 11
1959.999999999999
 21
730.7850000000021
 31
0.0
  0
TEXT
  5
36D
330
1F
100
AcDbEntity
  8
8
  6
Continuous
 62
   171
370
     9
100
AcDbText
 10
1611.2
 20
598.7850000000021
 30
0.0
 40
24.0
  1
手すり
 41
0.7999999999999997
100
AcDbText
  0
TEXT
  5
36E
330
1F
100
AcDbEntity
  8
8
  6
Continuous
 62
   171
370
     9
100
AcDbText
 10
1611.2
 20
550.7850000000021
 30
0.0
 40
24.0
  1
棚　板
 41
0.7999999999999997
100
AcDbText
  0
TEXT
  5
36F
330
1F
100
AcDbEntity
  8
8
  6
Continuous
 62
   171
370
     9
100
AcDbText
 10
1753.6
 20
598.7850000000021
 30
0.0
 40
24.0
  1
ラバーウッド集成材
 41
0.7999999999999997
100
AcDbText
  0
TEXT
  5
370
330
1F
100
AcDbEntity
  8
8
  6
Continuous
 62
   171
370
     9
100
AcDbText
 10
1730.799999999999
 20
550.7850000000021
 30
0.0
 40
24.0
  1
ラバーウッド集成材＋ＳＵＳ
 41
0.7
100
AcDbText
  0
TEXT
  5
371
330
1F
100
AcDbEntity
  8
8
  6
Continuous
 62
   171
370
     9
100
AcDbText
 10
1932.54797906569
 20
926.7850000000021
 30
0.0
 40
24.0
  1
Ｄ（ダーク）
 41
0.7000000000000001
100
AcDbText
  0
TEXT
  5
372
330
1F
100
AcDbEntity
  8
8
  6
Continuous
 62
   171
370
     9
100
AcDbText
 10
1932.54797906569
 20
974.7850000000021
 30
0.0
 40
24.0
  1
Ｂ（ブラウン）
 41
0.7000000000000001
100
AcDbText
  0
INSERT
  5
379
330
1F
100
AcDbEntity
  8
0
100
AcDbBlockReference
  2
*G24
 10
0.0
 20
0.0
 30
0.0
  0
DIMENSION
  5
385
330
1F
100
AcDbEntity
  8
6
  6
Continuous
 62
     7
370
     9
100
AcDbDimension
  2
Dim8
 10
804.7494178293689
 20
201.3931834661068
 30
0.0
 11
1104.749417829369
 21
213.3931834661068
 31
0.0
 70
   160
  1
<>
 71
     5
 42
-1.0
  3
Standard
100
AcDbAlignedDimension
 13
804.7494178293716
 23
519.3931834661068
 33
0.0
 14
1404.749417829372
 24
521.3931834661068
 34
0.0
100
AcDbRotatedDimension
1001
ACAD
1000
DSTYLE
1002
{
1070
   344
1005
3C
1070
   343
1005
3C
1070
   173
1070
     1
1070
   289
1070
     2
1070
   279
1070
     2
1070
   288
1070
     1
1070
    77
1070
     3
1070
   172
1070
     1
1070
   174
1070
     0
1070
    74
1070
     0
1070
    73
1070
     0
1070
   284
1070
     8
1070
    78
1070
     8
1070
   140
1040
3.0
1070
    40
1040
8.0
1070
    42
1040
2.0
1070
    44
1040
1.0
1070
    43
1040
10.0
1070
   271
1070
     2
1070
    41
1040
2.0
1002
}
  0
ARC
  5
386
330
1F
100
AcDbEntity
  8
2
  6
Continuous
 62
    90
370
    18
100
AcDbCircle
 10
420.8136823654929
 20
529.3931834661068
 30
0.0
 40
10.0
100
AcDbArc
 50
269.9999999999998
 51
89.99999999999991
  0
INSERT
  5
38C
330
1F
100
AcDbEntity
  8
0
100
AcDbBlockReference
  2
*G26
 10
0.0
 20
0.0
 30
0.0
  0
DIMENSION
  5
397
330
1F
100
AcDbEntity
  8
6
  6
Continuous
 62
     7
370
     9
100
AcDbDimension
  2
Dim9
 10
804.7494178293712
 20
257.3931834661073
 30
0.0
 11
823.7494178293709
 21
269.3931834661073
 31
0.0
 70
   160
  1
<>
 71
     5
 42
-1.0
  3
Standard
100
AcDbAlignedDimension
 13
804.7494178293716
 23
519.3931834661068
 33
0.0
 14
842.7494178293716
 24
337.3931834661068
 34
0.0
100
AcDbRotatedDimension
1001
ACAD
1000
DSTYLE
1002
{
1070
   344
1005
3C
1070
   343
1005
3C
1070
   173
1070
     1
1070
   289
1070
     2
1070
   279
1070
     2
1070
   288
1070
     1
1070
    77
1070
     3
1070
   172
1070
     1
1070
   174
1070
     0
1070
    74
1070
     0
1070
    73
1070
     0
1070
   284
1070
     8
1070
    78
1070
     8
1070
   140
1040
3.0
1070
    40
1040
8.0
1070
    42
1040
2.0
1070
    44
1040
1.0
1070
    43
1040
10.0
1070
   271
1070
     2
1070
    41
1040
2.0
1002
}
  0
DIMENSION
  5
3A2
330
1F
100
AcDbEntity
  8
6
  6
Continuous
 62
     7
370
     9
100
AcDbDimension
  2
Dim10
 10
842.7494178293714
 20
257.3931834661073
 30
0.0
 11
974.2507916580716
 21
269.3931834661073
 31
0.0
 70
   160
  1
<>
 71
     5
 42
-1.0
  3
Standard
100
AcDbAlignedDimension
 13
842.7494178293716
 23
337.3931834661068
 33
0.0
 14
1105.752165486771
 24
337.3931834661068
 34
0.0
100
AcDbRotatedDimension
1001
ACAD
1000
DSTYLE
1002
{
1070
   344
1005
3C
1070
   343
1005
3C
1070
   173
1070
     1
1070
   289
1070
     2
1070
   279
1070
     2
1070
   288
1070
     1
1070
    77
1070
     3
1070
   172
1070
     1
1070
   174
1070
     0
1070
    74
1070
     0
1070
    73
1070
     0
1070
   284
1070
     8
1070
    78
1070
     8
1070
   140
1040
3.0
1070
    40
1040
8.0
1070
    42
1040
2.0
1070
    44
1040
1.0
1070
    43
1040
10.0
1070
   271
1070
     2
1070
    41
1040
2.0
1002
}
  0
DIMENSION
  5
3AD
330
1F
100
AcDbEntity
  8
6
  6
Continuous
 62
     7
370
     9
100
AcDbDimension
  2
Dim11
 10
1105.752165486771
 20
257.3931834661073
 30
0.0
 11
1234.250791504996
 21
269.3931834661073
 31
0.0
 70
   160
  1
<>
 71
     5
 42
-1.0
  3
Standard
100
AcDbAlignedDimension
 13
1105.752165486771
 23
337.3931834661068
 33
0.0
 14
1362.74941752322
 24
456.4041388508792
 34
0.0
100
AcDbRotatedDimension
1001
ACAD
1000
DSTYLE
1002
{
1070
   344
1005
3C
1070
   343
1005
3C
1070
   173
1070
     1
1070
   289
1070
     2
1070
   279
1070
     2
1070
   288
1070
     1
1070
    77
1070
     3
1070
   172
1070
     1
1070
   174
1070
     0
1070
    74
1070
     0
1070
    73
1070
     0
1070
   284
1070
     8
1070
    78
1070
     8
1070
   140
1040
3.0
1070
    40
1040
8.0
1070
    42
1040
2.0
1070
    44
1040
1.0
1070
    43
1040
10.0
1070
   271
1070
     2
1070
    41
1040
2.0
1002
}
  0
DIMENSION
  5
3B7
330
1F
100
AcDbEntity
  8
6
  6
Continuous
 62
     7
370
     9
100
AcDbDimension
  2
Dim12
 10
1362.74941752322
 20
257.3931834661073
 30
0.0
 11
1383.749417676295
 21
269.3931834661073
 31
0.0
 70
   160
  1
<>
 71
     5
 42
-1.0
  3
Standard
100
AcDbAlignedDimension
 13
1362.74941752322
 23
456.4041388508792
 33
0.0
 14
1404.749417829372
 24
521.3931834661068
 34
0.0
100
AcDbRotatedDimension
1001
ACAD
1000
DSTYLE
1002
{
1070
   344
1005
3C
1070
   343
1005
3C
1070
   173
1070
     1
1070
   289
1070
     2
1070
   279
1070
     2
1070
   288
1070
     1
1070
    77
1070
     3
1070
   172
1070
     1
1070
   174
1070
     0
1070
    74
1070
     0
1070
    73
1070
     0
1070
   284
1070
     8
1070
    78
1070
     8
1070
   140
1040
3.0
1070
    40
1040
8.0
1070
    42
1040
2.0
1070
    44
1040
1.0
1070
    43
1040
10.0
1070
   271
1070
     2
1070
    41
1040
2.0
1002
}
  0
LINE
  5
3B8
330
1F
100
AcDbEntity
  8
2
  6
Continuous
 62
    90
370
    18
100
AcDbLine
 10
1362.749417829372
 20
516.3931834661068
 30
0.0
 11
1335.749417829372
 21
516.3931834661068
 31
0.0
  0
LINE
  5
3B9
330
1F
100
AcDbEntity
  8
2
  6
Continuous
 62
    90
370
    18
100
AcDbLine
 10
1335.749417829372
 20
516.3931834661068
 30
0.0
 11
1335.749417829372
 21
491.3931834661068
 31
0.0
  0
LINE
  5
3BA
330
1F
100
AcDbEntity
  8
2
  6
Continuous
 62
    90
370
    18
100
AcDbLine
 10
1335.749417829372
 20
491.3931834661068
 30
0.0
 11
1332.749417829372
 21
491.3931834661068
 31
0.0
  0
CIRCLE
  5
3BB
330
1F
100
AcDbEntity
  8
1
  6
Continuous
 62
    45
370
     9
100
AcDbCircle
 10
1349.749417829372
 20
504.3931834661068
 30
0.0
 40
2.5
  0
LINE
  5
3BC
330
1F
100
AcDbEntity
  8
2
  6
Continuous
 62
    90
370
    18
100
AcDbLine
 10
1337.749417829372
 20
456.3931834661068
 30
0.0
 11
1357.749417829372
 21
456.3931834661068
 31
0.0
  0
INSERT
  5
3C4
330
1F
100
AcDbEntity
  8
0
100
AcDbBlockReference
  2
*G31
 10
0.0
 20
0.0
 30
0.0
  0
ARC
  5
3C5
330
1F
100
AcDbEntity
  8
2
  6
Continuous
 62
    90
370
    18
100
AcDbCircle
 10
1337.749417829372
 20
461.3931834661068
 30
0.0
 40
5.0
100
AcDbArc
 50
179.9999999999948
 51
269.9999999999998
  0
CIRCLE
  5
3C6
330
1F
100
AcDbEntity
  8
1
  6
Continuous
 62
    45
370
     9
100
AcDbCircle
 10
1349.749417829372
 20
469.3931834661068
 30
0.0
 40
2.5
  0
LINE
  5
3C7
330
1F
100
AcDbEntity
  8
1
  6
DASHDOT
 62
    45
370
     9
100
AcDbLine
 10
274.6912394452016
 20
654.8931834661068
 30
0.0
 11
388.8482764822388
 21
654.8931834661068
 31
0.0
  0
LINE
  5
3C8
330
1F
100
AcDbEntity
  8
2
  6
Continuous
 62
    90
370
    18
100
AcDbLine
 10
808.2494178293698
 20
1220.393183466107
 30
0.0
 11
808.2494178293844
 21
690.3931834661086
 31
0.0
  0
LINE
  5
3C9
330
1F
100
AcDbEntity
  8
2
  6
Continuous
 62
    90
370
    18
100
AcDbLine
 10
840.2494178293653
 20
690.3931834661067
 30
0.0
 11
840.2494178293698
 21
1220.393183466107
 31
0.0
  0
INSERT
  5
4AF
330
1F
100
AcDbEntity
  8
0
100
AcDbBlockReference
  2
*G32
 10
0.0
 20
0.0
 30
0.0
  0
DIMENSION
  5
4BB
330
1F
100
AcDbEntity
  8
6
  6
Continuous
 62
     7
370
     9
100
AcDbDimension
  2
Dim13
 10
668.7494178293844
 20
1271.393183466108
 30
0.0
 11
656.7494178293844
 21
955.3931834661074
 31
0.0
 70
   160
  1
<>
 71
     5
 42
-1.0
  3
Standard
100
AcDbAlignedDimension
 13
804.7494178293716
 23
1271.393183466107
 33
0.0
 14
804.7494178293716
 24
639.3931834661068
 34
0.0
 50
89.99999999999991
100
AcDbRotatedDimension
1001
ACAD
1000
DSTYLE
1002
{
1070
   344
1005
3C
1070
   343
1005
3C
1070
   173
1070
     1
1070
   289
1070
     2
1070
   279
1070
     2
1070
   288
1070
     1
1070
    77
1070
     3
1070
   172
1070
     1
1070
   174
1070
     0
1070
    74
1070
     0
1070
    73
1070
     0
1070
   284
1070
     8
1070
    78
1070
     8
1070
   140
1040
3.0
1070
    40
1040
8.0
1070
    42
1040
2.0
1070
    44
1040
1.0
1070
    43
1040
10.0
1070
   271
1070
     2
1070
    41
1040
2.0
1002
}
  0
LINE
  5
4BC
330
1F
100
AcDbEntity
  8
7
  6
Continuous
 62
   132
370
     9
100
AcDbLine
 10
297.8136823654929
 20
1445.361338641806
 30
0.0
 11
297.8136823654929
 21
139.2292401824304
 31
0.0
  0
LINE
  5
4BD
330
1F
100
AcDbEntity
  8
2
  6
Continuous
 62
    90
370
    18
100
AcDbLine
 10
336.8136823654925
 20
1219.393183466108
 30
0.0
 11
336.813682365507
 21
690.3931837722583
 31
0.0
  0
LINE
  5
4BE
330
1F
100
AcDbEntity
  8
2
  6
Continuous
 62
    90
370
    18
100
AcDbLine
 10
368.8136823654879
 20
690.3931837722583
 30
0.0
 11
368.8136823654925
 21
1219.393183466107
 31
0.0
  0
INSERT
  5
4D5
330
1F
100
AcDbEntity
  8
0
100
AcDbBlockReference
  2
*G34
 10
0.0
 20
0.0
 30
0.0
  0
DIMENSION
  5
4E1
330
1F
100
AcDbEntity
  8
6
  6
Continuous
 62
     7
370
     9
100
AcDbDimension
  2
Dim14
 10
297.8136823654933
 20
1350.393183159956
 30
0.0
 11
335.3136823654929
 21
1362.393183159956
 31
0.0
 70
   160
  1
<>
 71
     5
 42
-1.0
  3
Standard
100
AcDbAlignedDimension
 13
297.8136823654929
 23
1270.393183159956
 33
0.0
 14
372.813682365492
 24
1270.393183159956
 34
0.0
100
AcDbRotatedDimension
1001
ACAD
1000
DSTYLE
1002
{
1070
   344
1005
3C
1070
   343
1005
3C
1070
   173
1070
     1
1070
   289
1070
     2
1070
   279
1070
     2
1070
   288
1070
     1
1070
    77
1070
     3
1070
   172
1070
     1
1070
   174
1070
     0
1070
    74
1070
     0
1070
    73
1070
     0
1070
   284
1070
     8
1070
    78
1070
     8
1070
   140
1040
3.0
1070
    40
1040
8.0
1070
    42
1040
2.0
1070
    44
1040
1.0
1070
    43
1040
10.0
1070
   271
1070
     2
1070
    41
1040
2.0
1002
}
  0
LINE
  5
4E2
330
1F
100
AcDbEntity
  8
1
  6
DASHDOT
 62
    45
370
     9
100
AcDbLine
 10
274.6912394452016
 20
1254.893183466107
 30
0.0
 11
388.8482764822388
 21
1254.893183466107
 31
0.0
  0
DIMENSION
  5
4EE
330
1F
100
AcDbEntity
  8
6
  6
Continuous
 62
     7
370
     9
100
AcDbDimension
  2
Dim15
 10
217.8136823654929
 20
654.8931834661072
 30
0.0
 11
205.8136823654929
 21
954.8931834661071
 31
0.0
 70
   160
  1
<>
 71
     5
 42
-1.0
  3
Standard
100
AcDbAlignedDimension
 13
297.8136823654929
 23
654.8931834661068
 33
0.0
 14
297.8136823654929
 24
1254.893183466107
 34
0.0
 50
89.99999999999991
100
AcDbRotatedDimension
1001
ACAD
1000
DSTYLE
1002
{
1070
   344
1005
3C
1070
   343
1005
3C
1070
   173
1070
     1
1070
   289
1070
     2
1070
   279
1070
     2
1070
   288
1070
     1
1070
    77
1070
     3
1070
   172
1070
     1
1070
   174
1070
     0
1070
    74
1070
     0
1070
    73
1070
     0
1070
   284
1070
     8
1070
    78
1070
     8
1070
   140
1040
3.0
1070
    40
1040
8.0
1070
    42
1040
2.0
1070
    44
1040
1.0
1070
    43
1040
10.0
1070
   271
1070
     2
1070
    41
1040
2.0
1002
}
  0
TEXT
  5
4EF
330
1F
100
AcDbEntity
  8
18
  6
Continuous
 62
     7
370
     9
100
AcDbText
 10
963.694783525139
 20
1127.77337234551
 30
0.0
 40
24.0
  1
ＴＧＷＳ－３２Ｓ６００
 41
0.7999999999999999
100
AcDbText
  0
ARC
  5
4F0
330
1F
100
AcDbEntity
  8
2
  6
Continuous
 62
    90
370
    18
100
AcDbCircle
 10
814.7494178293716
 20
529.3931834661068
 30
0.0
 40
10.0
100
AcDbArc
 50
89.99999999999991
 51
269.9999999999998
  0
ARC
  5
4F1
330
1F
100
AcDbEntity
  8
2
  6
Continuous
 62
    90
370
    18
100
AcDbCircle
 10
1394.749417829372
 20
529.3931834661068
 30
0.0
 40
10.0
100
AcDbArc
 50
269.9999999999998
 51
89.99999999999991
  0
INSERT
  5
4F7
330
1F
100
AcDbEntity
  8
0
100
AcDbBlockReference
  2
*G37
 10
0.0
 20
0.0
 30
0.0
  0
TEXT
  5
4F8
330
1F
100
AcDbEntity
  8
8
  6
Continuous
 62
   171
370
     9
100
AcDbText
 10
1544.8
 20
175.9999999999999
 30
0.0
 40
32.0
  1
ＰＲ－２ＢＬＳ
 41
0.6000000000000001
100
AcDbText
  0
TEXT
  5
4F9
330
1F
100
AcDbEntity
  8
8
  6
Continuous
 62
   171
370
     9
100
AcDbText
 10
2008.0
 20
152.0
 30
0.0
 40
32.0
  1
大野
100
AcDbText
  0
TEXT
  5
4FA
330
1F
100
AcDbEntity
  8
8
  6
Continuous
 62
   171
370
     9
100
AcDbText
 10
2104.0
 20
152.0
 30
0.0
 40
32.0
  1
深川
100
AcDbText
  0
TEXT
  5
4FB
330
1F
100
AcDbEntity
  8
8
  6
Continuous
 62
   171
370
     9
100
AcDbText
 10
2096.0
 20
108.0
 30
0.0
 40
24.0
  1
２０１３年０２月０７日
 41
0.6666666666666666
100
AcDbText
  0
TEXT
  5
4FC
330
1F
100
AcDbEntity
  8
8
  6
Continuous
 62
   171
370
     9
100
AcDbText
 10
1582.233764463442
 20
1045.814347662429
 30
0.0
 40
24.0
  1
PR-2BLS-S/○
100
AcDbText
  0
TEXT
  5
4FD
330
1F
100
AcDbEntity
  8
8
  6
Continuous
 62
   171
370
     9
100
AcDbText
 10
1582.233764463442
 20
997.8143476624286
 30
0.0
 40
24.0
  1
PR-2BLS-i/○
100
AcDbText
  0
TEXT
  5
4FE
330
1F
100
AcDbEntity
  8
8
  6
Continuous
 62
   171
370
     9
100
AcDbText
 10
1582.233764463442
 20
949.8143476624286
 30
0.0
 40
24.0
  1
PR-2BLS-P/○
100
AcDbText
  0
TEXT
  5
4FF
330
1F
100
AcDbEntity
  8
8
  6
Continuous
 62
   171
370
     9
100
AcDbText
 10
1582.233764463442
 20
901.8143476624286
 30
0.0
 40
24.0
  1
PR-2BLS-A/○
100
AcDbText
  0
VIEWPORT
  5
2A
330
1B
100
AcDbEntity
 67
     1
  8
0
100
AcDbViewport
 10
1188.0
 20
840.0
 30
0.0
 40
2376.0
 41
1680.0
 68
     1
 69
     1
 12
1188.0
 22
840.0
 13
0.0
 23
0.0
 14
0.5
 24
0.5
 15
0.5
 25
0.5
 16
0.0
 26
0.0
 36
1.0
 17
0.0
 27
0.0
 37
0.0
 42
50.0
 43
0.0
 44
0.0
 45
9.0
 50
0.0
 51
0.0
 72
   100
 90
    32800
  1

281
     0
 71
     1
 74
     0
110
0.0
120
0.0
130
0.0
111
1.0
121
0.0
131
0.0
112
0.0
122
1.0
132
0.0
 79
     0
146
0.0
170
     0
  0
ENDSEC
  0
SECTION
  2
OBJECTS
  0
DICTIONARY
  5
C
330
0
100
AcDbDictionary
281
     1
  3
ACAD_GROUP
350
D
  3
ACAD_LAYOUT
350
1A
  3
ACAD_MLINESTYLE
350
17
  3
ACAD_PLOTSETTINGS
350
19
  3
ACAD_PLOTSTYLENAME
350
E
  0
DICTIONARY
  5
D
102
{ACAD_REACTORS
330
C
102
}
330
C
100
AcDbDictionary
281
     1
  0
DICTIONARY
  5
1A
102
{ACAD_REACTORS
330
C
102
}
330
C
100
AcDbDictionary
281
     1
  3
Layout1
350
1E
  3
Layout2
350
26
  3
Model
350
22
  0
DICTIONARY
  5
17
102
{ACAD_REACTORS
330
C
102
}
330
C
100
AcDbDictionary
281
     1
  3
Standard
350
18
  0
DICTIONARY
  5
19
102
{ACAD_REACTORS
330
C
102
}
330
C
100
AcDbDictionary
281
     1
  0
ACDBDICTIONARYWDFLT
  5
E
102
{ACAD_REACTORS
330
C
102
}
330
C
100
AcDbDictionary
281
     1
  3
Normal
350
F
100
AcDbDictionaryWithDefault
340
F
  0
LAYOUT
  5
1E
102
{ACAD_REACTORS
330
1A
102
}
330
1A
100
AcDbPlotSettings
  1

  2

  4

  6

 40
0.0
 41
0.0
 42
0.0
 43
0.0
 44
0.0
 45
0.0
 46
0.0
 47
0.0
 48
0.0
 49
0.0
140
0.0
141
0.0
142
1.0
143
1.0
 70
   688
 72
     0
 73
     0
 74
     5
  7

 75
    16
 76
     0
 77
     2
 78
   300
147
1.0
148
0.0
149
0.0
100
AcDbLayout
  1
Layout1
 70
     1
 71
     1
 10
0.0
 20
0.0
 11
297.0
 21
210.0
 12
0.0
 22
0.0
 32
0.0
 14
0.0
 24
0.0
 34
0.0
 15
297.0
 25
210.0
 35
0.0
146
0.0
 13
0.0
 23
0.0
 33
0.0
 16
1.0
 26
0.0
 36
0.0
 17
0.0
 27
1.0
 37
0.0
 76
     0
330
1B
331
2A
  0
LAYOUT
  5
26
102
{ACAD_REACTORS
330
1A
102
}
330
1A
100
AcDbPlotSettings
  1

  2

  4

  6

 40
0.0
 41
0.0
 42
0.0
 43
0.0
 44
0.0
 45
0.0
 46
0.0
 47
0.0
 48
0.0
 49
0.0
140
0.0
141
0.0
142
1.0
143
1.0
 70
   688
 72
     0
 73
     0
 74
     5
  7

 75
    16
 76
     0
 77
     2
 78
   300
147
1.0
148
0.0
149
0.0
100
AcDbLayout
  1
Layout2
 70
     1
 71
     2
 10
0.0
 20
0.0
 11
0.0
 21
0.0
 12
0.0
 22
0.0
 32
0.0
 14
0.0
 24
0.0
 34
0.0
 15
0.0
 25
0.0
 35
0.0
146
0.0
 13
0.0
 23
0.0
 33
0.0
 16
1.0
 26
0.0
 36
0.0
 17
0.0
 27
1.0
 37
0.0
 76
     0
330
23
  0
LAYOUT
  5
22
102
{ACAD_REACTORS
330
1A
102
}
330
1A
100
AcDbPlotSettings
  1

  2

  4

  6

 40
0.0
 41
0.0
 42
0.0
 43
0.0
 44
0.0
 45
0.0
 46
0.0
 47
0.0
 48
0.0
 49
0.0
140
0.0
141
0.0
142
1.0
143
1.0
 70
  1712
 72
     0
 73
     0
 74
     0
  7

 75
     0
 76
     0
 77
     2
 78
   300
147
1.0
148
0.0
149
0.0
100
AcDbLayout
  1
Model
 70
     1
 71
     0
 10
0.0
 20
0.0
 11
2376.0
 21
1680.0
 12
0.0
 22
0.0
 32
0.0
 14
0.0
 24
0.0
 34
0.0
 15
2376.0
 25
1680.0
 35
0.0
146
0.0
 13
0.0
 23
0.0
 33
0.0
 16
1.0
 26
0.0
 36
0.0
 17
0.0
 27
1.0
 37
0.0
 76
     0
330
1F
  0
MLINESTYLE
  5
18
102
{ACAD_REACTORS
330
17
102
}
330
17
100
AcDbMlineStyle
  2
Standard
 70
     0
  3

 62
   256
 51
90.0
 52
90.0
 71
     2
 49
0.5
 62
   256
  6
BYLAYER
 49
-0.5
 62
   256
  6
BYLAYER
  0
ACDBPLACEHOLDER
  5
F
102
{ACAD_REACTORS
330
E
102
}
330
E
  0
ENDSEC
  0
EOF
