  0
SECTION
  2
HEADER
  9
$ACADVER
  1
AC1018
  9
$ACADMAINTVER
 70
     0
  9
$DWGCODEPAGE
  3
ANSI_932
  9
$INSBASE
 10
0.0
 20
0.0
 30
0.0
  9
$EXTMIN
 10
0.0
 20
0.0
 30
0.0
  9
$EXTMAX
 10
2376.0
 20
1680.0
 30
0.0
  9
$LIMMIN
 10
0.0
 20
0.0
  9
$LIMMAX
 10
2376.0
 20
1680.0
  9
$ORTHOMODE
 70
     0
  9
$REGENMODE
 70
     1
  9
$FILLMODE
 70
     1
  9
$QTEXTMODE
 70
     0
  9
$MIRRTEXT
 70
     1
  9
$LTSCALE
 40
2.0
  9
$ATTMODE
 70
     1
  9
$TEXTSIZE
 40
24.0
  9
$TRACEWID
 40
0.05
  9
$TEXTSTYLE
  7
Standard
  9
$CLAYER
  8
0
  9
$CELTYPE
  6
ByLayer
  9
$CECOLOR
 62
   256
  9
$CELTSCALE
 40
1.0
  9
$DISPSILH
 70
     0
  9
$DIMSCALE
 40
8.0
  9
$DIMASZ
 40
2.0
  9
$DIMEXO
 40
2.0
  9
$DIMDLI
 40
10.0
  9
$DIMRND
 40
0.0
  9
$DIMDLE
 40
0.0
  9
$DIMEXE
 40
1.0
  9
$DIMTP
 40
0.0
  9
$DIMTM
 40
0.0
  9
$DIMTXT
 40
3.0
  9
$DIMCEN
 40
0.09
  9
$DIMTSZ
 40
0.0
  9
$DIMTOL
 70
     0
  9
$DIMLIM
 70
     0
  9
$DIMTIH
 70
     0
  9
$DIMTOH
 70
     0
  9
$DIMSE1
 70
     0
  9
$DIMSE2
 70
     0
  9
$DIMTAD
 70
     3
  9
$DIMZIN
 70
     8
  9
$DIMBLK
  1

  9
$DIMASO
 70
     1
  9
$DIMSHO
 70
     1
  9
$DIMPOST
  1

  9
$DIMAPOST
  1

  9
$DIMALT
 70
     0
  9
$DIMALTD
 70
     2
  9
$DIMALTF
 40
25.4
  9
$DIMLFAC
 40
1.0
  9
$DIMTOFL
 70
     1
  9
$DIMTVP
 40
0.7
  9
$DIMTIX
 70
     0
  9
$DIMSOXD
 70
     0
  9
$DIMSAH
 70
     0
  9
$DIMBLK1
  1

  9
$DIMBLK2
  1

  9
$DIMSTYLE
  2
Standard
  9
$DIMCLRD
 70
     0
  9
$DIMCLRE
 70
     0
  9
$DIMCLRT
 70
     0
  9
$DIMTFAC
 40
0.5
  9
$DIMGAP
 40
0.09
  9
$DIMJUST
 70
     0
  9
$DIMSD1
 70
     0
  9
$DIMSD2
 70
     0
  9
$DIMTOLJ
 70
     1
  9
$DIMTZIN
 70
     8
  9
$DIMALTZ
 70
     0
  9
$DIMALTTZ
 70
     0
  9
$DIMUPT
 70
     1
  9
$DIMDEC
 70
     2
  9
$DIMTDEC
 70
     4
  9
$DIMALTU
 70
     2
  9
$DIMALTTD
 70
     2
  9
$DIMTXSTY
  7
Standard
  9
$DIMAUNIT
 70
     0
  9
$DIMADEC
 70
     0
  9
$DIMALTRND
 40
0.0
  9
$DIMAZIN
 70
     0
  9
$DIMDSEP
 70
    46
  9
$DIMATFIT
 70
     2
  9
$DIMFRAC
 70
     0
  9
$DIMLDRBLK
  1

  9
$DIMLUNIT
 70
     2
  9
$DIMLWD
 70
    -2
  9
$DIMLWE
 70
    -2
  9
$DIMTMOVE
 70
     2
  9
$LUNITS
 70
     2
  9
$LUPREC
 70
     4
  9
$SKETCHINC
 40
0.1
  9
$FILLETRAD
 40
0.5
  9
$AUNITS
 70
     0
  9
$AUPREC
 70
     0
  9
$MENU
  1
.
  9
$ELEVATION
 40
0.0
  9
$PELEVATION
 40
0.0
  9
$THICKNESS
 40
0.0
  9
$LIMCHECK
 70
     0
  9
$CHAMFERA
 40
0.5
  9
$CHAMFERB
 40
0.5
  9
$CHAMFERC
 40
1.0
  9
$CHAMFERD
 40
0.0
  9
$SKPOLY
 70
     0
  9
$TDCREATE
 40
2456421.910127315
  9
$TDUCREATE
 40
2456421.535127315
  9
$TDUPDATE
 40
2456421.910127315
  9
$TDUUPDATE
 40
2456421.535127315
  9
$TDINDWG
 40
0.0000000116
  9
$TDUSRTIMER
 40
0.0000000116
  9
$USRTIMER
 70
     1
  9
$ANGBASE
 50
0.0
  9
$ANGDIR
 70
     0
  9
$PDMODE
 70
     0
  9
$PDSIZE
 40
0.0
  9
$PLINEWID
 40
0.0
  9
$SPLFRAME
 70
     0
  9
$SPLINETYPE
 70
     6
  9
$SPLINESEGS
 70
     8
  9
$HANDSEED
  5
29D
  9
$SURFTAB1
 70
     6
  9
$SURFTAB2
 70
     6
  9
$SURFTYPE
 70
     6
  9
$SURFU
 70
     6
  9
$SURFV
 70
     6
  9
$UCSBASE
  2

  9
$UCSNAME
  2

  9
$UCSORG
 10
0.0
 20
0.0
 30
0.0
  9
$UCSXDIR
 10
1.0
 20
0.0
 30
0.0
  9
$UCSYDIR
 10
0.0
 20
1.0
 30
0.0
  9
$UCSORTHOREF
  2

  9
$UCSORTHOVIEW
 70
     0
  9
$UCSORGTOP
 10
0.0
 20
0.0
 30
0.0
  9
$UCSORGBOTTOM
 10
0.0
 20
0.0
 30
0.0
  9
$UCSORGLEFT
 10
0.0
 20
0.0
 30
0.0
  9
$UCSORGRIGHT
 10
0.0
 20
0.0
 30
0.0
  9
$UCSORGFRONT
 10
0.0
 20
0.0
 30
0.0
  9
$UCSORGBACK
 10
0.0
 20
0.0
 30
0.0
  9
$PUCSBASE
  2

  9
$PUCSNAME
  2

  9
$PUCSORG
 10
0.0
 20
0.0
 30
0.0
  9
$PUCSXDIR
 10
1.0
 20
0.0
 30
0.0
  9
$PUCSYDIR
 10
0.0
 20
1.0
 30
0.0
  9
$PUCSORTHOREF
  2

  9
$PUCSORTHOVIEW
 70
     0
  9
$PUCSORGTOP
 10
0.0
 20
0.0
 30
0.0
  9
$PUCSORGBOTTOM
 10
0.0
 20
0.0
 30
0.0
  9
$PUCSORGLEFT
 10
0.0
 20
0.0
 30
0.0
  9
$PUCSORGRIGHT
 10
0.0
 20
0.0
 30
0.0
  9
$PUCSORGFRONT
 10
0.0
 20
0.0
 30
0.0
  9
$PUCSORGBACK
 10
0.0
 20
0.0
 30
0.0
  9
$USERI1
 70
     0
  9
$USERI2
 70
     0
  9
$USERI3
 70
     0
  9
$USERI4
 70
     0
  9
$USERI5
 70
     0
  9
$USERR1
 40
0.0
  9
$USERR2
 40
0.0
  9
$USERR3
 40
0.0
  9
$USERR4
 40
0.0
  9
$USERR5
 40
0.0
  9
$WORLDVIEW
 70
     1
  9
$SHADEDGE
 70
     3
  9
$SHADEDIF
 70
    70
  9
$TILEMODE
 70
     1
  9
$MAXACTVP
 70
    64
  9
$PINSBASE
 10
0.0
 20
0.0
 30
0.0
  9
$PLIMCHECK
 70
     0
  9
$PEXTMIN
 10
0.0
 20
0.0
 30
0.0
  9
$PEXTMAX
 10
297.0
 20
210.0
 30
0.0
  9
$PLIMMIN
 10
0.0
 20
0.0
  9
$PLIMMAX
 10
297.0
 20
210.0
  9
$UNITMODE
 70
     0
  9
$VISRETAIN
 70
     1
  9
$PLINEGEN
 70
     0
  9
$PSLTSCALE
 70
     1
  9
$TREEDEPTH
 70
  3020
  9
$CMLSTYLE
  2
Standard
  9
$CMLJUST
 70
     0
  9
$CMLSCALE
 40
1.0
  9
$PROXYGRAPHICS
 70
     1
  9
$MEASUREMENT
 70
     1
  9
$CELWEIGHT
370
    -1
  9
$ENDCAPS
280
     0
  9
$JOINSTYLE
280
     0
  9
$LWDISPLAY
290
     0
  9
$INSUNITS
 70
     4
  9
$HYPERLINKBASE
  1

  9
$STYLESHEET
  1

  9
$XEDIT
290
     1
  9
$CEPSNTYPE
380
     0
  9
$PSTYLEMODE
290
     1
  9
$FINGERPRINTGUID
  2
{390828E1-3EEF-40FE-BB76-35835F3A2C3A}
  9
$VERSIONGUID
  2
{FAEB1C32-E019-11D5-929B-00C0DF256EC4}
  9
$EXTNAMES
290
     1
  9
$PSVPSCALE
 40
0.0
  9
$OLESTARTUP
290
     0
  9
$SORTENTS
280
   127
  9
$INDEXCTL
280
     0
  9
$HIDETEXT
280
     1
  9
$XCLIPFRAME
290
     0
  9
$HALOGAP
280
     0
  9
$OBSCOLOR
 70
   257
  9
$OBSLTYPE
280
     0
  9
$INTERSECTIONDISPLAY
280
     0
  9
$INTERSECTIONCOLOR
 70
   257
  9
$DIMASSOC
280
     1
  9
$PROJECTNAME
  1

  0
ENDSEC
  0
SECTION
  2
CLASSES
  0
CLASS
  1
ACDBDICTIONARYWDFLT
  2
AcDbDictionaryWithDefault
  3
ObjectDBX Classes
 90
        0
 91
        3
280
     0
281
     0
  0
ENDSEC
  0
SECTION
  2
TABLES
  0
TABLE
  2
VPORT
  5
8
330
0
100
AcDbSymbolTable
 70
     1
  0
VPORT
  5
29
330
8
100
AcDbSymbolTableRecord
100
AcDbViewportTableRecord
  2
*Active
 70
     0
 10
0.0
 20
0.0
 11
1.0
 21
1.0
 12
10.42990654205607
 22
4.5
 13
0.0
 23
0.0
 14
0.5
 24
0.5
 15
0.5
 25
0.5
 16
0.0
 26
0.0
 36
1.0
 17
0.0
 27
0.0
 37
0.0
 40
9.0
 41
1.972972972850329
 42
50.0
 43
0.0
 44
0.0
 50
0.0
 51
0.0
 71
     0
 72
   100
 73
     1
 74
     3
 75
     0
 76
     0
 77
     0
 78
     0
281
     0
 65
     1
110
0.0
120
0.0
130
0.0
111
1.0
121
0.0
131
0.0
112
0.0
122
1.0
132
0.0
 79
     0
146
0.0
  0
ENDTAB
  0
TABLE
  2
LTYPE
  5
5
330
0
100
AcDbSymbolTable
 70
     9
  0
LTYPE
  5
14
330
5
100
AcDbSymbolTableRecord
100
AcDbLinetypeTableRecord
  2
ByBlock
 70
     0
  3

 72
    65
 73
     0
 40
0.0
  0
LTYPE
  5
15
330
5
100
AcDbSymbolTableRecord
100
AcDbLinetypeTableRecord
  2
ByLayer
 70
     0
  3

 72
    65
 73
     0
 40
0.0
  0
LTYPE
  5
16
330
5
100
AcDbSymbolTableRecord
100
AcDbLinetypeTableRecord
  2
Continuous
 70
     0
  3
Solid line
 72
    65
 73
     0
 40
0.0
  0
LTYPE
  5
68
330
5
100
AcDbSymbolTableRecord
100
AcDbLinetypeTableRecord
  2
DOT
 70
     0
  3
DOT
 72
    65
 73
     2
 40
4.0
 49
6.0
 74
     0
 49
-2.0
 74
     0
  0
LTYPE
  5
69
330
5
100
AcDbSymbolTableRecord
100
AcDbLinetypeTableRecord
  2
HIDDEN
 70
     0
  3
HIDDEN
 72
    65
 73
     2
 40
4.2
 49
8.4
 74
     0
 49
-4.2
 74
     0
  0
LTYPE
  5
6A
330
5
100
AcDbSymbolTableRecord
100
AcDbLinetypeTableRecord
  2
DASHDOT
 70
     0
  3
DASHDOT
 72
    65
 73
     4
 40
14.5
 49
30.0
 74
     0
 49
-9.0
 74
     0
 49
2.5
 74
     0
 49
-9.0
 74
     0
  0
LTYPE
  5
6B
330
5
100
AcDbSymbolTableRecord
100
AcDbLinetypeTableRecord
  2
PHANTOM
 70
     0
  3
PHANTOM
 72
    65
 73
     6
 40
12.0
 49
30.0
 74
     0
 49
-9.0
 74
     0
 49
2.5
 74
     0
 49
-5.0
 74
     0
 49
2.5
 74
     0
 49
-9.0
 74
     0
  0
LTYPE
  5
6C
330
5
100
AcDbSymbolTableRecord
100
AcDbLinetypeTableRecord
  2
ACAD_ISO14W100
 70
     0
  3
ACAD_ISO14W100
 72
    65
 73
     8
 40
1.5
 49
12.0
 74
     0
 49
-3.0
 74
     0
 49
0.5
 74
     0
 49
-3.0
 74
     0
 49
0.5
 74
     0
 49
-3.0
 74
     0
 49
0.5
 74
     0
 49
-3.0
 74
     0
  0
LTYPE
  5
6D
330
5
100
AcDbSymbolTableRecord
100
AcDbLinetypeTableRecord
  2
ACAD_ISO06W100
 70
     0
  3
ACAD_ISO06W100
 72
    65
 73
     8
 40
13.5
 49
24.0
 74
     0
 49
-3.0
 74
     0
 49
0.5
 74
     0
 49
-3.0
 74
     0
 49
0.5
 74
     0
 49
-3.0
 74
     0
 49
0.5
 74
     0
 49
-3.0
 74
     0
  0
LTYPE
  5
6E
330
5
100
AcDbSymbolTableRecord
100
AcDbLinetypeTableRecord
  2
ACAD_ISO11W100
 70
     0
  3
ACAD_ISO11W100
 72
    65
 73
     6
 40
15.5
 49
12.0
 74
     0
 49
-3.0
 74
     0
 49
12.0
 74
     0
 49
-3.0
 74
     0
 49
0.5
 74
     0
 49
-3.0
 74
     0
  0
LTYPE
  5
6F
330
5
100
AcDbSymbolTableRecord
100
AcDbLinetypeTableRecord
  2
ACAD_ISO13W100
 70
     0
  3
ACAD_ISO13W100
 72
    65
 73
     8
 40
13.0
 49
12.0
 74
     0
 49
-3.0
 74
     0
 49
12.0
 74
     0
 49
-3.0
 74
     0
 49
0.5
 74
     0
 49
-3.0
 74
     0
 49
0.5
 74
     0
 49
-3.0
 74
     0
  0
ENDTAB
  0
TABLE
  2
LAYER
  5
2
330
0
100
AcDbSymbolTable
 70
    38
  0
LAYER
  5
10
330
2
100
AcDbSymbolTableRecord
100
AcDbLayerTableRecord
  2
0
 70
     0
 62
     7
  6
Continuous
370
    -3
390
F
  0
LAYER
  5
70
330
2
100
AcDbSymbolTableRecord
100
AcDbLayerTableRecord
  2
1
 70
     0
 62
    45
  6
Continuous
370
    -3
390
F
  0
LAYER
  5
71
330
2
100
AcDbSymbolTableRecord
100
AcDbLayerTableRecord
  2
2
 70
     0
 62
    90
  6
Continuous
370
    -3
390
F
  0
LAYER
  5
72
330
2
100
AcDbSymbolTableRecord
100
AcDbLayerTableRecord
  2
3
 70
     0
 62
     6
  6
Continuous
370
    -3
390
F
  0
LAYER
  5
73
330
2
100
AcDbSymbolTableRecord
100
AcDbLayerTableRecord
  2
4
 70
     0
 62
    30
  6
Continuous
370
    -3
390
F
  0
LAYER
  5
74
330
2
100
AcDbSymbolTableRecord
100
AcDbLayerTableRecord
  2
5
 70
     0
 62
     2
  6
Continuous
370
    -3
390
F
  0
LAYER
  5
75
330
2
100
AcDbSymbolTableRecord
100
AcDbLayerTableRecord
  2
6
 70
     0
 62
     7
  6
Continuous
370
    -3
390
F
  0
LAYER
  5
76
330
2
100
AcDbSymbolTableRecord
100
AcDbLayerTableRecord
  2
7
 70
     0
 62
   132
  6
Continuous
370
    -3
390
F
  0
LAYER
  5
77
330
2
100
AcDbSymbolTableRecord
100
AcDbLayerTableRecord
  2
8
 70
     0
 62
   171
  6
Continuous
370
    -3
390
F
  0
LAYER
  5
78
330
2
100
AcDbSymbolTableRecord
100
AcDbLayerTableRecord
  2
9
 70
     0
 62
   170
  6
Continuous
370
    -3
390
F
  0
LAYER
  5
79
330
2
100
AcDbSymbolTableRecord
100
AcDbLayerTableRecord
  2
10
 70
     0
 62
   172
  6
Continuous
370
    -3
390
F
  0
LAYER
  5
7A
330
2
100
AcDbSymbolTableRecord
100
AcDbLayerTableRecord
  2
11
 70
     0
 62
    16
  6
Continuous
370
    -3
390
F
  0
LAYER
  5
7B
330
2
100
AcDbSymbolTableRecord
100
AcDbLayerTableRecord
  2
12
 70
     0
 62
   136
  6
Continuous
370
    -3
390
F
  0
LAYER
  5
7C
330
2
100
AcDbSymbolTableRecord
100
AcDbLayerTableRecord
  2
13
 70
     0
 62
   216
  6
Continuous
370
    -3
390
F
  0
LAYER
  5
7D
330
2
100
AcDbSymbolTableRecord
100
AcDbLayerTableRecord
  2
14
 70
     0
 62
     7
  6
Continuous
370
    -3
390
F
  0
LAYER
  5
7E
330
2
100
AcDbSymbolTableRecord
100
AcDbLayerTableRecord
  2
15
 70
     0
 62
    14
  6
Continuous
370
    -3
390
F
  0
LAYER
  5
7F
330
2
100
AcDbSymbolTableRecord
100
AcDbLayerTableRecord
  2
16
 70
     0
 62
    94
  6
Continuous
370
    -3
390
F
  0
LAYER
  5
80
330
2
100
AcDbSymbolTableRecord
100
AcDbLayerTableRecord
  2
17
 70
     0
 62
   230
  6
Continuous
370
    -3
390
F
  0
LAYER
  5
81
330
2
100
AcDbSymbolTableRecord
100
AcDbLayerTableRecord
  2
18
 70
     0
 62
     7
  6
Continuous
370
    -3
390
F
  0
LAYER
  5
82
330
2
100
AcDbSymbolTableRecord
100
AcDbLayerTableRecord
  2
19
 70
     0
 62
    52
  6
Continuous
370
    -3
390
F
  0
LAYER
  5
83
330
2
100
AcDbSymbolTableRecord
100
AcDbLayerTableRecord
  2
20
 70
     0
 62
   134
  6
Continuous
370
    -3
390
F
  0
LAYER
  5
84
330
2
100
AcDbSymbolTableRecord
100
AcDbLayerTableRecord
  2
21
 70
     0
 62
   214
  6
Continuous
370
    -3
390
F
  0
LAYER
  5
85
330
2
100
AcDbSymbolTableRecord
100
AcDbLayerTableRecord
  2
22
 70
     0
 62
     7
  6
Continuous
370
    -3
390
F
  0
LAYER
  5
86
330
2
100
AcDbSymbolTableRecord
100
AcDbLayerTableRecord
  2
128
 70
     0
 62
     7
  6
Continuous
370
    -3
390
F
  0
LAYER
  5
87
330
2
100
AcDbSymbolTableRecord
100
AcDbLayerTableRecord
  2
129
 70
     0
 62
     7
  6
Continuous
370
    -3
390
F
  0
LAYER
  5
88
330
2
100
AcDbSymbolTableRecord
100
AcDbLayerTableRecord
  2
130
 70
     0
 62
     7
  6
Continuous
370
    -3
390
F
  0
LAYER
  5
89
330
2
100
AcDbSymbolTableRecord
100
AcDbLayerTableRecord
  2
131
 70
     0
 62
     7
  6
Continuous
370
    -3
390
F
  0
LAYER
  5
8A
330
2
100
AcDbSymbolTableRecord
100
AcDbLayerTableRecord
  2
132
 70
     0
 62
     7
  6
Continuous
370
    -3
390
F
  0
LAYER
  5
8B
330
2
100
AcDbSymbolTableRecord
100
AcDbLayerTableRecord
  2
133
 70
     0
 62
     4
  6
Continuous
370
    -3
390
F
  0
LAYER
  5
8C
330
2
100
AcDbSymbolTableRecord
100
AcDbLayerTableRecord
  2
134
 70
     0
 62
     7
  6
Continuous
370
    -3
390
F
  0
LAYER
  5
8D
330
2
100
AcDbSymbolTableRecord
100
AcDbLayerTableRecord
  2
135
 70
     0
 62
     4
  6
Continuous
370
    -3
390
F
  0
LAYER
  5
8E
330
2
100
AcDbSymbolTableRecord
100
AcDbLayerTableRecord
  2
136
 70
     0
 62
     7
  6
Continuous
370
    -3
390
F
  0
LAYER
  5
8F
330
2
100
AcDbSymbolTableRecord
100
AcDbLayerTableRecord
  2
137
 70
     0
 62
     3
  6
Continuous
370
    -3
390
F
  0
LAYER
  5
90
330
2
100
AcDbSymbolTableRecord
100
AcDbLayerTableRecord
  2
138
 70
     0
 62
     7
  6
Continuous
370
    -3
390
F
  0
LAYER
  5
91
330
2
100
AcDbSymbolTableRecord
100
AcDbLayerTableRecord
  2
139
 70
     0
 62
     6
  6
Continuous
370
    -3
390
F
  0
LAYER
  5
92
330
2
100
AcDbSymbolTableRecord
100
AcDbLayerTableRecord
  2
140
 70
     0
 62
     1
  6
Continuous
370
    -3
390
F
  0
LAYER
  5
93
330
2
100
AcDbSymbolTableRecord
100
AcDbLayerTableRecord
  2
141
 70
     0
 62
     7
  6
Continuous
370
    -3
390
F
  0
LAYER
  5
94
330
2
100
AcDbSymbolTableRecord
100
AcDbLayerTableRecord
  2
142
 70
     0
 62
     7
  6
Continuous
370
    -3
390
F
  0
ENDTAB
  0
TABLE
  2
STYLE
  5
3
330
0
100
AcDbSymbolTable
 70
     2
  0
STYLE
  5
11
330
3
100
AcDbSymbolTableRecord
100
AcDbTextStyleTableRecord
  2
Standard
 70
     0
 40
0.0
 41
1.0
 50
0.0
 71
     0
 42
0.2
  3
txt
  4
bigfont
  0
STYLE
  5
2C
330
3
100
AcDbSymbolTableRecord
100
AcDbTextStyleTableRecord
  2
T_STANDARD
 70
     4
 40
10.0
 41
1.0
 50
0.0
 71
     0
 42
10.0
  3
txt
  4
bigfont
  0
ENDTAB
  0
TABLE
  2
VIEW
  5
6
330
0
100
AcDbSymbolTable
 70
     0
  0
ENDTAB
  0
TABLE
  2
UCS
  5
7
330
0
100
AcDbSymbolTable
 70
     0
  0
ENDTAB
  0
TABLE
  2
APPID
  5
9
330
0
100
AcDbSymbolTable
 70
     2
  0
APPID
  5
12
330
9
100
AcDbSymbolTableRecord
100
AcDbRegAppTableRecord
  2
ACAD
 70
     0
  0
APPID
  5
2B
330
9
100
AcDbSymbolTableRecord
100
AcDbRegAppTableRecord
  2
ODA
 70
     0
  0
ENDTAB
  0
TABLE
  2
DIMSTYLE
  5
A
330
0
100
AcDbSymbolTable
 70
     1
100
AcDbDimStyleTable
  0
DIMSTYLE
105
27
102
{ACAD_REACTORS
330
117
330
23C
330
247
330
251
330
25D
330
269
330
27B
330
286
330
290
102
}
330
A
100
AcDbSymbolTableRecord
100
AcDbDimStyleTableRecord
  2
Standard
 70
     0
340
11
  0
ENDTAB
  0
TABLE
  2
BLOCK_RECORD
  5
1
330
0
100
AcDbSymbolTable
 70
    27
  0
BLOCK_RECORD
  5
1F
330
1
100
AcDbSymbolTableRecord
100
AcDbBlockTableRecord
  2
*Model_Space
340
22
  0
BLOCK_RECORD
  5
1B
330
1
100
AcDbSymbolTableRecord
100
AcDbBlockTableRecord
  2
*Paper_Space
340
1E
  0
BLOCK_RECORD
  5
23
330
1
100
AcDbSymbolTableRecord
100
AcDbBlockTableRecord
  2
*Paper_Space0
340
26
  0
BLOCK_RECORD
  5
2D
330
1
100
AcDbSymbolTableRecord
100
AcDbBlockTableRecord
  2
_ORIGIN
340
0
  0
BLOCK_RECORD
  5
32
330
1
100
AcDbSymbolTableRecord
100
AcDbBlockTableRecord
  2
_DOTBLANK
340
0
  0
BLOCK_RECORD
  5
37
330
1
100
AcDbSymbolTableRecord
100
AcDbBlockTableRecord
  2
_DOT
340
0
  0
BLOCK_RECORD
  5
3C
330
1
100
AcDbSymbolTableRecord
100
AcDbBlockTableRecord
  2
_OPEN
340
0
  0
BLOCK_RECORD
  5
42
330
1
100
AcDbSymbolTableRecord
100
AcDbBlockTableRecord
  2
_CLOSED
340
0
  0
BLOCK_RECORD
  5
49
330
1
100
AcDbSymbolTableRecord
100
AcDbBlockTableRecord
  2
_CLOSEDBLANK
340
0
  0
BLOCK_RECORD
  5
4F
330
1
100
AcDbSymbolTableRecord
100
AcDbBlockTableRecord
  2
_BOXBLANK
340
0
  0
BLOCK_RECORD
  5
57
330
1
100
AcDbSymbolTableRecord
100
AcDbBlockTableRecord
  2
_BOXFILLED
340
0
  0
BLOCK_RECORD
  5
5C
330
1
100
AcDbSymbolTableRecord
100
AcDbBlockTableRecord
  2
_INTEGRAL
340
0
  0
BLOCK_RECORD
  5
61
330
1
100
AcDbSymbolTableRecord
100
AcDbBlockTableRecord
  2
_OBLIQUE
340
0
  0
BLOCK_RECORD
  5
65
330
1
100
AcDbSymbolTableRecord
100
AcDbBlockTableRecord
  2
_NONE
340
0
  0
BLOCK_RECORD
  5
95
330
1
100
AcDbSymbolTableRecord
100
AcDbBlockTableRecord
  2
*G12
340
0
102
{BLKREFS
331
9C
102
}
  0
BLOCK_RECORD
  5
10C
330
1
100
AcDbSymbolTableRecord
100
AcDbBlockTableRecord
  2
Dim1
340
0
  0
BLOCK_RECORD
  5
13B
330
1
100
AcDbSymbolTableRecord
100
AcDbBlockTableRecord
  2
*G14
340
0
102
{BLKREFS
331
141
102
}
  0
BLOCK_RECORD
  5
143
330
1
100
AcDbSymbolTableRecord
100
AcDbBlockTableRecord
  2
*G15
340
0
102
{BLKREFS
331
148
102
}
  0
BLOCK_RECORD
  5
1B3
330
1
100
AcDbSymbolTableRecord
100
AcDbBlockTableRecord
  2
*G16
340
0
102
{BLKREFS
331
1BA
102
}
  0
BLOCK_RECORD
  5
213
330
1
100
AcDbSymbolTableRecord
100
AcDbBlockTableRecord
  2
*G17
340
0
102
{BLKREFS
331
21A
102
}
  0
BLOCK_RECORD
  5
232
330
1
100
AcDbSymbolTableRecord
100
AcDbBlockTableRecord
  2
Dim2
340
0
  0
BLOCK_RECORD
  5
23D
330
1
100
AcDbSymbolTableRecord
100
AcDbBlockTableRecord
  2
Dim3
340
0
  0
BLOCK_RECORD
  5
248
330
1
100
AcDbSymbolTableRecord
100
AcDbBlockTableRecord
  2
Dim4
340
0
  0
BLOCK_RECORD
  5
252
330
1
100
AcDbSymbolTableRecord
100
AcDbBlockTableRecord
  2
Dim5
340
0
  0
BLOCK_RECORD
  5
25E
330
1
100
AcDbSymbolTableRecord
100
AcDbBlockTableRecord
  2
Dim6
340
0
  0
BLOCK_RECORD
  5
26B
330
1
100
AcDbSymbolTableRecord
100
AcDbBlockTableRecord
  2
*G23
340
0
102
{BLKREFS
331
270
102
}
  0
BLOCK_RECORD
  5
271
330
1
100
AcDbSymbolTableRecord
100
AcDbBlockTableRecord
  2
Dim7
340
0
  0
BLOCK_RECORD
  5
27C
330
1
100
AcDbSymbolTableRecord
100
AcDbBlockTableRecord
  2
Dim8
340
0
  0
BLOCK_RECORD
  5
287
330
1
100
AcDbSymbolTableRecord
100
AcDbBlockTableRecord
  2
Dim9
340
0
  0
ENDTAB
  0
ENDSEC
  0
SECTION
  2
BLOCKS
  0
BLOCK
  5
20
330
1F
100
AcDbEntity
  8
0
100
AcDbBlockBegin
  2
*Model_Space
 70
     0
 71
     0
 10
0.0
 20
0.0
 30
0.0
  3
*Model_Space
  1

  0
ENDBLK
  5
21
330
1F
100
AcDbEntity
  8
0
100
AcDbBlockEnd
  0
BLOCK
  5
1C
330
1B
100
AcDbEntity
 67
     1
  8
0
100
AcDbBlockBegin
  2
*Paper_Space
 70
     0
 71
     0
 10
0.0
 20
0.0
 30
0.0
  3
*Paper_Space
  1

  0
ENDBLK
  5
1D
330
1B
100
AcDbEntity
 67
     1
  8
0
100
AcDbBlockEnd
  0
BLOCK
  5
24
330
23
100
AcDbEntity
  8
0
100
AcDbBlockBegin
  2
*Paper_Space0
 70
     0
 71
     0
 10
0.0
 20
0.0
 30
0.0
  3
*Paper_Space0
  1

  0
ENDBLK
  5
25
330
23
100
AcDbEntity
  8
0
100
AcDbBlockEnd
  0
BLOCK
  5
30
330
2D
100
AcDbEntity
  8
0
100
AcDbBlockBegin
  2
_ORIGIN
 70
     0
 71
     0
 10
0.0
 20
0.0
 30
0.0
  3
_ORIGIN
  1

  0
CIRCLE
  5
2E
330
2D
100
AcDbEntity
  8
0
100
AcDbCircle
 10
0.0
 20
0.0
 30
0.0
 40
0.5
  0
LINE
  5
2F
330
2D
100
AcDbEntity
  8
0
100
AcDbLine
 10
0.0
 20
0.0
 30
0.0
 11
-1.0
 21
0.0
 31
0.0
  0
ENDBLK
  5
31
330
2D
100
AcDbEntity
  8
0
100
AcDbBlockEnd
  0
BLOCK
  5
35
330
32
100
AcDbEntity
  8
0
100
AcDbBlockBegin
  2
_DOTBLANK
 70
     0
 71
     0
 10
0.0
 20
0.0
 30
0.0
  3
_DOTBLANK
  1

  0
CIRCLE
  5
33
330
32
100
AcDbEntity
  8
0
100
AcDbCircle
 10
0.0
 20
0.0
 30
0.0
 40
0.5
  0
LINE
  5
34
330
32
100
AcDbEntity
  8
0
100
AcDbLine
 10
-0.5
 20
0.0
 30
0.0
 11
-1.0
 21
0.0
 31
0.0
  0
ENDBLK
  5
36
330
32
100
AcDbEntity
  8
0
100
AcDbBlockEnd
  0
BLOCK
  5
3A
330
37
100
AcDbEntity
  8
0
100
AcDbBlockBegin
  2
_DOT
 70
     0
 71
     0
 10
0.0
 20
0.0
 30
0.0
  3
_DOT
  1

  0
LWPOLYLINE
  5
38
330
37
100
AcDbEntity
  8
0
100
AcDbPolyline
 90
        2
 70
     1
 43
0.5
 10
-0.25
 20
0.0
 42
1.0
 10
0.25
 20
0.0
 42
1.0
  0
LINE
  5
39
330
37
100
AcDbEntity
  8
0
100
AcDbLine
 10
-0.5
 20
0.0
 30
0.0
 11
-1.0
 21
0.0
 31
0.0
  0
ENDBLK
  5
3B
330
37
100
AcDbEntity
  8
0
100
AcDbBlockEnd
  0
BLOCK
  5
40
330
3C
100
AcDbEntity
  8
0
100
AcDbBlockBegin
  2
_OPEN
 70
     0
 71
     0
 10
0.0
 20
0.0
 30
0.0
  3
_OPEN
  1

  0
LINE
  5
3D
330
3C
100
AcDbEntity
  8
0
100
AcDbLine
 10
-1.0
 20
0.1666666666666667
 30
0.0
 11
0.0
 21
0.0
 31
0.0
  0
LINE
  5
3E
330
3C
100
AcDbEntity
  8
0
100
AcDbLine
 10
-1.0
 20
-0.1666666666666667
 30
0.0
 11
0.0
 21
0.0
 31
0.0
  0
LINE
  5
3F
330
3C
100
AcDbEntity
  8
0
100
AcDbLine
 10
0.0
 20
0.0
 30
0.0
 11
-1.0
 21
0.0
 31
0.0
  0
ENDBLK
  5
41
330
3C
100
AcDbEntity
  8
0
100
AcDbBlockEnd
  0
BLOCK
  5
47
330
42
100
AcDbEntity
  8
0
100
AcDbBlockBegin
  2
_CLOSED
 70
     0
 71
     0
 10
0.0
 20
0.0
 30
0.0
  3
_CLOSED
  1

  0
LINE
  5
43
330
42
100
AcDbEntity
  8
0
100
AcDbLine
 10
-1.0
 20
0.1666666666666667
 30
0.0
 11
0.0
 21
0.0
 31
0.0
  0
LINE
  5
44
330
42
100
AcDbEntity
  8
0
100
AcDbLine
 10
0.0
 20
0.0
 30
0.0
 11
-1.0
 21
-0.1666666666666667
 31
0.0
  0
LINE
  5
45
330
42
100
AcDbEntity
  8
0
100
AcDbLine
 10
-1.0
 20
0.1666666666666667
 30
0.0
 11
-1.0
 21
-0.1666666666666667
 31
0.0
  0
LINE
  5
46
330
42
100
AcDbEntity
  8
0
100
AcDbLine
 10
0.0
 20
0.0
 30
0.0
 11
-1.0
 21
0.0
 31
0.0
  0
ENDBLK
  5
48
330
42
100
AcDbEntity
  8
0
100
AcDbBlockEnd
  0
BLOCK
  5
4D
330
49
100
AcDbEntity
  8
0
100
AcDbBlockBegin
  2
_CLOSEDBLANK
 70
     0
 71
     0
 10
0.0
 20
0.0
 30
0.0
  3
_CLOSEDBLANK
  1

  0
LINE
  5
4A
330
49
100
AcDbEntity
  8
0
100
AcDbLine
 10
-1.0
 20
0.1666666666666667
 30
0.0
 11
0.0
 21
0.0
 31
0.0
  0
LINE
  5
4B
330
49
100
AcDbEntity
  8
0
100
AcDbLine
 10
0.0
 20
0.0
 30
0.0
 11
-1.0
 21
-0.1666666666666667
 31
0.0
  0
LINE
  5
4C
330
49
100
AcDbEntity
  8
0
100
AcDbLine
 10
-1.0
 20
0.1666666666666667
 30
0.0
 11
-1.0
 21
-0.1666666666666667
 31
0.0
  0
ENDBLK
  5
4E
330
49
100
AcDbEntity
  8
0
100
AcDbBlockEnd
  0
BLOCK
  5
55
330
4F
100
AcDbEntity
  8
0
100
AcDbBlockBegin
  2
_BOXBLANK
 70
     0
 71
     0
 10
0.0
 20
0.0
 30
0.0
  3
_BOXBLANK
  1

  0
LINE
  5
50
330
4F
100
AcDbEntity
  8
0
100
AcDbLine
 10
-0.5
 20
-0.5
 30
0.0
 11
0.5
 21
-0.5
 31
0.0
  0
LINE
  5
51
330
4F
100
AcDbEntity
  8
0
100
AcDbLine
 10
0.5
 20
-0.5
 30
0.0
 11
0.5
 21
0.5
 31
0.0
  0
LINE
  5
52
330
4F
100
AcDbEntity
  8
0
100
AcDbLine
 10
0.5
 20
0.5
 30
0.0
 11
-0.5
 21
0.5
 31
0.0
  0
LINE
  5
53
330
4F
100
AcDbEntity
  8
0
100
AcDbLine
 10
-0.5
 20
0.5
 30
0.0
 11
-0.5
 21
-0.5
 31
0.0
  0
LINE
  5
54
330
4F
100
AcDbEntity
  8
0
100
AcDbLine
 10
-0.5
 20
0.0
 30
0.0
 11
-1.0
 21
0.0
 31
0.0
  0
ENDBLK
  5
56
330
4F
100
AcDbEntity
  8
0
100
AcDbBlockEnd
  0
BLOCK
  5
5A
330
57
100
AcDbEntity
  8
0
100
AcDbBlockBegin
  2
_BOXFILLED
 70
     0
 71
     0
 10
0.0
 20
0.0
 30
0.0
  3
_BOXFILLED
  1

  0
SOLID
  5
58
330
57
100
AcDbEntity
  8
0
100
AcDbTrace
 10
-0.5
 20
0.5
 30
0.0
 11
0.5
 21
0.5
 31
0.0
 12
-0.5
 22
-0.5
 32
0.0
 13
0.5
 23
-0.5
 33
0.0
  0
LINE
  5
59
330
57
100
AcDbEntity
  8
0
100
AcDbLine
 10
-0.5
 20
0.0
 30
0.0
 11
-1.0
 21
0.0
 31
0.0
  0
ENDBLK
  5
5B
330
57
100
AcDbEntity
  8
0
100
AcDbBlockEnd
  0
BLOCK
  5
5F
330
5C
100
AcDbEntity
  8
0
100
AcDbBlockBegin
  2
_INTEGRAL
 70
     0
 71
     0
 10
0.0
 20
0.0
 30
0.0
  3
_INTEGRAL
  1

  0
ARC
  5
5D
330
5C
100
AcDbEntity
  8
0
100
AcDbCircle
 10
0.444888
 20
-0.0913346
 30
0.0
 40
0.4541666
100
AcDbArc
 50
5844.169510334396
 51
9625.69095819783
  0
ARC
  5
5E
330
5C
100
AcDbEntity
  8
0
100
AcDbCircle
 10
-0.444888
 20
0.0913346
 30
0.0
 40
0.4541666
100
AcDbArc
 50
16157.40982268921
 51
19938.93127055265
  0
ENDBLK
  5
60
330
5C
100
AcDbEntity
  8
0
100
AcDbBlockEnd
  0
BLOCK
  5
63
330
61
100
AcDbEntity
  8
0
100
AcDbBlockBegin
  2
_OBLIQUE
 70
     0
 71
     0
 10
0.0
 20
0.0
 30
0.0
  3
_OBLIQUE
  1

  0
LINE
  5
62
330
61
100
AcDbEntity
  8
0
100
AcDbLine
 10
-0.5
 20
-0.5
 30
0.0
 11
0.5
 21
0.5
 31
0.0
  0
ENDBLK
  5
64
330
61
100
AcDbEntity
  8
0
100
AcDbBlockEnd
  0
BLOCK
  5
66
330
65
100
AcDbEntity
  8
0
100
AcDbBlockBegin
  2
_NONE
 70
     0
 71
     0
 10
0.0
 20
0.0
 30
0.0
  3
_NONE
  1

  0
ENDBLK
  5
67
330
65
100
AcDbEntity
  8
0
100
AcDbBlockEnd
  0
BLOCK
  5
96
330
95
100
AcDbEntity
  8
0
100
AcDbBlockBegin
  2
*G12
 70
     1
 71
     0
 10
0.0
 20
0.0
 30
0.0
  3
*G12
  1

  0
LINE
  5
98
330
95
100
AcDbEntity
  8
9
  6
Continuous
 62
   170
370
    30
100
AcDbLine
 10
96.00000000000037
 20
96.0
 30
0.0
 11
96.00000000000037
 21
1536.0
 31
0.0
  0
LINE
  5
99
330
95
100
AcDbEntity
  8
9
  6
Continuous
 62
   170
370
    30
100
AcDbLine
 10
96.00000000000037
 20
1536.0
 30
0.0
 11
2280.0
 21
1536.0
 31
0.0
  0
LINE
  5
9A
330
95
100
AcDbEntity
  8
9
  6
Continuous
 62
   170
370
    30
100
AcDbLine
 10
2280.0
 20
1536.0
 30
0.0
 11
2280.0
 21
96.0
 31
0.0
  0
LINE
  5
9B
330
95
100
AcDbEntity
  8
9
  6
Continuous
 62
   170
370
    30
100
AcDbLine
 10
2280.0
 20
96.0
 30
0.0
 11
96.00000000000037
 21
96.0
 31
0.0
  0
ENDBLK
  5
97
330
95
100
AcDbEntity
  8
0
100
AcDbBlockEnd
  0
BLOCK
  5
10D
330
10C
100
AcDbEntity
  8
0
100
AcDbBlockBegin
  2
Dim1
 70
     0
 71
     0
 10
0.0
 20
0.0
 30
0.0
  3
Dim1
  1

  0
LINE
  5
10F
330
10C
100
AcDbEntity
  8
6
  6
Continuous
 62
     7
370
     9
100
AcDbLine
 10
297.8136823654925
 20
657.3931834661068
 30
0.0
 11
430.8136823654913
 21
657.3931834661068
 31
0.0
  0
LINE
  5
110
330
10C
100
AcDbEntity
  8
6
  6
Continuous
 62
     7
370
     9
100
AcDbLine
 10
297.8136823654924
 20
649.3931834661068
 30
0.0
 11
297.8136823654928
 21
721.3931834661068
 31
0.0
  0
LINE
  5
111
330
10C
100
AcDbEntity
  8
6
  6
Continuous
 62
     7
370
     9
100
AcDbLine
 10
430.8136823654913
 20
649.3931834661068
 30
0.0
 11
430.8136823654928
 21
908.3931834661068
 31
0.0
  0
LINE
  5
112
330
10C
100
AcDbEntity
  8
6
  6
Continuous
 62
     7
370
     9
100
AcDbLine
 10
297.8136823654925
 20
657.3931834661068
 30
0.0
 11
313.2684955861176
 21
661.5342881877472
 31
0.0
  0
LINE
  5
113
330
10C
100
AcDbEntity
  8
6
  6
Continuous
 62
     7
370
     9
100
AcDbLine
 10
297.8136823654925
 20
657.3931834661068
 30
0.0
 11
313.2684955861176
 21
653.2520787444665
 31
0.0
  0
LINE
  5
114
330
10C
100
AcDbEntity
  8
6
  6
Continuous
 62
     7
370
     9
100
AcDbLine
 10
430.8136823654913
 20
657.3931834661068
 30
0.0
 11
415.3588691448662
 21
653.2520787444665
 31
0.0
  0
LINE
  5
115
330
10C
100
AcDbEntity
  8
6
  6
Continuous
 62
     7
370
     9
100
AcDbLine
 10
430.8136823654913
 20
657.3931834661068
 30
0.0
 11
415.3588691448663
 21
661.5342881877473
 31
0.0
  0
MTEXT
  5
116
330
10C
100
AcDbEntity
  8
6
  6
Continuous
 62
     7
370
     9
100
AcDbMText
 10
364.313682365492
 20
669.3931834661068
 30
0.0
 40
24.0
 41
0.0
 71
     8
 72
     1
  1
133
 73
     1
 44
1.0
  0
ENDBLK
  5
10E
330
10C
100
AcDbEntity
  8
0
100
AcDbBlockEnd
  0
BLOCK
  5
13C
330
13B
100
AcDbEntity
  8
0
100
AcDbBlockBegin
  2
*G14
 70
     1
 71
     0
 10
0.0
 20
0.0
 30
0.0
  3
*G14
  1

  0
ARC
  5
13E
330
13B
100
AcDbEntity
  8
2
  6
Continuous
 62
    90
370
    18
100
AcDbCircle
 10
299.8136823654929
 20
937.3931834661068
 30
0.0
 40
2.0
100
AcDbArc
 50
89.99999999999991
 51
179.999999999987
  0
LINE
  5
13F
330
13B
100
AcDbEntity
  8
2
  6
Continuous
 62
    90
370
    18
100
AcDbLine
 10
297.8136823654929
 20
921.3931834661073
 30
0.0
 11
297.8136823654929
 21
937.3931834661073
 31
0.0
  0
ARC
  5
140
330
13B
100
AcDbEntity
  8
2
  6
Continuous
 62
    90
370
    18
100
AcDbCircle
 10
299.8136823654929
 20
921.3931834661068
 30
0.0
 40
2.0
100
AcDbArc
 50
179.999999999987
 51
269.9999999999998
  0
ENDBLK
  5
13D
330
13B
100
AcDbEntity
  8
0
100
AcDbBlockEnd
  0
BLOCK
  5
144
330
143
100
AcDbEntity
  8
0
100
AcDbBlockBegin
  2
*G15
 70
     1
 71
     0
 10
0.0
 20
0.0
 30
0.0
  3
*G15
  1

  0
LINE
  5
146
330
143
100
AcDbEntity
  8
2
  6
Continuous
 62
    90
370
    18
100
AcDbLine
 10
299.8136823654929
 20
939.3931834661068
 30
0.0
 11
420.8136823654929
 21
939.3931834661068
 31
0.0
  0
LINE
  5
147
330
143
100
AcDbEntity
  8
2
  6
Continuous
 62
    90
370
    18
100
AcDbLine
 10
420.8136823654929
 20
919.3931834661068
 30
0.0
 11
299.8136823654929
 21
919.3931834661068
 31
0.0
  0
ENDBLK
  5
145
330
143
100
AcDbEntity
  8
0
100
AcDbBlockEnd
  0
BLOCK
  5
1B4
330
1B3
100
AcDbEntity
  8
0
100
AcDbBlockBegin
  2
*G16
 70
     1
 71
     0
 10
0.0
 20
0.0
 30
0.0
  3
*G16
  1

  0
LINE
  5
1B6
330
1B3
100
AcDbEntity
  8
2
  6
Continuous
 62
    90
370
    18
100
AcDbLine
 10
833.2494178293716
 20
794.3931834661068
 30
0.0
 11
833.2494178293716
 21
916.3931834661068
 31
0.0
  0
ARC
  5
1B7
330
1B3
100
AcDbEntity
  8
2
  6
Continuous
 62
    90
370
    18
100
AcDbCircle
 10
836.2494178293716
 20
916.3931834661068
 30
0.0
 40
3.0
100
AcDbArc
 50
89.99999999999991
 51
179.9999999999998
  0
LINE
  5
1B8
330
1B3
100
AcDbEntity
  8
2
  6
Continuous
 62
    90
370
    18
100
AcDbLine
 10
863.2494178293716
 20
919.3931834661068
 30
0.0
 11
863.2494178293716
 21
884.3931834661068
 31
0.0
  0
LINE
  5
1B9
330
1B3
100
AcDbEntity
  8
2
  6
Continuous
 62
    90
370
    18
100
AcDbLine
 10
834.2494178293714
 20
794.3931834661068
 30
0.0
 11
833.2494178293716
 21
794.3931834661068
 31
0.0
  0
ENDBLK
  5
1B5
330
1B3
100
AcDbEntity
  8
0
100
AcDbBlockEnd
  0
BLOCK
  5
214
330
213
100
AcDbEntity
  8
0
100
AcDbBlockBegin
  2
*G17
 70
     1
 71
     0
 10
0.0
 20
0.0
 30
0.0
  3
*G17
  1

  0
LINE
  5
216
330
213
100
AcDbEntity
  8
2
  6
Continuous
 62
    90
370
    18
100
AcDbLine
 10
1096.252165486771
 20
794.3931834661068
 30
0.0
 11
1096.252165486771
 21
916.3931834661068
 31
0.0
  0
ARC
  5
217
330
213
100
AcDbEntity
  8
2
  6
Continuous
 62
    90
370
    18
100
AcDbCircle
 10
1093.252165486771
 20
916.3931834661068
 30
0.0
 40
3.0
100
AcDbArc
 50
0.0
 51
89.99999999999991
  0
LINE
  5
218
330
213
100
AcDbEntity
  8
2
  6
Continuous
 62
    90
370
    18
100
AcDbLine
 10
1066.252165486771
 20
919.3931834661068
 30
0.0
 11
1066.252165486771
 21
884.3931834661068
 31
0.0
  0
LINE
  5
219
330
213
100
AcDbEntity
  8
2
  6
Continuous
 62
    90
370
    18
100
AcDbLine
 10
1095.252165486771
 20
794.3931834661068
 30
0.0
 11
1096.252165486771
 21
794.3931834661068
 31
0.0
  0
ENDBLK
  5
215
330
213
100
AcDbEntity
  8
0
100
AcDbBlockEnd
  0
BLOCK
  5
233
330
232
100
AcDbEntity
  8
0
100
AcDbBlockBegin
  2
Dim2
 70
     0
 71
     0
 10
0.0
 20
0.0
 30
0.0
  3
Dim2
  1

  0
LINE
  5
235
330
232
100
AcDbEntity
  8
6
  6
Continuous
 62
     7
370
     9
100
AcDbLine
 10
724.749417829384
 20
979.3931834661068
 30
0.0
 11
724.7494178293841
 21
919.3931834661068
 31
0.0
  0
LINE
  5
236
330
232
100
AcDbEntity
  8
6
  6
Continuous
 62
     7
370
     9
100
AcDbLine
 10
716.7494178293841
 20
919.3931834661068
 30
0.0
 11
788.7494178293716
 21
919.3931834661068
 31
0.0
  0
LINE
  5
237
330
232
100
AcDbEntity
  8
6
  6
Continuous
 62
     7
370
     9
100
AcDbLine
 10
724.7494178293841
 20
939.3931834661068
 30
0.0
 11
720.6083131077438
 21
954.8479966867319
 31
0.0
  0
LINE
  5
238
330
232
100
AcDbEntity
  8
6
  6
Continuous
 62
     7
370
     9
100
AcDbLine
 10
724.7494178293841
 20
939.3931834661068
 30
0.0
 11
728.8905225510244
 21
954.8479966867319
 31
0.0
  0
LINE
  5
239
330
232
100
AcDbEntity
  8
6
  6
Continuous
 62
     7
370
     9
100
AcDbLine
 10
724.7494178293841
 20
919.3931834661068
 30
0.0
 11
728.8905225510244
 21
903.9383702454818
 31
0.0
  0
LINE
  5
23A
330
232
100
AcDbEntity
  8
6
  6
Continuous
 62
     7
370
     9
100
AcDbLine
 10
724.7494178293841
 20
919.3931834661068
 30
0.0
 11
720.6083131077438
 21
903.9383702454818
 31
0.0
  0
MTEXT
  5
23B
330
232
100
AcDbEntity
  8
6
  6
Continuous
 62
     7
370
     9
100
AcDbMText
 10
712.7494178293841
 20
959.3271421040574
 30
0.0
 40
24.0
 41
0.0
 71
     8
 72
     1
  1
20
 11
1.615544574432587E-15
 21
1.0
 31
0.0
 73
     1
 44
1.0
  0
ENDBLK
  5
234
330
232
100
AcDbEntity
  8
0
100
AcDbBlockEnd
  0
BLOCK
  5
23E
330
23D
100
AcDbEntity
  8
0
100
AcDbBlockBegin
  2
Dim3
 70
     0
 71
     0
 10
0.0
 20
0.0
 30
0.0
  3
Dim3
  1

  0
LINE
  5
240
330
23D
100
AcDbEntity
  8
6
  6
Continuous
 62
     7
370
     9
100
AcDbLine
 10
724.7494178293841
 20
919.3931834661068
 30
0.0
 11
724.7494178293841
 21
884.3931834661068
 31
0.0
  0
LINE
  5
241
330
23D
100
AcDbEntity
  8
6
  6
Continuous
 62
     7
370
     9
100
AcDbLine
 10
716.7494178293841
 20
884.3931834661068
 30
0.0
 11
817.2494178293716
 21
884.3931834661068
 31
0.0
  0
LINE
  5
242
330
23D
100
AcDbEntity
  8
6
  6
Continuous
 62
     7
370
     9
100
AcDbLine
 10
724.7494178293841
 20
919.3931834661068
 30
0.0
 11
728.8905225510244
 21
903.9383702454818
 31
0.0
  0
LINE
  5
243
330
23D
100
AcDbEntity
  8
6
  6
Continuous
 62
     7
370
     9
100
AcDbLine
 10
724.7494178293841
 20
919.3931834661068
 30
0.0
 11
720.6083131077438
 21
903.9383702454818
 31
0.0
  0
LINE
  5
244
330
23D
100
AcDbEntity
  8
6
  6
Continuous
 62
     7
370
     9
100
AcDbLine
 10
724.7494178293841
 20
884.3931834661068
 30
0.0
 11
720.6083131077438
 21
899.8479966867319
 31
0.0
  0
LINE
  5
245
330
23D
100
AcDbEntity
  8
6
  6
Continuous
 62
     7
370
     9
100
AcDbLine
 10
724.7494178293841
 20
884.3931834661068
 30
0.0
 11
728.8905225510244
 21
899.8479966867319
 31
0.0
  0
MTEXT
  5
246
330
23D
100
AcDbEntity
  8
6
  6
Continuous
 62
     7
370
     9
100
AcDbMText
 10
712.7494178293841
 20
901.8931834661068
 30
0.0
 40
24.0
 41
0.0
 71
     8
 72
     1
  1
35
 11
1.615544574432587E-15
 21
1.0
 31
0.0
 73
     1
 44
1.0
  0
ENDBLK
  5
23F
330
23D
100
AcDbEntity
  8
0
100
AcDbBlockEnd
  0
BLOCK
  5
249
330
248
100
AcDbEntity
  8
0
100
AcDbBlockBegin
  2
Dim4
 70
     0
 71
     0
 10
0.0
 20
0.0
 30
0.0
  3
Dim4
  1

  0
LINE
  5
24B
330
248
100
AcDbEntity
  8
6
  6
Continuous
 62
     7
370
     9
100
AcDbLine
 10
724.7494178293841
 20
884.3931834661068
 30
0.0
 11
724.7494178293846
 21
737.3931834661068
 31
0.0
  0
LINE
  5
24C
330
248
100
AcDbEntity
  8
6
  6
Continuous
 62
     7
370
     9
100
AcDbLine
 10
724.7494178293841
 20
884.3931834661068
 30
0.0
 11
728.8905225510246
 21
868.9383702454818
 31
0.0
  0
LINE
  5
24D
330
248
100
AcDbEntity
  8
6
  6
Continuous
 62
     7
370
     9
100
AcDbLine
 10
724.7494178293841
 20
884.3931834661068
 30
0.0
 11
720.6083131077438
 21
868.9383702454818
 31
0.0
  0
LINE
  5
24E
330
248
100
AcDbEntity
  8
6
  6
Continuous
 62
     7
370
     9
100
AcDbLine
 10
724.7494178293846
 20
737.3931834661068
 30
0.0
 11
720.6083131077443
 21
752.8479966867319
 31
0.0
  0
LINE
  5
24F
330
248
100
AcDbEntity
  8
6
  6
Continuous
 62
     7
370
     9
100
AcDbLine
 10
724.7494178293846
 20
737.3931834661068
 30
0.0
 11
728.8905225510249
 21
752.8479966867319
 31
0.0
  0
MTEXT
  5
250
330
248
100
AcDbEntity
  8
6
  6
Continuous
 62
     7
370
     9
100
AcDbMText
 10
712.7494178293844
 20
810.8931834661068
 30
0.0
 40
24.0
 41
0.0
 71
     8
 72
     1
  1
147
 11
6.123233995736766E-17
 21
1.0
 31
0.0
 73
     1
 44
1.0
  0
ENDBLK
  5
24A
330
248
100
AcDbEntity
  8
0
100
AcDbBlockEnd
  0
BLOCK
  5
253
330
252
100
AcDbEntity
  8
0
100
AcDbBlockBegin
  2
Dim5
 70
     0
 71
     0
 10
0.0
 20
0.0
 30
0.0
  3
Dim5
  1

  0
LINE
  5
255
330
252
100
AcDbEntity
  8
6
  6
Continuous
 62
     7
370
     9
100
AcDbLine
 10
668.7494178293846
 20
939.3931834661073
 30
0.0
 11
668.749417829385
 21
737.3931834661073
 31
0.0
  0
LINE
  5
256
330
252
100
AcDbEntity
  8
6
  6
Continuous
 62
     7
370
     9
100
AcDbLine
 10
660.7494178293846
 20
939.3931834661073
 30
0.0
 11
788.7494178293714
 21
939.3931834661068
 31
0.0
  0
LINE
  5
257
330
252
100
AcDbEntity
  8
6
  6
Continuous
 62
     7
370
     9
100
AcDbLine
 10
660.749417829385
 20
737.3931834661073
 30
0.0
 11
817.2494178293714
 21
737.3931834661068
 31
0.0
  0
LINE
  5
258
330
252
100
AcDbEntity
  8
6
  6
Continuous
 62
     7
370
     9
100
AcDbLine
 10
668.7494178293846
 20
939.3931834661073
 30
0.0
 11
672.8905225510249
 21
923.9383702454822
 31
0.0
  0
LINE
  5
259
330
252
100
AcDbEntity
  8
6
  6
Continuous
 62
     7
370
     9
100
AcDbLine
 10
668.7494178293846
 20
939.3931834661073
 30
0.0
 11
664.6083131077442
 21
923.9383702454822
 31
0.0
  0
LINE
  5
25A
330
252
100
AcDbEntity
  8
6
  6
Continuous
 62
     7
370
     9
100
AcDbLine
 10
668.749417829385
 20
737.3931834661073
 30
0.0
 11
664.6083131077447
 21
752.8479966867324
 31
0.0
  0
LINE
  5
25B
330
252
100
AcDbEntity
  8
6
  6
Continuous
 62
     7
370
     9
100
AcDbLine
 10
668.749417829385
 20
737.3931834661073
 30
0.0
 11
672.8905225510254
 21
752.8479966867324
 31
0.0
  0
MTEXT
  5
25C
330
252
100
AcDbEntity
  8
6
  6
Continuous
 62
     7
370
     9
100
AcDbMText
 10
656.7494178293848
 20
838.3931834661073
 30
0.0
 40
24.0
 41
0.0
 71
     8
 72
     1
  1
202
 11
9.494107596574928E-16
 21
1.0
 31
0.0
 73
     1
 44
1.0
  0
ENDBLK
  5
254
330
252
100
AcDbEntity
  8
0
100
AcDbBlockEnd
  0
BLOCK
  5
25F
330
25E
100
AcDbEntity
  8
0
100
AcDbBlockBegin
  2
Dim6
 70
     0
 71
     0
 10
0.0
 20
0.0
 30
0.0
  3
Dim6
  1

  0
LINE
  5
261
330
25E
100
AcDbEntity
  8
6
  6
Continuous
 62
     7
370
     9
100
AcDbLine
 10
804.7494178293689
 20
601.3931834661068
 30
0.0
 11
1124.752165486769
 21
601.3931834661068
 31
0.0
  0
LINE
  5
262
330
25E
100
AcDbEntity
  8
6
  6
Continuous
 62
     7
370
     9
100
AcDbLine
 10
804.7494178293688
 20
593.3931834661068
 30
0.0
 11
804.7494178293715
 21
903.3931834661068
 31
0.0
  0
LINE
  5
263
330
25E
100
AcDbEntity
  8
6
  6
Continuous
 62
     7
370
     9
100
AcDbLine
 10
1124.752165486769
 20
593.3931834661068
 30
0.0
 11
1124.752165486771
 21
905.3931834661068
 31
0.0
  0
LINE
  5
264
330
25E
100
AcDbEntity
  8
6
  6
Continuous
 62
     7
370
     9
100
AcDbLine
 10
804.7494178293689
 20
601.3931834661068
 30
0.0
 11
820.204231049994
 21
605.5342881877472
 31
0.0
  0
LINE
  5
265
330
25E
100
AcDbEntity
  8
6
  6
Continuous
 62
     7
370
     9
100
AcDbLine
 10
804.7494178293689
 20
601.3931834661068
 30
0.0
 11
820.204231049994
 21
597.2520787444665
 31
0.0
  0
LINE
  5
266
330
25E
100
AcDbEntity
  8
6
  6
Continuous
 62
     7
370
     9
100
AcDbLine
 10
1124.752165486769
 20
601.3931834661068
 30
0.0
 11
1109.297352266144
 21
597.2520787444665
 31
0.0
  0
LINE
  5
267
330
25E
100
AcDbEntity
  8
6
  6
Continuous
 62
     7
370
     9
100
AcDbLine
 10
1124.752165486769
 20
601.3931834661068
 30
0.0
 11
1109.297352266144
 21
605.5342881877473
 31
0.0
  0
MTEXT
  5
268
330
25E
100
AcDbEntity
  8
6
  6
Continuous
 62
     7
370
     9
100
AcDbMText
 10
964.7507916580688
 20
613.3931834661068
 30
0.0
 40
24.0
 41
0.0
 71
     8
 72
     1
  1
320
 73
     1
 44
1.0
  0
ENDBLK
  5
260
330
25E
100
AcDbEntity
  8
0
100
AcDbBlockEnd
  0
BLOCK
  5
26C
330
26B
100
AcDbEntity
  8
0
100
AcDbBlockBegin
  2
*G23
 70
     1
 71
     0
 10
0.0
 20
0.0
 30
0.0
  3
*G23
  1

  0
LINE
  5
26E
330
26B
100
AcDbEntity
  8
2
  6
Continuous
 62
    90
370
    18
100
AcDbLine
 10
814.7494178293716
 20
939.3931834661068
 30
0.0
 11
1114.752165486771
 21
939.3931834661068
 31
0.0
  0
LINE
  5
26F
330
26B
100
AcDbEntity
  8
2
  6
Continuous
 62
    90
370
    18
100
AcDbLine
 10
1114.752165486771
 20
919.3931834661068
 30
0.0
 11
814.7494178293716
 21
919.3931834661068
 31
0.0
  0
ENDBLK
  5
26D
330
26B
100
AcDbEntity
  8
0
100
AcDbBlockEnd
  0
BLOCK
  5
272
330
271
100
AcDbEntity
  8
0
100
AcDbBlockBegin
  2
Dim7
 70
     0
 71
     0
 10
0.0
 20
0.0
 30
0.0
  3
Dim7
  1

  0
LINE
  5
274
330
271
100
AcDbEntity
  8
6
  6
Continuous
 62
     7
370
     9
100
AcDbLine
 10
764.7494178293712
 20
657.3931834661073
 30
0.0
 11
833.2494178293712
 21
657.3931834661073
 31
0.0
  0
LINE
  5
275
330
271
100
AcDbEntity
  8
6
  6
Continuous
 62
     7
370
     9
100
AcDbLine
 10
833.2494178293712
 20
649.3931834661073
 30
0.0
 11
833.2494178293714
 21
721.3931834661068
 31
0.0
  0
LINE
  5
276
330
271
100
AcDbEntity
  8
6
  6
Continuous
 62
     7
370
     9
100
AcDbLine
 10
804.7494178293712
 20
657.3931834661073
 30
0.0
 11
789.2946046087461
 21
653.252078744467
 31
0.0
  0
LINE
  5
277
330
271
100
AcDbEntity
  8
6
  6
Continuous
 62
     7
370
     9
100
AcDbLine
 10
804.7494178293712
 20
657.3931834661073
 30
0.0
 11
789.2946046087461
 21
661.5342881877477
 31
0.0
  0
LINE
  5
278
330
271
100
AcDbEntity
  8
6
  6
Continuous
 62
     7
370
     9
100
AcDbLine
 10
833.2494178293712
 20
657.3931834661073
 30
0.0
 11
848.7042310499962
 21
661.5342881877476
 31
0.0
  0
LINE
  5
279
330
271
100
AcDbEntity
  8
6
  6
Continuous
 62
     7
370
     9
100
AcDbLine
 10
833.2494178293712
 20
657.3931834661073
 30
0.0
 11
848.7042310499962
 21
653.252078744467
 31
0.0
  0
MTEXT
  5
27A
330
271
100
AcDbEntity
  8
6
  6
Continuous
 62
     7
370
     9
100
AcDbMText
 10
775.73688888889
 20
669.3931834661073
 30
0.0
 40
24.0
 41
0.0
 71
     8
 72
     1
  1
28.5
 73
     1
 44
1.0
  0
ENDBLK
  5
273
330
271
100
AcDbEntity
  8
0
100
AcDbBlockEnd
  0
BLOCK
  5
27D
330
27C
100
AcDbEntity
  8
0
100
AcDbBlockBegin
  2
Dim8
 70
     0
 71
     0
 10
0.0
 20
0.0
 30
0.0
  3
Dim8
  1

  0
LINE
  5
27F
330
27C
100
AcDbEntity
  8
6
  6
Continuous
 62
     7
370
     9
100
AcDbLine
 10
833.2494178293712
 20
657.3931834661073
 30
0.0
 11
1096.252165486771
 21
657.3931834661073
 31
0.0
  0
LINE
  5
280
330
27C
100
AcDbEntity
  8
6
  6
Continuous
 62
     7
370
     9
100
AcDbLine
 10
1096.252165486771
 20
649.3931834661073
 30
0.0
 11
1096.252165486771
 21
721.3931834661068
 31
0.0
  0
LINE
  5
281
330
27C
100
AcDbEntity
  8
6
  6
Continuous
 62
     7
370
     9
100
AcDbLine
 10
833.2494178293712
 20
657.3931834661073
 30
0.0
 11
817.7946046087461
 21
653.252078744467
 31
0.0
  0
LINE
  5
282
330
27C
100
AcDbEntity
  8
6
  6
Continuous
 62
     7
370
     9
100
AcDbLine
 10
833.2494178293712
 20
657.3931834661073
 30
0.0
 11
817.7946046087461
 21
661.5342881877477
 31
0.0
  0
LINE
  5
283
330
27C
100
AcDbEntity
  8
6
  6
Continuous
 62
     7
370
     9
100
AcDbLine
 10
1096.252165486771
 20
657.3931834661073
 30
0.0
 11
1111.706978707396
 21
661.5342881877476
 31
0.0
  0
LINE
  5
284
330
27C
100
AcDbEntity
  8
6
  6
Continuous
 62
     7
370
     9
100
AcDbLine
 10
1096.252165486771
 20
657.3931834661073
 30
0.0
 11
1111.706978707396
 21
653.252078744467
 31
0.0
  0
MTEXT
  5
285
330
27C
100
AcDbEntity
  8
6
  6
Continuous
 62
     7
370
     9
100
AcDbMText
 10
964.7507916580714
 20
669.3931834661073
 30
0.0
 40
24.0
 41
0.0
 71
     8
 72
     1
  1
263
 73
     1
 44
1.0
  0
ENDBLK
  5
27E
330
27C
100
AcDbEntity
  8
0
100
AcDbBlockEnd
  0
BLOCK
  5
288
330
287
100
AcDbEntity
  8
0
100
AcDbBlockBegin
  2
Dim9
 70
     0
 71
     0
 10
0.0
 20
0.0
 30
0.0
  3
Dim9
  1

  0
LINE
  5
28A
330
287
100
AcDbEntity
  8
6
  6
Continuous
 62
     7
370
     9
100
AcDbLine
 10
1096.252165486771
 20
657.3931834661073
 30
0.0
 11
1179.906370370371
 21
657.3931834661073
 31
0.0
  0
LINE
  5
28B
330
287
100
AcDbEntity
  8
6
  6
Continuous
 62
     7
370
     9
100
AcDbLine
 10
1096.252165486771
 20
657.3931834661073
 30
0.0
 11
1080.797352266146
 21
653.252078744467
 31
0.0
  0
LINE
  5
28C
330
287
100
AcDbEntity
  8
6
  6
Continuous
 62
     7
370
     9
100
AcDbLine
 10
1096.252165486771
 20
657.3931834661073
 30
0.0
 11
1080.797352266146
 21
661.5342881877477
 31
0.0
  0
LINE
  5
28D
330
287
100
AcDbEntity
  8
6
  6
Continuous
 62
     7
370
     9
100
AcDbLine
 10
1124.752165486771
 20
657.3931834661073
 30
0.0
 11
1140.206978707396
 21
661.5342881877476
 31
0.0
  0
LINE
  5
28E
330
287
100
AcDbEntity
  8
6
  6
Continuous
 62
     7
370
     9
100
AcDbLine
 10
1124.752165486771
 20
657.3931834661073
 30
0.0
 11
1140.206978707396
 21
653.252078744467
 31
0.0
  0
MTEXT
  5
28F
330
287
100
AcDbEntity
  8
6
  6
Continuous
 62
     7
370
     9
100
AcDbMText
 10
1155.906370370371
 20
669.3931834661073
 30
0.0
 40
24.0
 41
0.0
 71
     8
 72
     1
  1
28.5
 73
     1
 44
1.0
  0
ENDBLK
  5
289
330
287
100
AcDbEntity
  8
0
100
AcDbBlockEnd
  0
ENDSEC
  0
SECTION
  2
ENTITIES
  0
INSERT
  5
9C
330
1F
100
AcDbEntity
  8
0
100
AcDbBlockReference
  2
*G12
 10
0.0
 20
0.0
 30
0.0
  0
LINE
  5
9D
330
1F
100
AcDbEntity
  8
8
  6
Continuous
 62
   171
370
    18
100
AcDbLine
 10
1896.0
 20
287.9999999999999
 30
0.0
 11
1896.0
 21
160.0
 31
0.0
  0
TEXT
  5
9E
330
1F
100
AcDbEntity
  8
8
  6
Continuous
 62
   171
370
     9
100
AcDbText
 10
1500.0
 20
156.0
 30
0.0
 40
28.0
  1
備考
 50
-0.0000000000000891
  7
T_STANDARD
100
AcDbText
  0
TEXT
  5
9F
330
1F
100
AcDbEntity
  8
8
  6
Continuous
 62
   171
370
     9
100
AcDbText
 10
1500.0
 20
220.0
 30
0.0
 40
28.0
  1
品番
 50
-0.0000000000000891
  7
T_STANDARD
100
AcDbText
  0
TEXT
  5
A0
330
1F
100
AcDbEntity
  8
8
  6
Continuous
 62
   171
370
     9
100
AcDbText
 10
1500.0
 20
283.9999999999999
 30
0.0
 40
28.0
  1
品名
 50
-0.0000000000000891
  7
T_STANDARD
100
AcDbText
  0
LINE
  5
A1
330
1F
100
AcDbEntity
  8
8
  6
Continuous
 62
   171
370
    18
100
AcDbLine
 10
1896.0
 20
224.0
 30
0.0
 11
1480.0
 21
224.0
 31
0.0
  0
LINE
  5
A2
330
1F
100
AcDbEntity
  8
8
  6
Continuous
 62
   171
370
    18
100
AcDbLine
 10
1520.0
 20
287.9999999999999
 30
0.0
 11
1520.0
 21
96.0
 31
0.0
  0
LINE
  5
A3
330
1F
100
AcDbEntity
  8
9
  6
Continuous
 62
   170
370
    30
100
AcDbLine
 10
2280.0
 20
287.9999999999999
 30
0.0
 11
1480.0
 21
287.9999999999999
 31
0.0
  0
LINE
  5
A4
330
1F
100
AcDbEntity
  8
9
  6
Continuous
 62
   170
370
    30
100
AcDbLine
 10
1480.0
 20
287.9999999999999
 30
0.0
 11
1480.0
 21
96.0
 31
0.0
  0
LINE
  5
A5
330
1F
100
AcDbEntity
  8
8
  6
Continuous
 62
   171
370
    18
100
AcDbLine
 10
1992.0
 20
287.9999999999999
 30
0.0
 11
1992.0
 21
96.0
 31
0.0
  0
TEXT
  5
A6
330
1F
100
AcDbEntity
  8
8
  6
Continuous
 62
   171
370
     9
100
AcDbText
 10
1908.0
 20
256.0
 30
0.0
 40
24.0
  1
縮　尺
100
AcDbText
  0
LINE
  5
A7
330
1F
100
AcDbEntity
  8
8
  6
Continuous
 62
   171
370
    18
100
AcDbLine
 10
1896.0
 20
248.0
 30
0.0
 11
1992.0
 21
248.0
 31
0.0
  0
LINE
  5
A8
330
1F
100
AcDbEntity
  8
8
  6
Continuous
 62
   171
370
    18
100
AcDbLine
 10
1992.0
 20
160.0
 30
0.0
 11
1480.0
 21
160.0
 31
0.0
  0
LINE
  5
A9
330
1F
100
AcDbEntity
  8
8
  6
Continuous
 62
   171
370
    18
100
AcDbLine
 10
2280.0
 20
144.0
 30
0.0
 11
1992.0
 21
144.0
 31
0.0
  0
LINE
  5
AA
330
1F
100
AcDbEntity
  8
8
  6
Continuous
 62
   171
370
    18
100
AcDbLine
 10
1992.0
 20
192.0
 30
0.0
 11
2280.0
 21
192.0
 31
0.0
  0
LINE
  5
AB
330
1F
100
AcDbEntity
  8
8
  6
Continuous
 62
   171
370
    18
100
AcDbLine
 10
2280.0
 20
224.0
 30
0.0
 11
1992.0
 21
224.0
 31
0.0
  0
TEXT
  5
AC
330
1F
100
AcDbEntity
  8
8
  6
Continuous
 62
   171
370
     9
100
AcDbText
 10
2008.0
 20
236.0
 30
0.0
 40
40.0
  1
株式会社シマブン
 41
0.8
100
AcDbText
  0
TEXT
  5
AD
330
1F
100
AcDbEntity
  8
8
  6
Continuous
 62
   171
370
     9
100
AcDbText
 10
2004.0
 20
95.99999999999994
 30
0.0
 40
24.0
  1
年月日
100
AcDbText
  0
TEXT
  5
AE
330
1F
100
AcDbEntity
  8
8
  6
Continuous
 62
   171
370
     9
100
AcDbText
 10
2004.0
 20
120.0
 30
0.0
 40
24.0
  1
作　成
100
AcDbText
  0
TEXT
  5
AF
330
1F
100
AcDbEntity
  8
8
  6
Continuous
 62
   171
370
     9
100
AcDbText
 10
2010.0
 20
196.0
 30
0.0
 40
24.0
  1
承 認
100
AcDbText
  0
LINE
  5
B0
330
1F
100
AcDbEntity
  8
8
  6
Continuous
 62
   171
370
    18
100
AcDbLine
 10
2088.0
 20
224.0
 30
0.0
 11
2088.0
 21
96.0
 31
0.0
  0
TEXT
  5
B1
330
1F
100
AcDbEntity
  8
8
  6
Continuous
 62
   171
370
     9
100
AcDbText
 10
2106.0
 20
196.0
 30
0.0
 40
24.0
  1
検 図
100
AcDbText
  0
LINE
  5
B2
330
1F
100
AcDbEntity
  8
8
  6
Continuous
 62
   171
370
    18
100
AcDbLine
 10
2184.0
 20
224.0
 30
0.0
 11
2184.0
 21
144.0
 31
0.0
  0
TEXT
  5
B3
330
1F
100
AcDbEntity
  8
8
  6
Continuous
 62
   171
370
     9
100
AcDbText
 10
2200.0
 20
152.0
 30
0.0
 40
32.0
  1
藤戸
100
AcDbText
  0
TEXT
  5
B4
330
1F
100
AcDbEntity
  8
8
  6
Continuous
 62
   171
370
     9
100
AcDbText
 10
2202.0
 20
196.0
 30
0.0
 40
24.0
  1
設 計
100
AcDbText
  0
LINE
  5
B5
330
1F
100
AcDbEntity
  8
8
  6
Continuous
 62
   171
370
    18
100
AcDbLine
 10
2040.0
 20
1508.0
 30
0.0
 11
2040.0
 21
1535.999999999999
 31
0.0
  0
LINE
  5
B6
330
1F
100
AcDbEntity
  8
8
  6
Continuous
 62
   171
370
    18
100
AcDbLine
 10
1880.0
 20
1508.0
 30
0.0
 11
1880.0
 21
1535.999999999999
 31
0.0
  0
LINE
  5
B7
330
1F
100
AcDbEntity
  8
8
  6
Continuous
 62
   171
370
    18
100
AcDbLine
 10
1480.0
 20
1508.0
 30
0.0
 11
1480.0
 21
1535.999999999999
 31
0.0
  0
LINE
  5
B8
330
1F
100
AcDbEntity
  8
8
  6
Continuous
 62
   171
370
    18
100
AcDbLine
 10
1424.0
 20
1508.0
 30
0.0
 11
1424.0
 21
1535.999999999999
 31
0.0
  0
LINE
  5
B9
330
1F
100
AcDbEntity
  8
8
  6
Continuous
 62
   171
370
    18
100
AcDbLine
 10
2280.0
 20
1508.0
 30
0.0
 11
1424.0
 21
1508.0
 31
0.0
  0
TEXT
  5
BA
330
1F
100
AcDbEntity
  8
8
  6
Continuous
 62
   171
370
     9
100
AcDbText
 10
1432.0
 20
1512.0
 30
0.0
 40
20.0
  1
記号
100
AcDbText
  0
TEXT
  5
BB
330
1F
100
AcDbEntity
  8
8
  6
Continuous
 62
   171
370
     9
100
AcDbText
 10
1595.0
 20
1512.0
 30
0.0
 40
20.0
  1
訂　 正　 記　 事
100
AcDbText
  0
TEXT
  5
BC
330
1F
100
AcDbEntity
  8
8
  6
Continuous
 62
   171
370
     9
100
AcDbText
 10
1890.0
 20
1512.0
 30
0.0
 40
20.0
  1
訂 正 年 月 日
100
AcDbText
  0
TEXT
  5
BD
330
1F
100
AcDbEntity
  8
8
  6
Continuous
 62
   171
370
     9
100
AcDbText
 10
2090.0
 20
1512.0
 30
0.0
 40
20.0
  1
備　　　　　考
100
AcDbText
  0
TEXT
  5
BE
330
1F
100
AcDbEntity
  8
8
  6
Continuous
 62
   171
370
     9
100
AcDbText
 10
1544.8
 20
239.9999999999999
 30
0.0
 40
32.0
  1
ペーパーホルダー「おくだけ」
 41
0.6000000000000001
100
AcDbText
  0
TEXT
  5
BF
330
1F
100
AcDbEntity
  8
8
  6
Continuous
 62
   171
370
     9
100
AcDbText
 10
1536.8
 20
111.9999999999997
 30
0.0
 40
32.00000000000001
  1
色については品番表参照のこと
 41
0.5999999999999998
100
AcDbText
  0
TEXT
  5
C0
330
1F
100
AcDbEntity
  8
8
  6
Continuous
 62
   171
370
     9
100
AcDbText
 10
1910.4
 20
188.0
 30
0.0
 40
32.0
  1
１：８
 41
0.7000000000000002
100
AcDbText
  0
LINE
  5
C1
330
1F
100
AcDbEntity
  8
2
  6
Continuous
 62
    90
370
    18
100
AcDbLine
 10
297.8136823654929
 20
919.3931834661068
 30
0.0
 11
387.8136823654929
 21
919.3931834661068
 31
0.0
  0
LINE
  5
C2
330
1F
100
AcDbEntity
  8
2
  6
Continuous
 62
    90
370
    18
100
AcDbLine
 10
387.8136823654929
 20
919.3931834661068
 30
0.0
 11
387.8136823654929
 21
916.3931834661068
 31
0.0
  0
LINE
  5
C3
330
1F
100
AcDbEntity
  8
2
  6
Continuous
 62
    90
370
    18
100
AcDbLine
 10
297.8136823654929
 20
919.3931834661068
 30
0.0
 11
297.8136823654929
 21
794.3931834661068
 31
0.0
  0
LINE
  5
C4
330
1F
100
AcDbEntity
  8
2
  6
Continuous
 62
    90
370
    18
100
AcDbLine
 10
297.8136823654929
 20
794.3931834661068
 30
0.0
 11
300.8136823654929
 21
794.3931834661068
 31
0.0
  0
LINE
  5
C5
330
1F
100
AcDbEntity
  8
2
  6
Continuous
 62
    90
370
    18
100
AcDbLine
 10
300.8136823654929
 20
891.3931834661068
 30
0.0
 11
358.6715467417655
 21
891.3931834661068
 31
0.0
  0
LINE
  5
C6
330
1F
100
AcDbEntity
  8
2
  6
Continuous
 62
    90
370
    18
100
AcDbLine
 10
387.8136823654929
 20
916.3931834661068
 30
0.0
 11
365.7426145536317
 21
894.322115654242
 31
0.0
  0
ARC
  5
C7
330
1F
100
AcDbEntity
  8
2
  6
Continuous
 62
    90
370
    18
100
AcDbCircle
 10
358.6715467417655
 20
901.3931834661068
 30
0.0
 40
10.0
100
AcDbArc
 50
269.9999999999998
 51
315.0000000000052
  0
LINE
  5
C8
330
1F
100
AcDbEntity
  8
2
  6
Continuous
 62
    90
370
    18
100
AcDbLine
 10
300.8136823654929
 20
794.3931834661068
 30
0.0
 11
300.8136823654929
 21
891.3931834661068
 31
0.0
  0
LINE
  5
C9
330
1F
100
AcDbEntity
  8
2
  6
Continuous
 62
    90
370
    18
100
AcDbLine
 10
300.8136823654929
 20
794.2364511235071
 30
0.0
 11
300.8136823654929
 21
884.3931834661068
 31
0.0
  0
LINE
  5
CA
330
1F
100
AcDbEntity
  8
2
  6
Continuous
 62
    90
370
    18
100
AcDbLine
 10
352.1672202164934
 20
742.882913272507
 30
0.0
 11
300.8136823654929
 21
794.2364511235071
 31
0.0
  0
ARC
  5
CB
330
1F
100
AcDbEntity
  8
2
  6
Continuous
 62
    90
370
    18
100
AcDbCircle
 10
330.1840384112936
 20
857.4822931983069
 30
0.0
 40
14.861
100
AcDbArc
 50
89.00000000000118
 51
96.29635500000076
  0
LINE
  5
CC
330
1F
100
AcDbEntity
  8
2
  6
HIDDEN
 62
    90
370
    18
100
AcDbLine
 10
326.2698144822932
 20
882.3227221963068
 30
0.0
 11
318.2470679658934
 21
882.4627603715069
 31
0.0
  0
LINE
  5
CD
330
1F
100
AcDbEntity
  8
2
  6
Continuous
 62
    90
370
    18
100
AcDbLine
 10
354.3832925364929
 20
871.9231578673068
 30
0.0
 11
330.4433985276935
 21
872.3410283819069
 31
0.0
  0
ARC
  5
CE
330
1F
100
AcDbEntity
  8
2
  6
Continuous
 62
    90
370
    18
100
AcDbCircle
 10
371.7960451244933
 20
853.7833011323071
 30
0.0
 40
17.8332
100
AcDbArc
 50
67.89025200000017
 51
88.99999999999942
  0
ARC
  5
CF
330
1F
100
AcDbEntity
  8
2
  6
Continuous
 62
    90
370
    18
100
AcDbCircle
 10
347.5280975128933
 20
794.0477104791069
 30
0.0
 40
82.3101243426
100
AcDbArc
 50
24.69329099999998
 51
67.89025200000023
  0
ARC
  5
D0
330
1F
100
AcDbEntity
  8
2
  6
HIDDEN
 62
    90
370
    18
100
AcDbCircle
 10
330.1840384112936
 20
857.4822931983069
 30
0.0
 40
14.861
100
AcDbArc
 50
96.29635500000076
 51
112.8093760000001
  0
ARC
  5
D1
330
1F
100
AcDbEntity
  8
2
  6
HIDDEN
 62
    90
370
    18
100
AcDbCircle
 10
321.1582962550935
 20
878.943847959107
 30
0.0
 40
8.4212323426
100
AcDbArc
 50
268.9999999999987
 51
292.8093760000012
  0
ARC
  5
D2
330
1F
100
AcDbEntity
  8
2
  6
HIDDEN
 62
    90
370
    18
100
AcDbCircle
 10
319.1425502150939
 20
876.9972650131069
 30
0.0
 40
6.4397676574
100
AcDbArc
 50
178.9999999999999
 51
268.9999999999953
  0
ARC
  5
D3
330
1F
100
AcDbEntity
  8
2
  6
HIDDEN
 62
    90
370
    18
100
AcDbCircle
 10
318.151969454693
 20
877.0145572727072
 30
0.0
 40
5.4490323426
100
AcDbArc
 50
88.99999999999412
 51
179.0000000000036
  0
CIRCLE
  5
D4
330
1F
100
AcDbEntity
  8
2
  6
Continuous
 62
    90
370
    18
100
AcDbCircle
 10
321.1237147080935
 20
876.9626834661069
 30
0.0
 40
2.37776
  0
LINE
  5
D5
330
1F
100
AcDbEntity
  8
2
  6
Continuous
 62
    90
370
    18
100
AcDbLine
 10
371.7808869044936
 20
881.528324469107
 30
0.0
 11
326.2698144822932
 21
882.3227221963068
 31
0.0
  0
ARC
  5
D6
330
1F
100
AcDbEntity
  8
2
  6
Continuous
 62
    90
370
    18
100
AcDbCircle
 10
371.296748218693
 20
853.7920156227071
 30
0.0
 40
27.7405323426
100
AcDbArc
 50
64.24666799999974
 51
88.99999999999885
  0
ARC
  5
D7
330
1F
100
AcDbEntity
  8
2
  6
Continuous
 62
    90
370
    18
100
AcDbCircle
 10
348.9122421362933
 20
807.3910249097069
 30
0.0
 40
79.25866765739998
100
AcDbArc
 50
16.00000000000014
 51
64.24666800000027
  0
LINE
  5
D8
330
1F
100
AcDbEntity
  8
2
  6
Continuous
 62
    90
370
    18
100
AcDbLine
 10
430.4487087632931
 20
810.5864698239068
 30
0.0
 11
425.100561805293
 21
829.2376727635071
 31
0.0
  0
LINE
  5
D9
330
1F
100
AcDbEntity
  8
2
  6
Continuous
 62
    90
370
    18
100
AcDbLine
 10
430.3819828732937
 20
806.763831265707
 30
0.0
 11
429.4789928468933
 21
806.7795928423072
 31
0.0
  0
LINE
  5
DA
330
1F
100
AcDbEntity
  8
2
  6
Continuous
 62
    90
370
    18
100
AcDbLine
 10
354.3832925364929
 20
871.9231578673068
 30
0.0
 11
372.1072760752938
 21
871.6137845415071
 31
0.0
  0
LINE
  5
DB
330
1F
100
AcDbEntity
  8
2
  6
Continuous
 62
    90
370
    18
100
AcDbLine
 10
430.4487087632931
 20
810.5864698239068
 30
0.0
 11
430.3819828732937
 21
806.763831265707
 31
0.0
  0
LINE
  5
DC
330
1F
100
AcDbEntity
  8
2
  6
Continuous
 62
    90
370
    18
100
AcDbLine
 10
314.1885823654936
 20
873.4951187809072
 30
0.0
 11
313.7157796504932
 21
873.4951187809072
 31
0.0
  0
LINE
  5
DD
330
1F
100
AcDbEntity
  8
2
  6
Continuous
 62
    90
370
    18
100
AcDbLine
 10
321.1237147080935
 20
884.3931834661068
 30
0.0
 11
300.8136823654929
 21
884.3931834661068
 31
0.0
  0
LINE
  5
DE
330
1F
100
AcDbEntity
  8
2
  6
Continuous
 62
    90
370
    18
100
AcDbLine
 10
429.6090147080938
 20
766.1851693265073
 30
0.0
 11
429.6090147080938
 21
768.5879493061068
 31
0.0
  0
ARC
  5
DF
330
1F
100
AcDbEntity
  8
2
  6
Continuous
 62
    90
370
    18
100
AcDbCircle
 10
426.6368147080937
 20
766.1851693265073
 30
0.0
 40
2.9722
100
AcDbArc
 50
293.4999999999939
 51
0.0
  0
ARC
  5
E0
330
1F
100
AcDbEntity
  8
2
  6
Continuous
 62
    90
370
    18
100
AcDbCircle
 10
426.6368147080937
 20
768.5879493061068
 30
0.0
 40
2.9722
100
AcDbArc
 50
0.0
 51
82.00000000000854
  0
ARC
  5
E1
330
1F
100
AcDbEntity
  8
2
  6
Continuous
 62
    90
370
    18
100
AcDbCircle
 10
397.2190372112934
 20
757.7153028753071
 30
0.0
 40
17.8332
100
AcDbArc
 50
81.99999999999905
 51
113.5000000000007
  0
LINE
  5
E2
330
1F
100
AcDbEntity
  8
2
  6
Continuous
 62
    90
370
    18
100
AcDbLine
 10
427.0504646986935
 20
771.5312238557069
 30
0.0
 11
399.7009401270932
 21
775.3749501729069
 31
0.0
  0
ARC
  5
E3
330
1F
100
AcDbEntity
  8
2
  6
Continuous
 62
    90
370
    18
100
AcDbCircle
 10
373.2958231888931
 20
786.2053021977069
 30
0.0
 40
17.8332
100
AcDbArc
 50
225.0000000000007
 51
293.4999999999998
  0
LINE
  5
E4
330
1F
100
AcDbEntity
  8
2
  6
Continuous
 62
    90
370
    18
100
AcDbLine
 10
390.1080665444931
 20
774.0694172673068
 30
0.0
 11
380.406796827893
 21
769.8511848335072
 31
0.0
  0
ARC
  5
E5
330
1F
100
AcDbEntity
  8
2
  6
Continuous
 62
    90
370
    18
100
AcDbCircle
 10
346.387414708093
 20
813.113710678507
 30
0.0
 40
17.8332
100
AcDbArc
 50
179.9999999999998
 51
225.0000000000007
  0
LINE
  5
E6
330
1F
100
AcDbEntity
  8
2
  6
Continuous
 62
    90
370
    18
100
AcDbLine
 10
360.6858485808932
 20
773.595324617507
 30
0.0
 11
333.7774401000931
 21
800.5037330983071
 31
0.0
  0
ARC
  5
E7
330
1F
100
AcDbEntity
  8
2
  6
Continuous
 62
    90
370
    18
100
AcDbCircle
 10
364.7771977966929
 20
755.4928878805069
 30
0.0
 40
17.8332
100
AcDbArc
 50
224.9999999999996
 51
293.5000000000003
  0
LINE
  5
E8
330
1F
100
AcDbEntity
  8
2
  6
Continuous
 62
    90
370
    18
100
AcDbLine
 10
427.8219764858929
 20
763.459483594507
 30
0.0
 11
371.8881714356937
 21
739.1387734885068
 31
0.0
  0
ARC
  5
E9
330
1F
100
AcDbEntity
  8
2
  6
Continuous
 62
    90
370
    18
100
AcDbCircle
 10
321.1237147080935
 20
876.9626834661069
 30
0.0
 40
7.4305
100
AcDbArc
 50
0.0
 51
89.99999999999991
  0
LINE
  5
EA
330
1F
100
AcDbEntity
  8
2
  6
Continuous
 62
    90
370
    18
100
AcDbLine
 10
328.5542147080939
 20
813.113710678507
 30
0.0
 11
328.5542147080939
 21
876.9626834661069
 31
0.0
  0
CIRCLE
  5
EB
330
1F
100
AcDbEntity
  8
7
  6
HIDDEN
 62
   132
370
     9
100
AcDbCircle
 10
366.6530899378938
 20
816.2930373521069
 30
0.0
 40
56.96716765739993
  0
LINE
  5
EC
330
1F
100
AcDbEntity
  8
7
  6
Continuous
 62
   132
370
     9
100
AcDbLine
 10
300.8136823654929
 20
861.6638669889069
 30
0.0
 11
300.811265966893
 21
861.6680191523071
 31
0.0
  0
LINE
  5
ED
330
1F
100
AcDbEntity
  8
7
  6
Continuous
 62
   132
370
     9
100
AcDbLine
 10
300.8083353776935
 20
816.6638699611069
 30
0.0
 11
300.8059219512932
 21
816.6680221245072
 31
0.0
  0
LINE
  5
EE
330
1F
100
AcDbEntity
  8
1
  6
Continuous
 62
    45
370
     9
100
AcDbLine
 10
305.7673500228937
 20
796.288327226707
 30
0.0
 11
305.7673500228937
 21
868.5414511235069
 31
0.0
  0
LINE
  5
EF
330
1F
100
AcDbEntity
  8
1
  6
Continuous
 62
    45
370
     9
100
AcDbLine
 10
323.6005500228928
 20
813.113710678507
 30
0.0
 11
323.6005500228928
 21
868.5414511235069
 31
0.0
  0
LINE
  5
F0
330
1F
100
AcDbEntity
  8
1
  6
Continuous
 62
    45
370
     9
100
AcDbLine
 10
318.6468823654939
 20
873.4951187809072
 30
0.0
 11
310.721014708093
 21
873.4951187809072
 31
0.0
  0
ARC
  5
F1
330
1F
100
AcDbEntity
  8
1
  6
Continuous
 62
    45
370
     9
100
AcDbCircle
 10
310.721014708093
 20
868.5414511235069
 30
0.0
 40
4.9536676574
100
AcDbArc
 50
89.99999999999991
 51
179.9999999999998
  0
ARC
  5
F2
330
1F
100
AcDbEntity
  8
1
  6
Continuous
 62
    45
370
     9
100
AcDbCircle
 10
318.6468823654939
 20
868.5414511235069
 30
0.0
 40
4.9536676574
100
AcDbArc
 50
0.0
 51
89.99999999999991
  0
CIRCLE
  5
F3
330
1F
100
AcDbEntity
  8
1
  6
HIDDEN
 62
    45
370
     9
100
AcDbCircle
 10
321.1237147080935
 20
876.9626834661069
 30
0.0
 40
2.4768323426
  0
LINE
  5
F4
330
1F
100
AcDbEntity
  8
1
  6
Continuous
 62
    45
370
     9
100
AcDbLine
 10
355.6699935828935
 20
746.3856836667071
 30
0.0
 11
305.7673500228937
 21
796.288327226707
 31
0.0
  0
LINE
  5
F5
330
1F
100
AcDbEntity
  8
1
  6
Continuous
 62
    45
370
     9
100
AcDbLine
 10
357.1830752144931
 20
770.0925542233069
 30
0.0
 11
330.2746667336939
 21
797.000962704107
 31
0.0
  0
ARC
  5
F6
330
1F
100
AcDbEntity
  8
1
  6
Continuous
 62
    45
370
     9
100
AcDbCircle
 10
346.387414708093
 20
813.113710678507
 30
0.0
 40
22.7868676574
100
AcDbArc
 50
179.9999999999998
 51
225.0000000000004
  0
LINE
  5
F7
330
1F
100
AcDbEntity
  8
1
  6
Continuous
 62
    45
370
     9
100
AcDbLine
 10
423.579853508493
 20
767.0166393043071
 30
0.0
 11
369.9129008152938
 21
743.6815820511072
 31
0.0
  0
ARC
  5
F8
330
1F
100
AcDbEntity
  8
1
  6
Continuous
 62
    45
370
     9
100
AcDbCircle
 10
364.7771977966929
 20
755.4928878805069
 30
0.0
 40
12.8795323426
100
AcDbArc
 50
224.9999999999996
 51
293.5000000000007
  0
LINE
  5
F9
330
1F
100
AcDbEntity
  8
1
  6
Continuous
 62
    45
370
     9
100
AcDbLine
 10
392.0833341926934
 20
769.5266087047069
 30
0.0
 11
382.3820644760933
 21
765.3083762709073
 31
0.0
  0
ARC
  5
FA
330
1F
100
AcDbEntity
  8
1
  6
Continuous
 62
    45
370
     9
100
AcDbCircle
 10
373.2958231888931
 20
786.2053021977069
 30
0.0
 40
22.7868676574
100
AcDbArc
 50
225.0000000000004
 51
293.5000000000002
  0
LINE
  5
FB
330
1F
100
AcDbEntity
  8
1
  6
Continuous
 62
    45
370
     9
100
AcDbLine
 10
423.579853508493
 20
767.0166393043071
 30
0.0
 11
399.0115205038935
 21
770.4694915995071
 31
0.0
  0
ARC
  5
FC
330
1F
100
AcDbEntity
  8
1
  6
Continuous
 62
    45
370
     9
100
AcDbCircle
 10
397.2190372112934
 20
757.7153028753071
 30
0.0
 40
12.8795323426
100
AcDbArc
 50
81.99999999999923
 51
113.500000000001
  0
CIRCLE
  5
FD
330
1F
100
AcDbEntity
  8
1
  6
HIDDEN
 62
    45
370
     9
100
AcDbCircle
 10
321.1237147080935
 20
876.9626834661069
 30
0.0
 40
3.9629323426
  0
CIRCLE
  5
FE
330
1F
100
AcDbEntity
  8
1
  6
HIDDEN
 62
    45
370
     9
100
AcDbCircle
 10
321.1237147080935
 20
876.9626834661069
 30
0.0
 40
3.9629323426
  0
ARC
  5
FF
330
1F
100
AcDbEntity
  8
1
  6
HIDDEN
 62
    45
370
     9
100
AcDbCircle
 10
318.151969454693
 20
877.0145572727072
 30
0.0
 40
3.4675676574
100
AcDbArc
 50
88.99999999998514
 51
179.0000000000002
  0
LINE
  5
100
330
1F
100
AcDbEntity
  8
1
  6
HIDDEN
 62
    45
370
     9
100
AcDbLine
 10
314.6849308488934
 20
877.0750742369071
 30
0.0
 11
314.6330570422931
 21
874.103326011307
 31
0.0
  0
LINE
  5
101
330
1F
100
AcDbEntity
  8
1
  6
HIDDEN
 62
    45
370
     9
100
AcDbLine
 10
314.1291205322939
 20
873.6166817609071
 30
0.0
 11
313.6563891500934
 21
873.624932588107
 31
0.0
  0
ARC
  5
102
330
1F
100
AcDbEntity
  8
1
  6
HIDDEN
 62
    45
370
     9
100
AcDbCircle
 10
314.1377666620936
 20
874.1119721411071
 30
0.0
 40
0.4953676574
100
AcDbArc
 50
268.9999999999519
 51
359.0000000000036
  0
LINE
  5
103
330
1F
100
AcDbEntity
  8
1
  6
HIDDEN
 62
    45
370
     9
100
AcDbLine
 10
327.7550139056937
 20
880.3150308183069
 30
0.0
 11
323.1024865800935
 21
880.3962402389068
 31
0.0
  0
LINE
  5
104
330
1F
100
AcDbEntity
  8
1
  6
HIDDEN
 62
    45
370
     9
100
AcDbLine
 10
319.2659797366939
 20
880.4632068771068
 30
0.0
 11
318.2124864188934
 21
880.4815958785073
 31
0.0
  0
LINE
  5
105
330
1F
100
AcDbEntity
  8
2
  6
HIDDEN
 62
    90
370
    18
100
AcDbLine
 10
321.1582962550935
 20
870.522615616507
 30
0.0
 11
319.0301607725748
 21
870.522615616507
 31
0.0
  0
ARC
  5
106
330
1F
100
AcDbEntity
  8
1
  6
HIDDEN
 62
    45
370
     9
100
AcDbCircle
 10
371.296748218693
 20
853.7920156227071
 30
0.0
 40
25.7590676574
100
AcDbArc
 50
64.24666799999873
 51
88.99999999999801
  0
ARC
  5
107
330
1F
100
AcDbEntity
  8
1
  6
HIDDEN
 62
    45
370
     9
100
AcDbCircle
 10
348.9122421362933
 20
807.3910249097069
 30
0.0
 40
77.2772
100
AcDbArc
 50
16.00000000000005
 51
64.24666800000018
  0
LINE
  5
108
330
1F
100
AcDbEntity
  8
1
  6
HIDDEN
 62
    45
370
     9
100
AcDbLine
 10
371.7463053574936
 20
879.547159976107
 30
0.0
 11
327.7550139056937
 21
880.3150308183069
 31
0.0
  0
ARC
  5
109
330
1F
100
AcDbEntity
  8
2
  6
Continuous
 62
    90
370
    18
100
AcDbCircle
 10
347.5280975128933
 20
794.0477104791069
 30
0.0
 40
82.3101243426
100
AcDbArc
 50
17.39754849624271
 51
24.69329099999998
  0
LINE
  5
10A
330
1F
100
AcDbEntity
  8
1
  6
HIDDEN
 62
    45
370
     9
100
AcDbLine
 10
426.072790692119
 20
818.658434618708
 30
0.0
 11
423.1958541850934
 21
828.6915072359068
 31
0.0
  0
LINE
  5
10B
330
1F
100
AcDbEntity
  8
2
  6
Continuous
 62
    90
370
    18
100
AcDbLine
 10
429.4789928468933
 20
806.7795928423072
 30
0.0
 11
426.072790692119
 21
818.658434618708
 31
0.0
  0
DIMENSION
  5
117
330
1F
100
AcDbEntity
  8
6
  6
Continuous
 62
     7
370
     9
100
AcDbDimension
  2
Dim1
 10
297.8136823654925
 20
657.3931834661068
 30
0.0
 11
364.313682365492
 21
669.3931834661068
 31
0.0
 70
   160
  1
<>
 71
     5
 42
-1.0
  3
Standard
100
AcDbAlignedDimension
 13
297.8136823654929
 23
737.3931834661068
 33
0.0
 14
430.8136823654929
 24
924.3931834661068
 34
0.0
100
AcDbRotatedDimension
1001
ACAD
1000
DSTYLE
1002
{
1070
   344
1005
3C
1070
   343
1005
3C
1070
   173
1070
     1
1070
   289
1070
     2
1070
   279
1070
     2
1070
   288
1070
     1
1070
    77
1070
     3
1070
   172
1070
     1
1070
   174
1070
     0
1070
    74
1070
     0
1070
    73
1070
     0
1070
   284
1070
     8
1070
    78
1070
     8
1070
   140
1040
3.0
1070
    40
1040
8.0
1070
    42
1040
2.0
1070
    44
1040
1.0
1070
    43
1040
10.0
1070
   271
1070
     2
1070
    41
1040
2.0
1002
}
  0
LINE
  5
118
330
1F
100
AcDbEntity
  8
7
  6
Continuous
 62
   132
370
     9
100
AcDbLine
 10
297.8136823654929
 20
1139.393183466107
 30
0.0
 11
297.8136823654929
 21
618.1126078341945
 31
0.0
  0
LINE
  5
119
330
1F
100
AcDbEntity
  8
8
  6
Continuous
 62
   171
370
    18
100
AcDbLine
 10
1918.841872000001
 20
1040.785000000002
 30
0.0
 11
1918.841872000001
 21
800.7850000000021
 31
0.0
  0
LINE
  5
11A
330
1F
100
AcDbEntity
  8
8
  6
Continuous
 62
   171
370
    18
100
AcDbLine
 10
1739.420936
 20
1040.785000000002
 30
0.0
 11
1739.420936
 21
800.7850000000021
 31
0.0
  0
LINE
  5
11B
330
1F
100
AcDbEntity
  8
8
  6
Continuous
 62
   171
370
    18
100
AcDbLine
 10
1560.0
 20
1040.785000000002
 30
0.0
 11
1560.0
 21
800.7850000000021
 31
0.0
  0
TEXT
  5
11C
330
1F
100
AcDbEntity
  8
8
  6
Continuous
 62
   171
370
     9
100
AcDbText
 10
1620.910468
 20
1004.235954332392
 30
0.0
 40
24.0
  1
品　番
 41
0.8000000000000002
100
AcDbText
  0
TEXT
  5
11D
330
1F
100
AcDbEntity
  8
8
  6
Continuous
 62
   171
370
     9
100
AcDbText
 10
1753.127043065689
 20
956.6781647622606
 30
0.0
 40
24.0
  1
オフホワイト
 41
0.7000000000000001
100
AcDbText
  0
LINE
  5
11E
330
1F
100
AcDbEntity
  8
8
  6
Continuous
 62
   171
370
    18
100
AcDbLine
 10
2098.262808000001
 20
1040.785000000002
 30
0.0
 11
2098.262808000001
 21
800.7850000000021
 31
0.0
  0
LINE
  5
11F
330
1F
100
AcDbEntity
  8
8
  6
Continuous
 62
   171
370
    18
100
AcDbLine
 10
1560.0
 20
800.7850000000021
 30
0.0
 11
2098.262808000001
 21
800.7850000000021
 31
0.0
  0
LINE
  5
120
330
1F
100
AcDbEntity
  8
8
  6
Continuous
 62
   171
370
    18
100
AcDbLine
 10
1560.0
 20
1040.785000000002
 30
0.0
 11
2098.262808000001
 21
1040.785000000002
 31
0.0
  0
LINE
  5
121
330
1F
100
AcDbEntity
  8
8
  6
Continuous
 62
   171
370
    18
100
AcDbLine
 10
1560.0
 20
992.7850000000021
 30
0.0
 11
2098.262808000001
 21
992.7850000000021
 31
0.0
  0
TEXT
  5
122
330
1F
100
AcDbEntity
  8
8
  6
Continuous
 62
   171
370
     9
100
AcDbText
 10
1781.098411646691
 20
1003.315475662429
 30
0.0
 40
24.0
  1
本　体　色
 41
0.8000000000000002
100
AcDbText
  0
LINE
  5
123
330
1F
100
AcDbEntity
  8
8
  6
Continuous
 62
   171
370
    18
100
AcDbLine
 10
1560.0
 20
944.7850000000021
 30
0.0
 11
1918.841872000001
 21
944.7850000000021
 31
0.0
  0
LINE
  5
124
330
1F
100
AcDbEntity
  8
8
  6
Continuous
 62
   171
370
    18
100
AcDbLine
 10
1560.0
 20
896.7850000000021
 30
0.0
 11
1918.841872000001
 21
896.7850000000021
 31
0.0
  0
LINE
  5
125
330
1F
100
AcDbEntity
  8
8
  6
Continuous
 62
   171
370
    18
100
AcDbLine
 10
1560.0
 20
848.7850000000021
 30
0.0
 11
1918.841872000001
 21
848.7850000000021
 31
0.0
  0
TEXT
  5
126
330
1F
100
AcDbEntity
  8
8
  6
Continuous
 62
   171
370
     9
100
AcDbText
 10
1753.127043065689
 20
909.1770687622598
 30
0.0
 40
24.0
  1
パステルアイボリー
 41
0.7000000000000001
100
AcDbText
  0
TEXT
  5
127
330
1F
100
AcDbEntity
  8
8
  6
Continuous
 62
   171
370
     9
100
AcDbText
 10
1753.127043065689
 20
861.6759407622599
 30
0.0
 40
24.0
  1
パステルピンク
 41
0.7000000000000001
100
AcDbText
  0
TEXT
  5
128
330
1F
100
AcDbEntity
  8
8
  6
Continuous
 62
   171
370
     9
100
AcDbText
 10
1753.127043065689
 20
813.6759407622599
 30
0.0
 40
24.0
  1
パステルブルー
 41
0.7000000000000001
100
AcDbText
  0
TEXT
  5
129
330
1F
100
AcDbEntity
  8
8
  6
Continuous
 62
   171
370
     9
100
AcDbText
 10
1932.54797906569
 20
932.286128000002
 30
0.0
 40
24.0
  1
Ｎ（ナチュラル）
 41
0.7000000000000001
100
AcDbText
  0
TEXT
  5
12A
330
1F
100
AcDbEntity
  8
8
  6
Continuous
 62
   171
370
     9
100
AcDbText
 10
1932.54797906569
 20
884.7850000000021
 30
0.0
 40
24.0
  1
Ｄ（ダーク）
 41
0.7000000000000001
100
AcDbText
  0
TEXT
  5
12B
330
1F
100
AcDbEntity
  8
8
  6
Continuous
 62
   171
370
     9
100
AcDbText
 10
1932.54797906569
 20
836.7850000000021
 30
0.0
 40
24.0
  1
Ｓ（スノー）
 41
0.7000000000000001
100
AcDbText
  0
TEXT
  5
12C
330
1F
100
AcDbEntity
  8
8
  6
Continuous
 62
   171
370
     9
100
AcDbText
 10
1571.292919396381
 20
1052.235954332392
 30
0.0
 40
28.0
  1
品　番　表
100
AcDbText
  0
TEXT
  5
12D
330
1F
100
AcDbEntity
  8
8
  6
Continuous
 62
   171
370
     9
100
AcDbText
 10
1604.0
 20
604.7850000000022
 30
0.0
 40
24.0
  1
名　称
100
AcDbText
  0
TEXT
  5
12E
330
1F
100
AcDbEntity
  8
8
  6
Continuous
 62
   171
370
     9
100
AcDbText
 10
1569.903206233195
 20
652.2359543323925
 30
0.0
 40
28.0
  1
材　質　表
100
AcDbText
  0
TEXT
  5
12F
330
1F
100
AcDbEntity
  8
8
  6
Continuous
 62
   171
370
     9
100
AcDbText
 10
1568.0
 20
556.7850000000022
 30
0.0
 40
24.0
  1
ﾍﾟｰﾊﾟｰﾎﾙﾀﾞｰ本体
 41
0.7999999999999997
100
AcDbText
  0
TEXT
  5
130
330
1F
100
AcDbEntity
  8
8
  6
Continuous
 62
   171
370
     9
100
AcDbText
 10
1803.999999999999
 20
604.7850000000022
 30
0.0
 40
24.0
  1
材　質
100
AcDbText
  0
LINE
  5
131
330
1F
100
AcDbEntity
  8
8
  6
Continuous
 62
   171
370
    18
100
AcDbLine
 10
1560.0
 20
496.7850000000022
 30
0.0
 11
1959.999999999999
 21
496.7850000000022
 31
0.0
  0
LINE
  5
132
330
1F
100
AcDbEntity
  8
8
  6
Continuous
 62
   171
370
    18
100
AcDbLine
 10
1560.0
 20
544.7850000000022
 30
0.0
 11
1959.999999999999
 21
544.7850000000022
 31
0.0
  0
LINE
  5
133
330
1F
100
AcDbEntity
  8
8
  6
Continuous
 62
   171
370
    18
100
AcDbLine
 10
1560.0
 20
640.7850000000022
 30
0.0
 11
1959.999999999999
 21
640.7850000000022
 31
0.0
  0
LINE
  5
134
330
1F
100
AcDbEntity
  8
8
  6
Continuous
 62
   171
370
    18
100
AcDbLine
 10
1560.0
 20
592.7850000000022
 30
0.0
 11
1959.999999999999
 21
592.7850000000022
 31
0.0
  0
TEXT
  5
135
330
1F
100
AcDbEntity
  8
8
  6
Continuous
 62
   171
370
     9
100
AcDbText
 10
1724.799999999999
 20
556.7850000000022
 30
0.0
 40
24.0
  1
ＡＢＳ樹脂＋ウレタン樹脂
 41
0.7999999999999997
100
AcDbText
  0
TEXT
  5
136
330
1F
100
AcDbEntity
  8
8
  6
Continuous
 62
   171
370
     9
100
AcDbText
 10
1611.2
 20
508.7850000000022
 30
0.0
 40
24.0
  1
棚　板
 41
0.7999999999999997
100
AcDbText
  0
TEXT
  5
137
330
1F
100
AcDbEntity
  8
8
  6
Continuous
 62
   171
370
     9
100
AcDbText
 10
1734.399999999999
 20
508.7850000000022
 30
0.0
 40
24.0
  1
ハードメイプル＋ＳＵＳ
 41
0.7999999999999997
100
AcDbText
  0
LINE
  5
138
330
1F
100
AcDbEntity
  8
8
  6
Continuous
 62
   171
370
    18
100
AcDbLine
 10
1560.0
 20
496.785000000002
 30
0.0
 11
1560.0
 21
640.7850000000022
 31
0.0
  0
LINE
  5
139
330
1F
100
AcDbEntity
  8
8
  6
Continuous
 62
   171
370
    18
100
AcDbLine
 10
1720.0
 20
496.785000000002
 30
0.0
 11
1720.0
 21
640.7850000000022
 31
0.0
  0
LINE
  5
13A
330
1F
100
AcDbEntity
  8
8
  6
Continuous
 62
   171
370
    18
100
AcDbLine
 10
1959.999999999999
 20
496.7850000000025
 30
0.0
 11
1959.999999999999
 21
640.7850000000022
 31
0.0
  0
INSERT
  5
141
330
1F
100
AcDbEntity
  8
0
100
AcDbBlockReference
  2
*G14
 10
0.0
 20
0.0
 30
0.0
  0
ARC
  5
142
330
1F
100
AcDbEntity
  8
2
  6
Continuous
 62
    90
370
    18
100
AcDbCircle
 10
420.8136823654929
 20
929.3931834661068
 30
0.0
 40
10.0
100
AcDbArc
 50
269.9999999999998
 51
89.99999999999991
  0
INSERT
  5
148
330
1F
100
AcDbEntity
  8
0
100
AcDbBlockReference
  2
*G15
 10
0.0
 20
0.0
 30
0.0
  0
TEXT
  5
149
330
1F
100
AcDbEntity
  8
8
  6
Continuous
 62
   171
370
     9
100
AcDbText
 10
1989.31934764669
 20
1003.315475662429
 30
0.0
 40
24.0
  1
棚色
 41
0.8000000000000002
100
AcDbText
  0
TEXT
  5
14A
330
1F
100
AcDbEntity
  8
8
  6
Continuous
 62
   171
370
     9
100
AcDbText
 10
1568.346666666667
 20
768.7850000000019
 30
0.0
 40
24.0
  1
※ ○に棚色記号を付記
100
AcDbText
  0
ARC
  5
14B
330
1F
100
AcDbEntity
  8
2
  6
Continuous
 62
    90
370
    18
100
AcDbCircle
 10
814.7494178293716
 20
929.3931834661068
 30
0.0
 40
10.0
100
AcDbArc
 50
89.99999999999991
 51
269.9999999999998
  0
TEXT
  5
14C
330
1F
100
AcDbEntity
  8
8
  6
Continuous
 62
   171
370
     9
100
AcDbText
 10
2008.0
 20
152.0
 30
0.0
 40
32.0
  1
大野
100
AcDbText
  0
TEXT
  5
14D
330
1F
100
AcDbEntity
  8
8
  6
Continuous
 62
   171
370
     9
100
AcDbText
 10
2104.0
 20
152.0
 30
0.0
 40
32.0
  1
深川
100
AcDbText
  0
TEXT
  5
14E
330
1F
100
AcDbEntity
  8
8
  6
Continuous
 62
   171
370
     9
100
AcDbText
 10
2096.0
 20
108.0
 30
0.0
 40
24.0
  1
２０１３年０２月０７日
 41
0.6666666666666666
100
AcDbText
  0
TEXT
  5
14F
330
1F
100
AcDbEntity
  8
8
  6
Continuous
 62
   171
370
     9
100
AcDbText
 10
1544.8
 20
175.9999999999999
 30
0.0
 40
32.0
  1
ＰＲ－２ＡＳ
 41
0.6000000000000001
100
AcDbText
  0
LINE
  5
150
330
1F
100
AcDbEntity
  8
2
  6
Continuous
 62
    90
370
    18
100
AcDbLine
 10
1074.644913144172
 20
759.8711940897072
 30
0.0
 11
1074.644913144172
 21
764.6026244087068
 31
0.0
  0
LINE
  5
151
330
1F
100
AcDbEntity
  8
2
  6
Continuous
 62
    90
370
    18
100
AcDbLine
 10
1072.663445486771
 20
759.8711940897072
 30
0.0
 11
1072.663445486771
 21
764.6026244087068
 31
0.0
  0
LINE
  5
152
330
1F
100
AcDbEntity
  8
2
  6
Continuous
 62
    90
370
    18
100
AcDbLine
 10
1072.663445486771
 20
759.8711940897072
 30
0.0
 11
1074.644913144172
 21
759.8711940897072
 31
0.0
  0
LINE
  5
153
330
1F
100
AcDbEntity
  8
2
  6
Continuous
 62
    90
370
    18
100
AcDbLine
 10
1046.904377829371
 20
759.8711940897072
 30
0.0
 11
1046.904377829371
 21
764.6026244087068
 31
0.0
  0
LINE
  5
154
330
1F
100
AcDbEntity
  8
2
  6
Continuous
 62
    90
370
    18
100
AcDbLine
 10
1044.922913144171
 20
759.8711940897072
 30
0.0
 11
1044.922913144171
 21
764.6026244087068
 31
0.0
  0
LINE
  5
155
330
1F
100
AcDbEntity
  8
2
  6
Continuous
 62
    90
370
    18
100
AcDbLine
 10
1044.922913144171
 20
759.8711940897072
 30
0.0
 11
1046.904377829371
 21
759.8711940897072
 31
0.0
  0
LINE
  5
156
330
1F
100
AcDbEntity
  8
2
  6
Continuous
 62
    90
370
    18
100
AcDbLine
 10
1017.578673144172
 20
759.8711940897072
 30
0.0
 11
1017.578673144172
 21
764.6026244087068
 31
0.0
  0
LINE
  5
157
330
1F
100
AcDbEntity
  8
2
  6
Continuous
 62
    90
370
    18
100
AcDbLine
 10
1015.597205486771
 20
759.8711940897072
 30
0.0
 11
1015.597205486771
 21
764.6026244087068
 31
0.0
  0
LINE
  5
158
330
1F
100
AcDbEntity
  8
2
  6
Continuous
 62
    90
370
    18
100
AcDbLine
 10
1015.597205486771
 20
759.8711940897072
 30
0.0
 11
1017.578673144172
 21
759.8711940897072
 31
0.0
  0
LINE
  5
159
330
1F
100
AcDbEntity
  8
2
  6
Continuous
 62
    90
370
    18
100
AcDbLine
 10
989.8381378293711
 20
759.8711940897072
 30
0.0
 11
989.8381378293711
 21
764.6026244087068
 31
0.0
  0
LINE
  5
15A
330
1F
100
AcDbEntity
  8
2
  6
Continuous
 62
    90
370
    18
100
AcDbLine
 10
987.856673144172
 20
759.8711940897072
 30
0.0
 11
987.856673144172
 21
764.6026244087068
 31
0.0
  0
LINE
  5
15B
330
1F
100
AcDbEntity
  8
2
  6
Continuous
 62
    90
370
    18
100
AcDbLine
 10
987.856673144172
 20
759.8711940897072
 30
0.0
 11
989.8381378293711
 21
759.8711940897072
 31
0.0
  0
ARC
  5
15C
330
1F
100
AcDbEntity
  8
2
  6
Continuous
 62
    90
370
    18
100
AcDbCircle
 10
1044.823338499772
 20
751.6291943237072
 30
0.0
 40
6.9351323426
100
AcDbArc
 50
225.0000000000023
 51
269.9999999999998
  0
LINE
  5
15D
330
1F
100
AcDbEntity
  8
2
  6
Continuous
 62
    90
370
    18
100
AcDbLine
 10
1044.823338499772
 20
744.6940590089068
 30
0.0
 11
1045.913645486772
 21
744.6940590089068
 31
0.0
  0
LINE
  5
15E
330
1F
100
AcDbEntity
  8
2
  6
Continuous
 62
    90
370
    18
100
AcDbLine
 10
1038.978513144172
 20
747.666259008907
 30
0.0
 11
1039.919458164572
 21
746.7253139885072
 31
0.0
  0
ARC
  5
15F
330
1F
100
AcDbEntity
  8
2
  6
Continuous
 62
    90
370
    18
100
AcDbCircle
 10
1047.003952473772
 20
751.6291943237072
 30
0.0
 40
6.9351323426
100
AcDbArc
 50
269.9999999999998
 51
314.999999999997
  0
LINE
  5
160
330
1F
100
AcDbEntity
  8
2
  6
Continuous
 62
    90
370
    18
100
AcDbLine
 10
1047.003952473772
 20
744.6940590089068
 30
0.0
 11
1045.913645486772
 21
744.6940590089068
 31
0.0
  0
LINE
  5
161
330
1F
100
AcDbEntity
  8
2
  6
Continuous
 62
    90
370
    18
100
AcDbLine
 10
1052.848777829372
 20
747.666259008907
 30
0.0
 11
1051.907832808971
 21
746.7253139885072
 31
0.0
  0
ARC
  5
162
330
1F
100
AcDbEntity
  8
2
  6
Continuous
 62
    90
370
    18
100
AcDbCircle
 10
1072.563870842372
 20
751.6291943237072
 30
0.0
 40
6.9351323426
100
AcDbArc
 50
224.999999999997
 51
269.9999999999998
  0
LINE
  5
163
330
1F
100
AcDbEntity
  8
2
  6
Continuous
 62
    90
370
    18
100
AcDbLine
 10
1072.563870842372
 20
744.6940590089068
 30
0.0
 11
1073.654177829372
 21
744.6940590089068
 31
0.0
  0
LINE
  5
164
330
1F
100
AcDbEntity
  8
2
  6
Continuous
 62
    90
370
    18
100
AcDbLine
 10
1066.719045486772
 20
747.666259008907
 30
0.0
 11
1067.659990507171
 21
746.7253139885072
 31
0.0
  0
ARC
  5
165
330
1F
100
AcDbEntity
  8
2
  6
Continuous
 62
    90
370
    18
100
AcDbCircle
 10
1074.744484816372
 20
751.6291943237072
 30
0.0
 40
6.9351323426
100
AcDbArc
 50
269.9999999999998
 51
314.999999999997
  0
LINE
  5
166
330
1F
100
AcDbEntity
  8
2
  6
Continuous
 62
    90
370
    18
100
AcDbLine
 10
1066.719045486772
 20
747.666259008907
 30
0.0
 11
1052.848777829372
 21
747.666259008907
 31
0.0
  0
LINE
  5
167
330
1F
100
AcDbEntity
  8
2
  6
Continuous
 62
    90
370
    18
100
AcDbLine
 10
1074.744484816372
 20
744.6940590089068
 30
0.0
 11
1073.654177829372
 21
744.6940590089068
 31
0.0
  0
LINE
  5
168
330
1F
100
AcDbEntity
  8
2
  6
Continuous
 62
    90
370
    18
100
AcDbLine
 10
1080.589313144171
 20
747.666259008907
 30
0.0
 11
1079.648365151571
 21
746.7253139885072
 31
0.0
  0
LINE
  5
169
330
1F
100
AcDbEntity
  8
2
  6
Continuous
 62
    90
370
    18
100
AcDbLine
 10
1092.478113144172
 20
747.666259008907
 30
0.0
 11
1080.589313144171
 21
747.666259008907
 31
0.0
  0
LINE
  5
16A
330
1F
100
AcDbEntity
  8
2
  6
Continuous
 62
    90
370
    18
100
AcDbLine
 10
1090.694793144171
 20
806.7795928423072
 30
0.0
 11
1090.694793144171
 21
882.4627603715069
 31
0.0
  0
ARC
  5
16B
330
1F
100
AcDbEntity
  8
2
  6
Continuous
 62
    90
370
    18
100
AcDbCircle
 10
1017.678244816372
 20
751.6291943237072
 30
0.0
 40
6.9351323426
100
AcDbArc
 50
269.9999999999998
 51
314.999999999997
  0
LINE
  5
16C
330
1F
100
AcDbEntity
  8
2
  6
Continuous
 62
    90
370
    18
100
AcDbLine
 10
1017.678244816372
 20
744.6940590089068
 30
0.0
 11
1016.587937829372
 21
744.6940590089068
 31
0.0
  0
LINE
  5
16D
330
1F
100
AcDbEntity
  8
2
  6
Continuous
 62
    90
370
    18
100
AcDbLine
 10
1023.523073144172
 20
747.666259008907
 30
0.0
 11
1022.582125151571
 21
746.7253139885072
 31
0.0
  0
ARC
  5
16E
330
1F
100
AcDbEntity
  8
2
  6
Continuous
 62
    90
370
    18
100
AcDbCircle
 10
1015.497630842372
 20
751.6291943237072
 30
0.0
 40
6.9351323426
100
AcDbArc
 50
224.999999999997
 51
269.9999999999998
  0
LINE
  5
16F
330
1F
100
AcDbEntity
  8
2
  6
Continuous
 62
    90
370
    18
100
AcDbLine
 10
1015.497630842372
 20
744.6940590089068
 30
0.0
 11
1016.587937829372
 21
744.6940590089068
 31
0.0
  0
LINE
  5
170
330
1F
100
AcDbEntity
  8
2
  6
Continuous
 62
    90
370
    18
100
AcDbLine
 10
1009.652805486772
 20
747.666259008907
 30
0.0
 11
1010.593750507171
 21
746.7253139885072
 31
0.0
  0
ARC
  5
171
330
1F
100
AcDbEntity
  8
2
  6
Continuous
 62
    90
370
    18
100
AcDbCircle
 10
989.9377124737716
 20
751.6291943237072
 30
0.0
 40
6.9351323426
100
AcDbArc
 50
269.9999999999998
 51
314.999999999997
  0
LINE
  5
172
330
1F
100
AcDbEntity
  8
2
  6
Continuous
 62
    90
370
    18
100
AcDbLine
 10
989.9377124737716
 20
744.6940590089068
 30
0.0
 11
988.8474054867715
 21
744.6940590089068
 31
0.0
  0
LINE
  5
173
330
1F
100
AcDbEntity
  8
2
  6
Continuous
 62
    90
370
    18
100
AcDbLine
 10
995.7825378293714
 20
747.666259008907
 30
0.0
 11
994.8415928089712
 21
746.7253139885072
 31
0.0
  0
ARC
  5
174
330
1F
100
AcDbEntity
  8
2
  6
Continuous
 62
    90
370
    18
100
AcDbCircle
 10
987.7570984997715
 20
751.6291943237072
 30
0.0
 40
6.9351323426
100
AcDbArc
 50
225.0000000000023
 51
269.9999999999998
  0
LINE
  5
175
330
1F
100
AcDbEntity
  8
2
  6
Continuous
 62
    90
370
    18
100
AcDbLine
 10
995.7825378293714
 20
747.666259008907
 30
0.0
 11
1009.652805486772
 21
747.666259008907
 31
0.0
  0
LINE
  5
176
330
1F
100
AcDbEntity
  8
2
  6
Continuous
 62
    90
370
    18
100
AcDbLine
 10
987.7570984997715
 20
744.6940590089068
 30
0.0
 11
988.8474054867715
 21
744.6940590089068
 31
0.0
  0
LINE
  5
177
330
1F
100
AcDbEntity
  8
2
  6
Continuous
 62
    90
370
    18
100
AcDbLine
 10
981.9122731441716
 20
747.666259008907
 30
0.0
 11
982.8532181645719
 21
746.7253139885072
 31
0.0
  0
LINE
  5
178
330
1F
100
AcDbEntity
  8
2
  6
Continuous
 62
    90
370
    18
100
AcDbLine
 10
970.023473144171
 20
747.666259008907
 30
0.0
 11
981.9122731441716
 21
747.666259008907
 31
0.0
  0
LINE
  5
179
330
1F
100
AcDbEntity
  8
2
  6
Continuous
 62
    90
370
    18
100
AcDbLine
 10
971.8067931441715
 20
806.7795928423072
 30
0.0
 11
971.8067931441715
 21
882.4627603715069
 31
0.0
  0
LINE
  5
17A
330
1F
100
AcDbEntity
  8
2
  6
Continuous
 62
    90
370
    18
100
AcDbLine
 10
941.6449131441718
 20
759.8711940897072
 30
0.0
 11
941.6449131441718
 21
764.6026244087068
 31
0.0
  0
LINE
  5
17B
330
1F
100
AcDbEntity
  8
2
  6
Continuous
 62
    90
370
    18
100
AcDbLine
 10
939.6634454867713
 20
759.8711940897072
 30
0.0
 11
939.6634454867713
 21
764.6026244087068
 31
0.0
  0
LINE
  5
17C
330
1F
100
AcDbEntity
  8
2
  6
Continuous
 62
    90
370
    18
100
AcDbLine
 10
939.6634454867713
 20
759.8711940897072
 30
0.0
 11
941.6449131441718
 21
759.8711940897072
 31
0.0
  0
LINE
  5
17D
330
1F
100
AcDbEntity
  8
2
  6
Continuous
 62
    90
370
    18
100
AcDbLine
 10
913.9043778293712
 20
759.8711940897072
 30
0.0
 11
913.9043778293712
 21
764.6026244087068
 31
0.0
  0
LINE
  5
17E
330
1F
100
AcDbEntity
  8
2
  6
Continuous
 62
    90
370
    18
100
AcDbLine
 10
911.9229131441712
 20
759.8711940897072
 30
0.0
 11
911.9229131441712
 21
764.6026244087068
 31
0.0
  0
LINE
  5
17F
330
1F
100
AcDbEntity
  8
2
  6
Continuous
 62
    90
370
    18
100
AcDbLine
 10
911.9229131441712
 20
759.8711940897072
 30
0.0
 11
913.9043778293712
 21
759.8711940897072
 31
0.0
  0
LINE
  5
180
330
1F
100
AcDbEntity
  8
2
  6
Continuous
 62
    90
370
    18
100
AcDbLine
 10
884.5786731441717
 20
759.8711940897072
 30
0.0
 11
884.5786731441717
 21
764.6026244087068
 31
0.0
  0
LINE
  5
181
330
1F
100
AcDbEntity
  8
2
  6
Continuous
 62
    90
370
    18
100
AcDbLine
 10
882.5972054867711
 20
759.8711940897072
 30
0.0
 11
882.5972054867711
 21
764.6026244087068
 31
0.0
  0
LINE
  5
182
330
1F
100
AcDbEntity
  8
2
  6
Continuous
 62
    90
370
    18
100
AcDbLine
 10
882.5972054867711
 20
759.8711940897072
 30
0.0
 11
884.5786731441717
 21
759.8711940897072
 31
0.0
  0
LINE
  5
183
330
1F
100
AcDbEntity
  8
2
  6
Continuous
 62
    90
370
    18
100
AcDbLine
 10
856.8381378293711
 20
759.8711940897072
 30
0.0
 11
856.8381378293711
 21
764.6026244087068
 31
0.0
  0
LINE
  5
184
330
1F
100
AcDbEntity
  8
2
  6
Continuous
 62
    90
370
    18
100
AcDbLine
 10
854.856673144172
 20
759.8711940897072
 30
0.0
 11
854.856673144172
 21
764.6026244087068
 31
0.0
  0
LINE
  5
185
330
1F
100
AcDbEntity
  8
2
  6
Continuous
 62
    90
370
    18
100
AcDbLine
 10
854.856673144172
 20
759.8711940897072
 30
0.0
 11
856.8381378293711
 21
759.8711940897072
 31
0.0
  0
ARC
  5
186
330
1F
100
AcDbEntity
  8
2
  6
Continuous
 62
    90
370
    18
100
AcDbCircle
 10
911.8233384997716
 20
751.6291943237072
 30
0.0
 40
6.9351323426
100
AcDbArc
 50
225.0000000000023
 51
269.9999999999998
  0
LINE
  5
187
330
1F
100
AcDbEntity
  8
2
  6
Continuous
 62
    90
370
    18
100
AcDbLine
 10
911.8233384997716
 20
744.6940590089068
 30
0.0
 11
912.9136454867717
 21
744.6940590089068
 31
0.0
  0
LINE
  5
188
330
1F
100
AcDbEntity
  8
2
  6
Continuous
 62
    90
370
    18
100
AcDbLine
 10
905.9785131441718
 20
747.666259008907
 30
0.0
 11
906.919458164572
 21
746.7253139885072
 31
0.0
  0
ARC
  5
189
330
1F
100
AcDbEntity
  8
2
  6
Continuous
 62
    90
370
    18
100
AcDbCircle
 10
914.0039524737717
 20
751.6291943237072
 30
0.0
 40
6.9351323426
100
AcDbArc
 50
269.9999999999998
 51
314.999999999997
  0
LINE
  5
18A
330
1F
100
AcDbEntity
  8
2
  6
Continuous
 62
    90
370
    18
100
AcDbLine
 10
914.0039524737717
 20
744.6940590089068
 30
0.0
 11
912.9136454867717
 21
744.6940590089068
 31
0.0
  0
LINE
  5
18B
330
1F
100
AcDbEntity
  8
2
  6
Continuous
 62
    90
370
    18
100
AcDbLine
 10
919.8487778293716
 20
747.666259008907
 30
0.0
 11
918.9078328089713
 21
746.7253139885072
 31
0.0
  0
ARC
  5
18C
330
1F
100
AcDbEntity
  8
2
  6
Continuous
 62
    90
370
    18
100
AcDbCircle
 10
939.5638708423717
 20
751.6291943237072
 30
0.0
 40
6.9351323426
100
AcDbArc
 50
224.999999999997
 51
269.9999999999998
  0
LINE
  5
18D
330
1F
100
AcDbEntity
  8
2
  6
Continuous
 62
    90
370
    18
100
AcDbLine
 10
939.5638708423717
 20
744.6940590089068
 30
0.0
 11
940.6541778293717
 21
744.6940590089068
 31
0.0
  0
LINE
  5
18E
330
1F
100
AcDbEntity
  8
2
  6
Continuous
 62
    90
370
    18
100
AcDbLine
 10
933.7190454867718
 20
747.666259008907
 30
0.0
 11
934.6599905071712
 21
746.7253139885072
 31
0.0
  0
ARC
  5
18F
330
1F
100
AcDbEntity
  8
2
  6
Continuous
 62
    90
370
    18
100
AcDbCircle
 10
941.7444848163718
 20
751.6291943237072
 30
0.0
 40
6.9351323426
100
AcDbArc
 50
269.9999999999998
 51
314.999999999997
  0
LINE
  5
190
330
1F
100
AcDbEntity
  8
2
  6
Continuous
 62
    90
370
    18
100
AcDbLine
 10
933.7190454867718
 20
747.666259008907
 30
0.0
 11
919.8487778293716
 21
747.666259008907
 31
0.0
  0
LINE
  5
191
330
1F
100
AcDbEntity
  8
2
  6
Continuous
 62
    90
370
    18
100
AcDbLine
 10
941.7444848163718
 20
744.6940590089068
 30
0.0
 11
940.6541778293717
 21
744.6940590089068
 31
0.0
  0
LINE
  5
192
330
1F
100
AcDbEntity
  8
2
  6
Continuous
 62
    90
370
    18
100
AcDbLine
 10
947.5893131441712
 20
747.666259008907
 30
0.0
 11
946.6483651515714
 21
746.7253139885072
 31
0.0
  0
LINE
  5
193
330
1F
100
AcDbEntity
  8
2
  6
Continuous
 62
    90
370
    18
100
AcDbLine
 10
959.4781131441719
 20
747.666259008907
 30
0.0
 11
947.5893131441712
 21
747.666259008907
 31
0.0
  0
LINE
  5
194
330
1F
100
AcDbEntity
  8
2
  6
Continuous
 62
    90
370
    18
100
AcDbLine
 10
957.6947931441714
 20
806.7795928423072
 30
0.0
 11
957.6947931441714
 21
882.4627603715069
 31
0.0
  0
ARC
  5
195
330
1F
100
AcDbEntity
  8
2
  6
Continuous
 62
    90
370
    18
100
AcDbCircle
 10
884.6782448163717
 20
751.6291943237072
 30
0.0
 40
6.9351323426
100
AcDbArc
 50
269.9999999999998
 51
314.999999999997
  0
LINE
  5
196
330
1F
100
AcDbEntity
  8
2
  6
Continuous
 62
    90
370
    18
100
AcDbLine
 10
884.6782448163717
 20
744.6940590089068
 30
0.0
 11
883.5879378293716
 21
744.6940590089068
 31
0.0
  0
LINE
  5
197
330
1F
100
AcDbEntity
  8
2
  6
Continuous
 62
    90
370
    18
100
AcDbLine
 10
890.523073144172
 20
747.666259008907
 30
0.0
 11
889.5821251515713
 21
746.7253139885072
 31
0.0
  0
ARC
  5
198
330
1F
100
AcDbEntity
  8
2
  6
Continuous
 62
    90
370
    18
100
AcDbCircle
 10
882.4976308423716
 20
751.6291943237072
 30
0.0
 40
6.9351323426
100
AcDbArc
 50
224.999999999997
 51
269.9999999999998
  0
LINE
  5
199
330
1F
100
AcDbEntity
  8
2
  6
Continuous
 62
    90
370
    18
100
AcDbLine
 10
882.4976308423716
 20
744.6940590089068
 30
0.0
 11
883.5879378293716
 21
744.6940590089068
 31
0.0
  0
LINE
  5
19A
330
1F
100
AcDbEntity
  8
2
  6
Continuous
 62
    90
370
    18
100
AcDbLine
 10
876.6528054867717
 20
747.666259008907
 30
0.0
 11
877.5937505071711
 21
746.7253139885072
 31
0.0
  0
ARC
  5
19B
330
1F
100
AcDbEntity
  8
2
  6
Continuous
 62
    90
370
    18
100
AcDbCircle
 10
856.9377124737716
 20
751.6291943237072
 30
0.0
 40
6.9351323426
100
AcDbArc
 50
269.9999999999998
 51
314.999999999997
  0
LINE
  5
19C
330
1F
100
AcDbEntity
  8
2
  6
Continuous
 62
    90
370
    18
100
AcDbLine
 10
856.9377124737716
 20
744.6940590089068
 30
0.0
 11
855.8474054867715
 21
744.6940590089068
 31
0.0
  0
LINE
  5
19D
330
1F
100
AcDbEntity
  8
2
  6
Continuous
 62
    90
370
    18
100
AcDbLine
 10
862.7825378293714
 20
747.666259008907
 30
0.0
 11
861.8415928089712
 21
746.7253139885072
 31
0.0
  0
ARC
  5
19E
330
1F
100
AcDbEntity
  8
2
  6
Continuous
 62
    90
370
    18
100
AcDbCircle
 10
854.7570984997715
 20
751.6291943237072
 30
0.0
 40
6.9351323426
100
AcDbArc
 50
225.0000000000023
 51
269.9999999999998
  0
LINE
  5
19F
330
1F
100
AcDbEntity
  8
2
  6
Continuous
 62
    90
370
    18
100
AcDbLine
 10
862.7825378293714
 20
747.666259008907
 30
0.0
 11
876.6528054867717
 21
747.666259008907
 31
0.0
  0
LINE
  5
1A0
330
1F
100
AcDbEntity
  8
2
  6
Continuous
 62
    90
370
    18
100
AcDbLine
 10
854.7570984997715
 20
744.6940590089068
 30
0.0
 11
855.8474054867715
 21
744.6940590089068
 31
0.0
  0
LINE
  5
1A1
330
1F
100
AcDbEntity
  8
2
  6
Continuous
 62
    90
370
    18
100
AcDbLine
 10
848.9122731441716
 20
747.666259008907
 30
0.0
 11
849.8532181645714
 21
746.7253139885072
 31
0.0
  0
LINE
  5
1A2
330
1F
100
AcDbEntity
  8
2
  6
Continuous
 62
    90
370
    18
100
AcDbLine
 10
837.0234731441715
 20
747.666259008907
 30
0.0
 11
848.9122731441716
 21
747.666259008907
 31
0.0
  0
LINE
  5
1A3
330
1F
100
AcDbEntity
  8
2
  6
Continuous
 62
    90
370
    18
100
AcDbLine
 10
838.8067931441715
 20
806.7795928423072
 30
0.0
 11
838.8067931441715
 21
882.4627603715069
 31
0.0
  0
LINE
  5
1A4
330
1F
100
AcDbEntity
  8
2
  6
Continuous
 62
    90
370
    18
100
AcDbLine
 10
835.0420054867714
 20
884.3931834661068
 30
0.0
 11
961.4595778293719
 21
884.3931834661068
 31
0.0
  0
LINE
  5
1A5
330
1F
100
AcDbEntity
  8
2
  6
Continuous
 62
    90
370
    18
100
AcDbLine
 10
838.8067931441715
 20
882.4627603715069
 30
0.0
 11
957.6947931441714
 21
882.4627603715069
 31
0.0
  0
LINE
  5
1A6
330
1F
100
AcDbEntity
  8
2
  6
Continuous
 62
    90
370
    18
100
AcDbLine
 10
968.0420054867714
 20
884.3931834661068
 30
0.0
 11
1094.459577829372
 21
884.3931834661068
 31
0.0
  0
LINE
  5
1A7
330
1F
100
AcDbEntity
  8
2
  6
Continuous
 62
    90
370
    18
100
AcDbLine
 10
971.8067931441715
 20
882.4627603715069
 30
0.0
 11
1090.694793144171
 21
882.4627603715069
 31
0.0
  0
LINE
  5
1A8
330
1F
100
AcDbEntity
  8
2
  6
Continuous
 62
    90
370
    18
100
AcDbLine
 10
838.8067931441715
 20
806.7795928423072
 30
0.0
 11
957.6947931441714
 21
806.7795928423072
 31
0.0
  0
LINE
  5
1A9
330
1F
100
AcDbEntity
  8
2
  6
Continuous
 62
    90
370
    18
100
AcDbLine
 10
971.8067931441715
 20
806.7795928423072
 30
0.0
 11
1090.694793144171
 21
806.7795928423072
 31
0.0
  0
LINE
  5
1AA
330
1F
100
AcDbEntity
  8
2
  6
Continuous
 62
    90
370
    18
100
AcDbLine
 10
837.0234731441715
 20
772.0205371417071
 30
0.0
 11
959.4781131441719
 21
772.0205371417071
 31
0.0
  0
LINE
  5
1AB
330
1F
100
AcDbEntity
  8
2
  6
Continuous
 62
    90
370
    18
100
AcDbLine
 10
837.0234731441715
 20
764.6026244087068
 30
0.0
 11
959.4781131441719
 21
764.6026244087068
 31
0.0
  0
LINE
  5
1AC
330
1F
100
AcDbEntity
  8
2
  6
Continuous
 62
    90
370
    18
100
AcDbLine
 10
890.523073144172
 20
747.666259008907
 30
0.0
 11
905.9785131441718
 21
747.666259008907
 31
0.0
  0
LINE
  5
1AD
330
1F
100
AcDbEntity
  8
2
  6
Continuous
 62
    90
370
    18
100
AcDbLine
 10
970.023473144171
 20
772.0205371417071
 30
0.0
 11
1092.478113144172
 21
772.0205371417071
 31
0.0
  0
LINE
  5
1AE
330
1F
100
AcDbEntity
  8
2
  6
Continuous
 62
    90
370
    18
100
AcDbLine
 10
970.023473144171
 20
764.6026244087068
 30
0.0
 11
1092.478113144172
 21
764.6026244087068
 31
0.0
  0
LINE
  5
1AF
330
1F
100
AcDbEntity
  8
2
  6
Continuous
 62
    90
370
    18
100
AcDbLine
 10
1023.523073144172
 20
747.666259008907
 30
0.0
 11
1038.978513144172
 21
747.666259008907
 31
0.0
  0
LINE
  5
1B0
330
1F
100
AcDbEntity
  8
2
  6
Continuous
 62
    90
370
    18
100
AcDbLine
 10
863.2494178293716
 20
916.3931834661068
 30
0.0
 11
836.2494178293716
 21
916.3931834661068
 31
0.0
  0
LINE
  5
1B1
330
1F
100
AcDbEntity
  8
2
  6
Continuous
 62
    90
370
    18
100
AcDbLine
 10
836.2494178293716
 20
916.3931834661068
 30
0.0
 11
836.2494178293716
 21
891.3931834661068
 31
0.0
  0
LINE
  5
1B2
330
1F
100
AcDbEntity
  8
2
  6
Continuous
 62
    90
370
    18
100
AcDbLine
 10
836.2494178293716
 20
891.3931834661068
 30
0.0
 11
833.2494178293716
 21
891.3931834661068
 31
0.0
  0
INSERT
  5
1BA
330
1F
100
AcDbEntity
  8
0
100
AcDbBlockReference
  2
*G16
 10
0.0
 20
0.0
 30
0.0
  0
LINE
  5
1BB
330
1F
100
AcDbEntity
  8
1
  6
Continuous
 62
    45
370
     9
100
AcDbLine
 10
835.0420054867714
 20
775.543687911307
 30
0.0
 11
837.0234731441715
 21
775.543687911307
 31
0.0
  0
LINE
  5
1BC
330
1F
100
AcDbEntity
  8
1
  6
Continuous
 62
    45
370
     9
100
AcDbLine
 10
835.0420054867714
 20
771.5312238557069
 30
0.0
 11
837.0234731441715
 21
771.5312238557069
 31
0.0
  0
LINE
  5
1BD
330
1F
100
AcDbEntity
  8
1
  6
Continuous
 62
    45
370
     9
100
AcDbLine
 10
835.0420054867714
 20
763.459483594507
 30
0.0
 11
837.0234731441715
 21
763.459483594507
 31
0.0
  0
LINE
  5
1BE
330
1F
100
AcDbEntity
  8
1
  6
Continuous
 62
    45
370
     9
100
AcDbLine
 10
961.4595778293719
 20
775.543687911307
 30
0.0
 11
959.4781131441719
 21
775.543687911307
 31
0.0
  0
LINE
  5
1BF
330
1F
100
AcDbEntity
  8
1
  6
Continuous
 62
    45
370
     9
100
AcDbLine
 10
961.4595778293719
 20
771.5312238557069
 30
0.0
 11
959.4781131441719
 21
771.5312238557069
 31
0.0
  0
LINE
  5
1C0
330
1F
100
AcDbEntity
  8
1
  6
Continuous
 62
    45
370
     9
100
AcDbLine
 10
961.4595778293719
 20
763.459483594507
 30
0.0
 11
959.4781131441719
 21
763.459483594507
 31
0.0
  0
LINE
  5
1C1
330
1F
100
AcDbEntity
  8
1
  6
Continuous
 62
    45
370
     9
100
AcDbLine
 10
968.0420054867714
 20
775.543687911307
 30
0.0
 11
970.023473144171
 21
775.543687911307
 31
0.0
  0
LINE
  5
1C2
330
1F
100
AcDbEntity
  8
1
  6
Continuous
 62
    45
370
     9
100
AcDbLine
 10
968.0420054867714
 20
771.5312238557069
 30
0.0
 11
970.023473144171
 21
771.5312238557069
 31
0.0
  0
LINE
  5
1C3
330
1F
100
AcDbEntity
  8
1
  6
Continuous
 62
    45
370
     9
100
AcDbLine
 10
968.0420054867714
 20
763.459483594507
 30
0.0
 11
970.023473144171
 21
763.459483594507
 31
0.0
  0
LINE
  5
1C4
330
1F
100
AcDbEntity
  8
1
  6
Continuous
 62
    45
370
     9
100
AcDbLine
 10
1094.459577829372
 20
775.543687911307
 30
0.0
 11
1092.478113144172
 21
775.543687911307
 31
0.0
  0
LINE
  5
1C5
330
1F
100
AcDbEntity
  8
1
  6
Continuous
 62
    45
370
     9
100
AcDbLine
 10
1094.459577829372
 20
771.5312238557069
 30
0.0
 11
1092.478113144172
 21
771.5312238557069
 31
0.0
  0
LINE
  5
1C6
330
1F
100
AcDbEntity
  8
1
  6
Continuous
 62
    45
370
     9
100
AcDbLine
 10
1094.459577829372
 20
763.459483594507
 30
0.0
 11
1092.478113144172
 21
763.459483594507
 31
0.0
  0
LINE
  5
1C7
330
1F
100
AcDbEntity
  8
1
  6
Continuous
 62
    45
370
     9
100
AcDbLine
 10
970.023473144171
 20
768.4796720601069
 30
0.0
 11
1092.478113144172
 21
768.4796720601069
 31
0.0
  0
LINE
  5
1C8
330
1F
100
AcDbEntity
  8
1
  6
Continuous
 62
    45
370
     9
100
AcDbLine
 10
970.023473144171
 20
769.309944241307
 30
0.0
 11
1092.478113144172
 21
769.309944241307
 31
0.0
  0
LINE
  5
1C9
330
1F
100
AcDbEntity
  8
1
  6
Continuous
 62
    45
370
     9
100
AcDbLine
 10
837.0234731441715
 20
768.4796720601069
 30
0.0
 11
959.4781131441719
 21
768.4796720601069
 31
0.0
  0
LINE
  5
1CA
330
1F
100
AcDbEntity
  8
1
  6
Continuous
 62
    45
370
     9
100
AcDbLine
 10
837.0234731441715
 20
769.309944241307
 30
0.0
 11
959.4781131441719
 21
769.309944241307
 31
0.0
  0
LINE
  5
1CB
330
1F
100
AcDbEntity
  8
1
  6
Continuous
 62
    45
370
     9
100
AcDbLine
 10
838.3114254867714
 20
874.0415250567069
 30
0.0
 11
838.3114254867714
 21
877.509092714107
 31
0.0
  0
LINE
  5
1CC
330
1F
100
AcDbEntity
  8
1
  6
Continuous
 62
    45
370
     9
100
AcDbLine
 10
837.0234731441715
 20
876.2211403715071
 30
0.0
 11
838.3114254867714
 21
876.2211403715071
 31
0.0
  0
LINE
  5
1CD
330
1F
100
AcDbEntity
  8
1
  6
Continuous
 62
    45
370
     9
100
AcDbLine
 10
837.0234731441715
 20
871.8619127141071
 30
0.0
 11
838.3114254867714
 21
871.8619127141071
 31
0.0
  0
ARC
  5
1CE
330
1F
100
AcDbEntity
  8
1
  6
Continuous
 62
    45
370
     9
100
AcDbCircle
 10
838.8067931441715
 20
877.509092714107
 30
0.0
 40
0.4953676574
100
AcDbArc
 50
89.99999999999991
 51
179.9999999999998
  0
ARC
  5
1CF
330
1F
100
AcDbEntity
  8
1
  6
Continuous
 62
    45
370
     9
100
AcDbCircle
 10
838.8067931441715
 20
870.5739603715072
 30
0.0
 40
0.4953676574
100
AcDbArc
 50
179.9999999999998
 51
269.9999999999998
  0
LINE
  5
1D0
330
1F
100
AcDbEntity
  8
1
  6
Continuous
 62
    45
370
     9
100
AcDbLine
 10
838.3114254867714
 20
874.0415250567069
 30
0.0
 11
838.3114254867714
 21
870.5739603715072
 31
0.0
  0
LINE
  5
1D1
330
1F
100
AcDbEntity
  8
1
  6
Continuous
 62
    45
370
     9
100
AcDbLine
 10
841.2836254867716
 20
806.7795928423072
 30
0.0
 11
841.2836254867716
 21
772.0205371417071
 31
0.0
  0
LINE
  5
1D2
330
1F
100
AcDbEntity
  8
1
  6
Continuous
 62
    45
370
     9
100
AcDbLine
 10
958.1901578293714
 20
874.0415250567069
 30
0.0
 11
958.1901578293714
 21
877.509092714107
 31
0.0
  0
LINE
  5
1D3
330
1F
100
AcDbEntity
  8
1
  6
Continuous
 62
    45
370
     9
100
AcDbLine
 10
959.4781131441719
 20
876.2211403715071
 30
0.0
 11
958.1901578293714
 21
876.2211403715071
 31
0.0
  0
LINE
  5
1D4
330
1F
100
AcDbEntity
  8
1
  6
Continuous
 62
    45
370
     9
100
AcDbLine
 10
959.4781131441719
 20
871.8619127141071
 30
0.0
 11
958.1901578293714
 21
871.8619127141071
 31
0.0
  0
ARC
  5
1D5
330
1F
100
AcDbEntity
  8
1
  6
Continuous
 62
    45
370
     9
100
AcDbCircle
 10
957.6947931441714
 20
877.509092714107
 30
0.0
 40
0.4953676574
100
AcDbArc
 50
0.0
 51
89.99999999999991
  0
ARC
  5
1D6
330
1F
100
AcDbEntity
  8
1
  6
Continuous
 62
    45
370
     9
100
AcDbCircle
 10
957.6947931441714
 20
870.5739603715072
 30
0.0
 40
0.4953676574
100
AcDbArc
 50
269.9999999999998
 51
0.0
  0
LINE
  5
1D7
330
1F
100
AcDbEntity
  8
1
  6
Continuous
 62
    45
370
     9
100
AcDbLine
 10
958.1901578293714
 20
874.0415250567069
 30
0.0
 11
958.1901578293714
 21
870.5739603715072
 31
0.0
  0
LINE
  5
1D8
330
1F
100
AcDbEntity
  8
1
  6
Continuous
 62
    45
370
     9
100
AcDbLine
 10
955.2179578293712
 20
806.7795928423072
 30
0.0
 11
955.2179578293712
 21
772.0205371417071
 31
0.0
  0
LINE
  5
1D9
330
1F
100
AcDbEntity
  8
1
  6
Continuous
 62
    45
370
     9
100
AcDbLine
 10
971.3114254867719
 20
874.0415250567069
 30
0.0
 11
971.3114254867719
 21
877.509092714107
 31
0.0
  0
LINE
  5
1DA
330
1F
100
AcDbEntity
  8
1
  6
Continuous
 62
    45
370
     9
100
AcDbLine
 10
970.023473144171
 20
876.2211403715071
 30
0.0
 11
971.3114254867719
 21
876.2211403715071
 31
0.0
  0
LINE
  5
1DB
330
1F
100
AcDbEntity
  8
1
  6
Continuous
 62
    45
370
     9
100
AcDbLine
 10
970.023473144171
 20
871.8619127141071
 30
0.0
 11
971.3114254867719
 21
871.8619127141071
 31
0.0
  0
ARC
  5
1DC
330
1F
100
AcDbEntity
  8
1
  6
Continuous
 62
    45
370
     9
100
AcDbCircle
 10
971.8067931441715
 20
877.509092714107
 30
0.0
 40
0.4953676574
100
AcDbArc
 50
89.99999999999991
 51
179.9999999999998
  0
ARC
  5
1DD
330
1F
100
AcDbEntity
  8
1
  6
Continuous
 62
    45
370
     9
100
AcDbCircle
 10
971.8067931441715
 20
870.5739603715072
 30
0.0
 40
0.4953676574
100
AcDbArc
 50
179.9999999999998
 51
269.9999999999998
  0
LINE
  5
1DE
330
1F
100
AcDbEntity
  8
1
  6
Continuous
 62
    45
370
     9
100
AcDbLine
 10
971.3114254867719
 20
874.0415250567069
 30
0.0
 11
971.3114254867719
 21
870.5739603715072
 31
0.0
  0
LINE
  5
1DF
330
1F
100
AcDbEntity
  8
1
  6
Continuous
 62
    45
370
     9
100
AcDbLine
 10
974.2836254867711
 20
806.7795928423072
 30
0.0
 11
974.2836254867711
 21
772.0205371417071
 31
0.0
  0
LINE
  5
1E0
330
1F
100
AcDbEntity
  8
1
  6
Continuous
 62
    45
370
     9
100
AcDbLine
 10
1091.190157829371
 20
874.0415250567069
 30
0.0
 11
1091.190157829371
 21
877.509092714107
 31
0.0
  0
LINE
  5
1E1
330
1F
100
AcDbEntity
  8
1
  6
Continuous
 62
    45
370
     9
100
AcDbLine
 10
1092.478113144172
 20
876.2211403715071
 30
0.0
 11
1091.190157829371
 21
876.2211403715071
 31
0.0
  0
LINE
  5
1E2
330
1F
100
AcDbEntity
  8
1
  6
Continuous
 62
    45
370
     9
100
AcDbLine
 10
1092.478113144172
 20
871.8619127141071
 30
0.0
 11
1091.190157829371
 21
871.8619127141071
 31
0.0
  0
ARC
  5
1E3
330
1F
100
AcDbEntity
  8
1
  6
Continuous
 62
    45
370
     9
100
AcDbCircle
 10
1090.694793144171
 20
877.509092714107
 30
0.0
 40
0.4953676574
100
AcDbArc
 50
0.0
 51
89.99999999999991
  0
ARC
  5
1E4
330
1F
100
AcDbEntity
  8
1
  6
Continuous
 62
    45
370
     9
100
AcDbCircle
 10
1090.694793144171
 20
870.5739603715072
 30
0.0
 40
0.4953676574
100
AcDbArc
 50
269.9999999999998
 51
0.0
  0
LINE
  5
1E5
330
1F
100
AcDbEntity
  8
1
  6
Continuous
 62
    45
370
     9
100
AcDbLine
 10
1091.190157829371
 20
874.0415250567069
 30
0.0
 11
1091.190157829371
 21
870.5739603715072
 31
0.0
  0
LINE
  5
1E6
330
1F
100
AcDbEntity
  8
1
  6
Continuous
 62
    45
370
     9
100
AcDbLine
 10
1088.217957829371
 20
806.7795928423072
 30
0.0
 11
1088.217957829371
 21
772.0205371417071
 31
0.0
  0
ARC
  5
1E7
330
1F
100
AcDbEntity
  8
1
  6
Continuous
 62
    45
370
     9
100
AcDbCircle
 10
844.4539731441714
 20
764.6026244087068
 30
0.0
 40
1.6842476574
100
AcDbArc
 50
179.9999999999998
 51
0.0
  0
ARC
  5
1E8
330
1F
100
AcDbEntity
  8
1
  6
Continuous
 62
    45
370
     9
100
AcDbCircle
 10
898.250793144171
 20
764.6026244087068
 30
0.0
 40
1.6842476574
100
AcDbArc
 50
179.9999999999998
 51
269.9999999999998
  0
ARC
  5
1E9
330
1F
100
AcDbEntity
  8
1
  6
Continuous
 62
    45
370
     9
100
AcDbCircle
 10
870.7084054867714
 20
764.6026244087068
 30
0.0
 40
1.6842476574
100
AcDbArc
 50
179.9999999999998
 51
0.0
  0
LINE
  5
1EA
330
1F
100
AcDbEntity
  8
1
  6
Continuous
 62
    45
370
     9
100
AcDbLine
 10
848.9122731441716
 20
747.666259008907
 30
0.0
 11
848.9122731441716
 21
764.6026244087068
 31
0.0
  0
LINE
  5
1EB
330
1F
100
AcDbEntity
  8
1
  6
Continuous
 62
    45
370
     9
100
AcDbLine
 10
862.7825378293714
 20
747.666259008907
 30
0.0
 11
862.7825378293714
 21
764.6026244087068
 31
0.0
  0
LINE
  5
1EC
330
1F
100
AcDbEntity
  8
1
  6
Continuous
 62
    45
370
     9
100
AcDbLine
 10
876.6528054867717
 20
747.666259008907
 30
0.0
 11
876.6528054867717
 21
764.6026244087068
 31
0.0
  0
LINE
  5
1ED
330
1F
100
AcDbEntity
  8
1
  6
Continuous
 62
    45
370
     9
100
AcDbLine
 10
890.523073144172
 20
747.666259008907
 30
0.0
 11
890.523073144172
 21
764.6026244087068
 31
0.0
  0
ARC
  5
1EE
330
1F
100
AcDbEntity
  8
1
  6
Continuous
 62
    45
370
     9
100
AcDbCircle
 10
952.0476131441715
 20
764.6026244087068
 30
0.0
 40
1.6842476574
100
AcDbArc
 50
179.9999999999998
 51
0.0
  0
ARC
  5
1EF
330
1F
100
AcDbEntity
  8
1
  6
Continuous
 62
    45
370
     9
100
AcDbCircle
 10
898.250793144171
 20
764.6026244087068
 30
0.0
 40
1.6842476574
100
AcDbArc
 50
269.9999999999998
 51
0.0
  0
ARC
  5
1F0
330
1F
100
AcDbEntity
  8
1
  6
Continuous
 62
    45
370
     9
100
AcDbCircle
 10
925.7931778293719
 20
764.6026244087068
 30
0.0
 40
1.6842476574
100
AcDbArc
 50
179.9999999999998
 51
0.0
  0
LINE
  5
1F1
330
1F
100
AcDbEntity
  8
1
  6
Continuous
 62
    45
370
     9
100
AcDbLine
 10
947.5893131441712
 20
747.666259008907
 30
0.0
 11
947.5893131441712
 21
764.6026244087068
 31
0.0
  0
LINE
  5
1F2
330
1F
100
AcDbEntity
  8
1
  6
Continuous
 62
    45
370
     9
100
AcDbLine
 10
933.7190454867718
 20
747.666259008907
 30
0.0
 11
933.7190454867718
 21
764.6026244087068
 31
0.0
  0
LINE
  5
1F3
330
1F
100
AcDbEntity
  8
1
  6
Continuous
 62
    45
370
     9
100
AcDbLine
 10
919.8487778293716
 20
747.666259008907
 30
0.0
 11
919.8487778293716
 21
764.6026244087068
 31
0.0
  0
LINE
  5
1F4
330
1F
100
AcDbEntity
  8
1
  6
Continuous
 62
    45
370
     9
100
AcDbLine
 10
905.9785131441718
 20
747.666259008907
 30
0.0
 11
905.9785131441718
 21
764.6026244087068
 31
0.0
  0
ARC
  5
1F5
330
1F
100
AcDbEntity
  8
1
  6
Continuous
 62
    45
370
     9
100
AcDbCircle
 10
977.4539731441714
 20
764.6026244087068
 30
0.0
 40
1.6842476574
100
AcDbArc
 50
179.9999999999998
 51
0.0
  0
ARC
  5
1F6
330
1F
100
AcDbEntity
  8
1
  6
Continuous
 62
    45
370
     9
100
AcDbCircle
 10
1031.250793144171
 20
764.6026244087068
 30
0.0
 40
1.6842476574
100
AcDbArc
 50
179.9999999999998
 51
269.9999999999998
  0
ARC
  5
1F7
330
1F
100
AcDbEntity
  8
1
  6
Continuous
 62
    45
370
     9
100
AcDbCircle
 10
1003.708405486771
 20
764.6026244087068
 30
0.0
 40
1.6842476574
100
AcDbArc
 50
179.9999999999998
 51
0.0
  0
LINE
  5
1F8
330
1F
100
AcDbEntity
  8
1
  6
Continuous
 62
    45
370
     9
100
AcDbLine
 10
981.9122731441716
 20
747.666259008907
 30
0.0
 11
981.9122731441716
 21
764.6026244087068
 31
0.0
  0
LINE
  5
1F9
330
1F
100
AcDbEntity
  8
1
  6
Continuous
 62
    45
370
     9
100
AcDbLine
 10
995.7825378293714
 20
747.666259008907
 30
0.0
 11
995.7825378293714
 21
764.6026244087068
 31
0.0
  0
LINE
  5
1FA
330
1F
100
AcDbEntity
  8
1
  6
Continuous
 62
    45
370
     9
100
AcDbLine
 10
1009.652805486772
 20
747.666259008907
 30
0.0
 11
1009.652805486772
 21
764.6026244087068
 31
0.0
  0
LINE
  5
1FB
330
1F
100
AcDbEntity
  8
1
  6
Continuous
 62
    45
370
     9
100
AcDbLine
 10
1023.523073144172
 20
747.666259008907
 30
0.0
 11
1023.523073144172
 21
764.6026244087068
 31
0.0
  0
ARC
  5
1FC
330
1F
100
AcDbEntity
  8
1
  6
Continuous
 62
    45
370
     9
100
AcDbCircle
 10
1085.047613144171
 20
764.6026244087068
 30
0.0
 40
1.6842476574
100
AcDbArc
 50
179.9999999999998
 51
0.0
  0
ARC
  5
1FD
330
1F
100
AcDbEntity
  8
1
  6
Continuous
 62
    45
370
     9
100
AcDbCircle
 10
1031.250793144171
 20
764.6026244087068
 30
0.0
 40
1.6842476574
100
AcDbArc
 50
269.9999999999998
 51
0.0
  0
ARC
  5
1FE
330
1F
100
AcDbEntity
  8
1
  6
Continuous
 62
    45
370
     9
100
AcDbCircle
 10
1058.793177829372
 20
764.6026244087068
 30
0.0
 40
1.6842476574
100
AcDbArc
 50
179.9999999999998
 51
0.0
  0
LINE
  5
1FF
330
1F
100
AcDbEntity
  8
1
  6
Continuous
 62
    45
370
     9
100
AcDbLine
 10
1080.589313144171
 20
747.666259008907
 30
0.0
 11
1080.589313144171
 21
764.6026244087068
 31
0.0
  0
LINE
  5
200
330
1F
100
AcDbEntity
  8
1
  6
Continuous
 62
    45
370
     9
100
AcDbLine
 10
1066.719045486772
 20
747.666259008907
 30
0.0
 11
1066.719045486772
 21
764.6026244087068
 31
0.0
  0
LINE
  5
201
330
1F
100
AcDbEntity
  8
1
  6
Continuous
 62
    45
370
     9
100
AcDbLine
 10
1052.848777829372
 20
747.666259008907
 30
0.0
 11
1052.848777829372
 21
764.6026244087068
 31
0.0
  0
LINE
  5
202
330
1F
100
AcDbEntity
  8
1
  6
Continuous
 62
    45
370
     9
100
AcDbLine
 10
1038.978513144172
 20
747.666259008907
 30
0.0
 11
1038.978513144172
 21
764.6026244087068
 31
0.0
  0
LINE
  5
203
330
1F
100
AcDbEntity
  8
1
  6
Continuous
 62
    45
370
     9
100
AcDbLine
 10
834.2494178293714
 20
741.6029353425072
 30
0.0
 11
834.2494178293714
 21
871.2875558695071
 31
0.0
  0
LINE
  5
204
330
1F
100
AcDbEntity
  8
1
  6
Continuous
 62
    45
370
     9
100
AcDbLine
 10
834.2494178293714
 20
871.2875558695071
 30
0.0
 11
835.0420054867714
 21
871.2875558695071
 31
0.0
  0
LINE
  5
205
330
1F
100
AcDbEntity
  8
1
  6
Continuous
 62
    45
370
     9
100
AcDbLine
 10
961.4595778293719
 20
741.6029353425072
 30
0.0
 11
962.252165486771
 21
741.6029353425072
 31
0.0
  0
LINE
  5
206
330
1F
100
AcDbEntity
  8
1
  6
Continuous
 62
    45
370
     9
100
AcDbLine
 10
962.252165486771
 20
741.6029353425072
 30
0.0
 11
962.252165486771
 21
871.2875558695071
 31
0.0
  0
LINE
  5
207
330
1F
100
AcDbEntity
  8
1
  6
Continuous
 62
    45
370
     9
100
AcDbLine
 10
962.252165486771
 20
871.2875558695071
 30
0.0
 11
961.4595778293719
 21
871.2875558695071
 31
0.0
  0
LINE
  5
208
330
1F
100
AcDbEntity
  8
1
  6
Continuous
 62
    45
370
     9
100
AcDbLine
 10
835.0420054867714
 20
741.6029353425072
 30
0.0
 11
834.2494178293714
 21
741.6029353425072
 31
0.0
  0
LINE
  5
209
330
1F
100
AcDbEntity
  8
1
  6
Continuous
 62
    45
370
     9
100
AcDbLine
 10
967.2494178293714
 20
741.6029353425072
 30
0.0
 11
967.2494178293714
 21
871.2875558695071
 31
0.0
  0
LINE
  5
20A
330
1F
100
AcDbEntity
  8
1
  6
Continuous
 62
    45
370
     9
100
AcDbLine
 10
967.2494178293714
 20
871.2875558695071
 30
0.0
 11
968.0420054867714
 21
871.2875558695071
 31
0.0
  0
LINE
  5
20B
330
1F
100
AcDbEntity
  8
1
  6
Continuous
 62
    45
370
     9
100
AcDbLine
 10
1094.459577829372
 20
741.6029353425072
 30
0.0
 11
1095.252165486771
 21
741.6029353425072
 31
0.0
  0
LINE
  5
20C
330
1F
100
AcDbEntity
  8
1
  6
Continuous
 62
    45
370
     9
100
AcDbLine
 10
1095.252165486771
 20
741.6029353425072
 30
0.0
 11
1095.252165486771
 21
871.2875558695071
 31
0.0
  0
LINE
  5
20D
330
1F
100
AcDbEntity
  8
1
  6
Continuous
 62
    45
370
     9
100
AcDbLine
 10
1095.252165486771
 20
871.2875558695071
 30
0.0
 11
1094.459577829372
 21
871.2875558695071
 31
0.0
  0
LINE
  5
20E
330
1F
100
AcDbEntity
  8
1
  6
Continuous
 62
    45
370
     9
100
AcDbLine
 10
968.0420054867714
 20
741.6029353425072
 30
0.0
 11
967.2494178293714
 21
741.6029353425072
 31
0.0
  0
CIRCLE
  5
20F
330
1F
100
AcDbEntity
  8
1
  6
Continuous
 62
    45
370
     9
100
AcDbCircle
 10
850.2494178293716
 20
904.3931834661068
 30
0.0
 40
2.5
  0
LINE
  5
210
330
1F
100
AcDbEntity
  8
2
  6
Continuous
 62
    90
370
    18
100
AcDbLine
 10
1066.252165486771
 20
916.3931834661068
 30
0.0
 11
1093.252165486771
 21
916.3931834661068
 31
0.0
  0
LINE
  5
211
330
1F
100
AcDbEntity
  8
2
  6
Continuous
 62
    90
370
    18
100
AcDbLine
 10
1093.252165486771
 20
916.3931834661068
 30
0.0
 11
1093.252165486771
 21
891.3931834661068
 31
0.0
  0
LINE
  5
212
330
1F
100
AcDbEntity
  8
2
  6
Continuous
 62
    90
370
    18
100
AcDbLine
 10
1093.252165486771
 20
891.3931834661068
 30
0.0
 11
1096.252165486771
 21
891.3931834661068
 31
0.0
  0
INSERT
  5
21A
330
1F
100
AcDbEntity
  8
0
100
AcDbBlockReference
  2
*G17
 10
0.0
 20
0.0
 30
0.0
  0
CIRCLE
  5
21B
330
1F
100
AcDbEntity
  8
1
  6
Continuous
 62
    45
370
     9
100
AcDbCircle
 10
1079.252165486771
 20
904.3931834661068
 30
0.0
 40
2.5
  0
LINE
  5
21C
330
1F
100
AcDbEntity
  8
2
  6
Continuous
 62
    90
370
    18
100
AcDbLine
 10
968.0420054867714
 20
737.3931834661068
 30
0.0
 11
970.023473144171
 21
737.3931834661068
 31
0.0
  0
LINE
  5
21D
330
1F
100
AcDbEntity
  8
2
  6
Continuous
 62
    90
370
    18
100
AcDbLine
 10
1094.459577829372
 20
737.3931834661068
 30
0.0
 11
1092.478113144172
 21
737.3931834661068
 31
0.0
  0
LINE
  5
21E
330
1F
100
AcDbEntity
  8
2
  6
Continuous
 62
    90
370
    18
100
AcDbLine
 10
1092.478113144172
 20
737.3931834661068
 30
0.0
 11
1092.478113144172
 21
884.3931834661068
 31
0.0
  0
LINE
  5
21F
330
1F
100
AcDbEntity
  8
2
  6
Continuous
 62
    90
370
    18
100
AcDbLine
 10
1094.459577829372
 20
737.3931834661068
 30
0.0
 11
1094.459577829372
 21
884.3931834661068
 31
0.0
  0
LINE
  5
220
330
1F
100
AcDbEntity
  8
2
  6
Continuous
 62
    90
370
    18
100
AcDbLine
 10
970.023473144171
 20
737.3931834661068
 30
0.0
 11
970.023473144171
 21
884.3931834661068
 31
0.0
  0
LINE
  5
221
330
1F
100
AcDbEntity
  8
2
  6
Continuous
 62
    90
370
    18
100
AcDbLine
 10
968.0420054867714
 20
737.3931834661068
 30
0.0
 11
968.0420054867714
 21
884.3931834661068
 31
0.0
  0
LINE
  5
222
330
1F
100
AcDbEntity
  8
2
  6
Continuous
 62
    90
370
    18
100
AcDbLine
 10
835.0420054867714
 20
737.3931834661068
 30
0.0
 11
837.0234731441715
 21
737.3931834661068
 31
0.0
  0
LINE
  5
223
330
1F
100
AcDbEntity
  8
2
  6
Continuous
 62
    90
370
    18
100
AcDbLine
 10
961.4595778293719
 20
737.3931834661068
 30
0.0
 11
959.4781131441719
 21
737.3931834661068
 31
0.0
  0
LINE
  5
224
330
1F
100
AcDbEntity
  8
2
  6
Continuous
 62
    90
370
    18
100
AcDbLine
 10
959.4781131441719
 20
737.3931834661068
 30
0.0
 11
959.4781131441719
 21
884.3931834661068
 31
0.0
  0
LINE
  5
225
330
1F
100
AcDbEntity
  8
2
  6
Continuous
 62
    90
370
    18
100
AcDbLine
 10
961.4595778293719
 20
737.3931834661068
 30
0.0
 11
961.4595778293719
 21
884.3931834661068
 31
0.0
  0
LINE
  5
226
330
1F
100
AcDbEntity
  8
2
  6
Continuous
 62
    90
370
    18
100
AcDbLine
 10
837.0234731441715
 20
737.3931834661068
 30
0.0
 11
837.0234731441715
 21
884.3931834661068
 31
0.0
  0
LINE
  5
227
330
1F
100
AcDbEntity
  8
2
  6
Continuous
 62
    90
370
    18
100
AcDbLine
 10
835.0420054867714
 20
737.3931834661068
 30
0.0
 11
835.0420054867714
 21
884.3931834661068
 31
0.0
  0
LINE
  5
228
330
1F
100
AcDbEntity
  8
6
  6
Continuous
 62
     7
370
     9
100
AcDbLine
 10
1071.497227969591
 20
837.9712154910906
 30
0.0
 11
1086.952041190216
 21
833.8301107694501
 31
0.0
  0
LINE
  5
229
330
1F
100
AcDbEntity
  8
6
  6
Continuous
 62
     7
370
     9
100
AcDbLine
 10
1071.497227969591
 20
837.9712154910906
 30
0.0
 11
1082.810936468575
 21
826.6575069921057
 31
0.0
  0
POLYLINE
  5
22A
330
1F
100
AcDbEntity
  8
6
  6
Continuous
 62
     7
370
     9
100
AcDb2dPolyline
 66
     1
 10
0.0
 20
0.0
 30
0.0
  0
VERTEX
  5
22C
330
22A
100
AcDbEntity
  8
6
  6
Continuous
 62
     7
370
     9
100
AcDbVertex
100
AcDb2dVertex
 10
1071.497227969591
 20
837.9712154910906
 30
0.0
  0
VERTEX
  5
22D
330
22A
100
AcDbEntity
  8
6
  6
Continuous
 62
     7
370
     9
100
AcDbVertex
100
AcDb2dVertex
 10
1160.297227969597
 20
786.7025115870476
 30
0.0
  0
VERTEX
  5
22E
330
22A
100
AcDbEntity
  8
6
  6
Continuous
 62
     7
370
     9
100
AcDbVertex
100
AcDb2dVertex
 10
1313.897227969597
 20
786.7025115870476
 30
0.0
  0
SEQEND
  5
22B
330
22A
100
AcDbEntity
  8
6
  6
Continuous
370
     9
  0
TEXT
  5
22F
330
1F
100
AcDbEntity
  8
6
  6
Continuous
 62
     7
370
     9
100
AcDbText
 10
1160.297227969597
 20
786.7025115870476
 30
0.0
 40
24.0
  1
ペーパーホルダー
 41
0.8000000000000002
100
AcDbText
  0
LINE
  5
230
330
1F
100
AcDbEntity
  8
1
  6
Continuous
 62
    45
370
     9
100
AcDbLine
 10
962.252165486771
 20
791.3931834661068
 30
0.0
 11
967.2494178293714
 21
791.3931834661068
 31
0.0
  0
LINE
  5
231
330
1F
100
AcDbEntity
  8
1
  6
Continuous
 62
    45
370
     9
100
AcDbLine
 10
961.4595778293719
 20
882.3931834661068
 30
0.0
 11
968.0420054867714
 21
882.3931834661068
 31
0.0
  0
DIMENSION
  5
23C
330
1F
100
AcDbEntity
  8
6
  6
Continuous
 62
     7
370
     9
100
AcDbDimension
  2
Dim2
 10
724.7494178293841
 20
939.3931834661068
 30
0.0
 11
712.7494178293841
 21
959.3271421040574
 31
0.0
 70
   160
  1
<>
 71
     5
 42
-1.0
  3
Standard
100
AcDbAlignedDimension
 13
804.7494178293714
 23
939.3931834661068
 33
0.0
 14
804.7494178293716
 24
919.3931834661068
 34
0.0
 50
89.99999999999991
100
AcDbRotatedDimension
1001
ACAD
1000
DSTYLE
1002
{
1070
   344
1005
3C
1070
   343
1005
3C
1070
   173
1070
     1
1070
   289
1070
     2
1070
   279
1070
     2
1070
   288
1070
     1
1070
    77
1070
     3
1070
   172
1070
     1
1070
   174
1070
     0
1070
    74
1070
     0
1070
    73
1070
     0
1070
   284
1070
     8
1070
    78
1070
     8
1070
   140
1040
3.0
1070
    40
1040
8.0
1070
    42
1040
2.0
1070
    44
1040
1.0
1070
    43
1040
10.0
1070
   271
1070
     2
1070
    41
1040
2.0
1002
}
  0
DIMENSION
  5
247
330
1F
100
AcDbEntity
  8
6
  6
Continuous
 62
     7
370
     9
100
AcDbDimension
  2
Dim3
 10
724.7494178293841
 20
919.3931834661068
 30
0.0
 11
712.7494178293841
 21
901.8931834661068
 31
0.0
 70
   160
  1
<>
 71
     5
 42
-1.0
  3
Standard
100
AcDbAlignedDimension
 13
804.7494178293716
 23
919.3931834661068
 33
0.0
 14
833.2494178293716
 24
884.3931834661068
 34
0.0
 50
89.99999999999991
100
AcDbRotatedDimension
1001
ACAD
1000
DSTYLE
1002
{
1070
   344
1005
3C
1070
   343
1005
3C
1070
   173
1070
     1
1070
   289
1070
     2
1070
   279
1070
     2
1070
   288
1070
     1
1070
    77
1070
     3
1070
   172
1070
     1
1070
   174
1070
     0
1070
    74
1070
     0
1070
    73
1070
     0
1070
   284
1070
     8
1070
    78
1070
     8
1070
   140
1040
3.0
1070
    40
1040
8.0
1070
    42
1040
2.0
1070
    44
1040
1.0
1070
    43
1040
10.0
1070
   271
1070
     2
1070
    41
1040
2.0
1002
}
  0
DIMENSION
  5
251
330
1F
100
AcDbEntity
  8
6
  6
Continuous
 62
     7
370
     9
100
AcDbDimension
  2
Dim4
 10
724.7494178293841
 20
884.3931834661068
 30
0.0
 11
712.7494178293844
 21
810.8931834661068
 31
0.0
 70
   160
  1
<>
 71
     5
 42
-1.0
  3
Standard
100
AcDbAlignedDimension
 13
833.2494178293716
 23
884.3931834661068
 33
0.0
 14
833.2494178293714
 24
737.3931834661068
 34
0.0
 50
90.0
100
AcDbRotatedDimension
1001
ACAD
1000
DSTYLE
1002
{
1070
   344
1005
3C
1070
   343
1005
3C
1070
   173
1070
     1
1070
   289
1070
     2
1070
   279
1070
     2
1070
   288
1070
     1
1070
    77
1070
     3
1070
   172
1070
     1
1070
   174
1070
     0
1070
    74
1070
     0
1070
    73
1070
     0
1070
   284
1070
     8
1070
    78
1070
     8
1070
   140
1040
3.0
1070
    40
1040
8.0
1070
    42
1040
2.0
1070
    44
1040
1.0
1070
    43
1040
10.0
1070
   271
1070
     2
1070
    41
1040
2.0
1002
}
  0
DIMENSION
  5
25D
330
1F
100
AcDbEntity
  8
6
  6
Continuous
 62
     7
370
     9
100
AcDbDimension
  2
Dim5
 10
668.7494178293846
 20
939.3931834661073
 30
0.0
 11
656.7494178293848
 21
838.3931834661073
 31
0.0
 70
   160
  1
<>
 71
     5
 42
-1.0
  3
Standard
100
AcDbAlignedDimension
 13
804.7494178293714
 23
939.3931834661068
 33
0.0
 14
833.2494178293714
 24
737.3931834661068
 34
0.0
 50
89.99999999999994
100
AcDbRotatedDimension
1001
ACAD
1000
DSTYLE
1002
{
1070
   344
1005
3C
1070
   343
1005
3C
1070
   173
1070
     1
1070
   289
1070
     2
1070
   279
1070
     2
1070
   288
1070
     1
1070
    77
1070
     3
1070
   172
1070
     1
1070
   174
1070
     0
1070
    74
1070
     0
1070
    73
1070
     0
1070
   284
1070
     8
1070
    78
1070
     8
1070
   140
1040
3.0
1070
    40
1040
8.0
1070
    42
1040
2.0
1070
    44
1040
1.0
1070
    43
1040
10.0
1070
   271
1070
     2
1070
    41
1040
2.0
1002
}
  0
DIMENSION
  5
269
330
1F
100
AcDbEntity
  8
6
  6
Continuous
 62
     7
370
     9
100
AcDbDimension
  2
Dim6
 10
804.7494178293689
 20
601.3931834661068
 30
0.0
 11
964.7507916580688
 21
613.3931834661068
 31
0.0
 70
   160
  1
<>
 71
     5
 42
-1.0
  3
Standard
100
AcDbAlignedDimension
 13
804.7494178293716
 23
919.3931834661068
 33
0.0
 14
1124.752165486771
 24
921.3931834661068
 34
0.0
100
AcDbRotatedDimension
1001
ACAD
1000
DSTYLE
1002
{
1070
   344
1005
3C
1070
   343
1005
3C
1070
   173
1070
     1
1070
   289
1070
     2
1070
   279
1070
     2
1070
   288
1070
     1
1070
    77
1070
     3
1070
   172
1070
     1
1070
   174
1070
     0
1070
    74
1070
     0
1070
    73
1070
     0
1070
   284
1070
     8
1070
    78
1070
     8
1070
   140
1040
3.0
1070
    40
1040
8.0
1070
    42
1040
2.0
1070
    44
1040
1.0
1070
    43
1040
10.0
1070
   271
1070
     2
1070
    41
1040
2.0
1002
}
  0
ARC
  5
26A
330
1F
100
AcDbEntity
  8
2
  6
Continuous
 62
    90
370
    18
100
AcDbCircle
 10
1114.752165486771
 20
929.3931834661068
 30
0.0
 40
10.0
100
AcDbArc
 50
269.9999999999998
 51
89.99999999999991
  0
INSERT
  5
270
330
1F
100
AcDbEntity
  8
0
100
AcDbBlockReference
  2
*G23
 10
0.0
 20
0.0
 30
0.0
  0
DIMENSION
  5
27B
330
1F
100
AcDbEntity
  8
6
  6
Continuous
 62
     7
370
     9
100
AcDbDimension
  2
Dim7
 10
804.7494178293712
 20
657.3931834661073
 30
0.0
 11
775.73688888889
 21
669.3931834661073
 31
0.0
 70
   160
  1
<>
 71
     5
 42
-1.0
  3
Standard
100
AcDbAlignedDimension
 13
804.7494178293716
 23
919.3931834661068
 33
0.0
 14
833.2494178293714
 24
737.3931834661068
 34
0.0
100
AcDbRotatedDimension
1001
ACAD
1000
DSTYLE
1002
{
1070
   344
1005
3C
1070
   343
1005
3C
1070
   173
1070
     1
1070
   289
1070
     2
1070
   279
1070
     2
1070
   288
1070
     1
1070
    77
1070
     3
1070
   172
1070
     1
1070
   174
1070
     0
1070
    74
1070
     0
1070
    73
1070
     0
1070
   284
1070
     8
1070
    78
1070
     8
1070
   140
1040
3.0
1070
    40
1040
8.0
1070
    42
1040
2.0
1070
    44
1040
1.0
1070
    43
1040
10.0
1070
   271
1070
     2
1070
    41
1040
2.0
1002
}
  0
DIMENSION
  5
286
330
1F
100
AcDbEntity
  8
6
  6
Continuous
 62
     7
370
     9
100
AcDbDimension
  2
Dim8
 10
833.2494178293712
 20
657.3931834661073
 30
0.0
 11
964.7507916580714
 21
669.3931834661073
 31
0.0
 70
   160
  1
<>
 71
     5
 42
-1.0
  3
Standard
100
AcDbAlignedDimension
 13
833.2494178293714
 23
737.3931834661068
 33
0.0
 14
1096.252165486771
 24
737.3931834661068
 34
0.0
100
AcDbRotatedDimension
1001
ACAD
1000
DSTYLE
1002
{
1070
   344
1005
3C
1070
   343
1005
3C
1070
   173
1070
     1
1070
   289
1070
     2
1070
   279
1070
     2
1070
   288
1070
     1
1070
    77
1070
     3
1070
   172
1070
     1
1070
   174
1070
     0
1070
    74
1070
     0
1070
    73
1070
     0
1070
   284
1070
     8
1070
    78
1070
     8
1070
   140
1040
3.0
1070
    40
1040
8.0
1070
    42
1040
2.0
1070
    44
1040
1.0
1070
    43
1040
10.0
1070
   271
1070
     2
1070
    41
1040
2.0
1002
}
  0
DIMENSION
  5
290
330
1F
100
AcDbEntity
  8
6
  6
Continuous
 62
     7
370
     9
100
AcDbDimension
  2
Dim9
 10
1096.252165486771
 20
657.3931834661073
 30
0.0
 11
1155.906370370371
 21
669.3931834661073
 31
0.0
 70
   160
  1
<>
 71
     5
 42
-1.0
  3
Standard
100
AcDbAlignedDimension
 13
1096.252165486771
 23
737.3931834661068
 33
0.0
 14
1124.752165486771
 24
921.3931834661068
 34
0.0
100
AcDbRotatedDimension
1001
ACAD
1000
DSTYLE
1002
{
1070
   344
1005
3C
1070
   343
1005
3C
1070
   173
1070
     1
1070
   289
1070
     2
1070
   279
1070
     2
1070
   288
1070
     1
1070
    77
1070
     3
1070
   172
1070
     1
1070
   174
1070
     0
1070
    74
1070
     0
1070
    73
1070
     0
1070
   284
1070
     8
1070
    78
1070
     8
1070
   140
1040
3.0
1070
    40
1040
8.0
1070
    42
1040
2.0
1070
    44
1040
1.0
1070
    43
1040
10.0
1070
   271
1070
     2
1070
    41
1040
2.0
1002
}
  0
LINE
  5
291
330
1F
100
AcDbEntity
  8
6
  6
Continuous
 62
     7
370
     9
100
AcDbLine
 10
1048.152561302928
 20
929.2212154910974
 30
0.0
 11
1053.059138940748
 21
944.4503157890153
 31
0.0
  0
LINE
  5
292
330
1F
100
AcDbEntity
  8
6
  6
Continuous
 62
     7
370
     9
100
AcDbLine
 10
1048.152561302928
 20
929.2212154910974
 30
0.0
 11
1060.01633233188
 21
939.9567144069656
 31
0.0
  0
POLYLINE
  5
293
330
1F
100
AcDbEntity
  8
6
  6
Continuous
 62
     7
370
     9
100
AcDb2dPolyline
 66
     1
 10
0.0
 20
0.0
 30
0.0
  0
VERTEX
  5
295
330
293
100
AcDbEntity
  8
6
  6
Continuous
 62
     7
370
     9
100
AcDbVertex
100
AcDb2dVertex
 10
1048.152561302928
 20
929.2212154910974
 30
0.0
  0
VERTEX
  5
296
330
293
100
AcDbEntity
  8
6
  6
Continuous
 62
     7
370
     9
100
AcDbVertex
100
AcDb2dVertex
 10
1137.673308612617
 20
1067.821215491107
 30
0.0
  0
VERTEX
  5
297
330
293
100
AcDbEntity
  8
6
  6
Continuous
 62
     7
370
     9
100
AcDbVertex
100
AcDb2dVertex
 10
1209.673308612617
 20
1067.821215491107
 30
0.0
  0
SEQEND
  5
294
330
293
100
AcDbEntity
  8
6
  6
Continuous
370
     9
  0
TEXT
  5
298
330
1F
100
AcDbEntity
  8
6
  6
Continuous
 62
     7
370
     9
100
AcDbText
 10
1137.673308612617
 20
1067.821215491107
 30
0.0
 40
24.0
  1
棚　板
100
AcDbText
  0
TEXT
  5
299
330
1F
100
AcDbEntity
  8
8
  6
Continuous
 62
   171
370
     9
100
AcDbText
 10
1594.976875574553
 20
955.8143476624286
 30
0.0
 40
24.0
  1
PR-2AS-S/○
100
AcDbText
  0
TEXT
  5
29A
330
1F
100
AcDbEntity
  8
8
  6
Continuous
 62
   171
370
     9
100
AcDbText
 10
1594.976875574553
 20
907.8143476624286
 30
0.0
 40
24.0
  1
PR-2AS-i/○
100
AcDbText
  0
TEXT
  5
29B
330
1F
100
AcDbEntity
  8
8
  6
Continuous
 62
   171
370
     9
100
AcDbText
 10
1594.976875574553
 20
859.8143476624286
 30
0.0
 40
24.0
  1
PR-2AS-P/○
100
AcDbText
  0
TEXT
  5
29C
330
1F
100
AcDbEntity
  8
8
  6
Continuous
 62
   171
370
     9
100
AcDbText
 10
1594.976875574553
 20
811.8143476624286
 30
0.0
 40
24.0
  1
PR-2AS-A/○
100
AcDbText
  0
VIEWPORT
  5
2A
330
1B
100
AcDbEntity
 67
     1
  8
0
100
AcDbViewport
 10
1188.0
 20
840.0
 30
0.0
 40
2376.0
 41
1680.0
 68
     1
 69
     1
 12
1188.0
 22
840.0
 13
0.0
 23
0.0
 14
0.5
 24
0.5
 15
0.5
 25
0.5
 16
0.0
 26
0.0
 36
1.0
 17
0.0
 27
0.0
 37
0.0
 42
50.0
 43
0.0
 44
0.0
 45
9.0
 50
0.0
 51
0.0
 72
   100
 90
    32800
  1

281
     0
 71
     1
 74
     0
110
0.0
120
0.0
130
0.0
111
1.0
121
0.0
131
0.0
112
0.0
122
1.0
132
0.0
 79
     0
146
0.0
170
     0
  0
ENDSEC
  0
SECTION
  2
OBJECTS
  0
DICTIONARY
  5
C
330
0
100
AcDbDictionary
281
     1
  3
ACAD_GROUP
350
D
  3
ACAD_LAYOUT
350
1A
  3
ACAD_MLINESTYLE
350
17
  3
ACAD_PLOTSETTINGS
350
19
  3
ACAD_PLOTSTYLENAME
350
E
  0
DICTIONARY
  5
D
102
{ACAD_REACTORS
330
C
102
}
330
C
100
AcDbDictionary
281
     1
  0
DICTIONARY
  5
1A
102
{ACAD_REACTORS
330
C
102
}
330
C
100
AcDbDictionary
281
     1
  3
Layout1
350
1E
  3
Layout2
350
26
  3
Model
350
22
  0
DICTIONARY
  5
17
102
{ACAD_REACTORS
330
C
102
}
330
C
100
AcDbDictionary
281
     1
  3
Standard
350
18
  0
DICTIONARY
  5
19
102
{ACAD_REACTORS
330
C
102
}
330
C
100
AcDbDictionary
281
     1
  0
ACDBDICTIONARYWDFLT
  5
E
102
{ACAD_REACTORS
330
C
102
}
330
C
100
AcDbDictionary
281
     1
  3
Normal
350
F
100
AcDbDictionaryWithDefault
340
F
  0
LAYOUT
  5
1E
102
{ACAD_REACTORS
330
1A
102
}
330
1A
100
AcDbPlotSettings
  1

  2

  4

  6

 40
0.0
 41
0.0
 42
0.0
 43
0.0
 44
0.0
 45
0.0
 46
0.0
 47
0.0
 48
0.0
 49
0.0
140
0.0
141
0.0
142
1.0
143
1.0
 70
   688
 72
     0
 73
     0
 74
     5
  7

 75
    16
 76
     0
 77
     2
 78
   300
147
1.0
148
0.0
149
0.0
100
AcDbLayout
  1
Layout1
 70
     1
 71
     1
 10
0.0
 20
0.0
 11
297.0
 21
210.0
 12
0.0
 22
0.0
 32
0.0
 14
0.0
 24
0.0
 34
0.0
 15
297.0
 25
210.0
 35
0.0
146
0.0
 13
0.0
 23
0.0
 33
0.0
 16
1.0
 26
0.0
 36
0.0
 17
0.0
 27
1.0
 37
0.0
 76
     0
330
1B
331
2A
  0
LAYOUT
  5
26
102
{ACAD_REACTORS
330
1A
102
}
330
1A
100
AcDbPlotSettings
  1

  2

  4

  6

 40
0.0
 41
0.0
 42
0.0
 43
0.0
 44
0.0
 45
0.0
 46
0.0
 47
0.0
 48
0.0
 49
0.0
140
0.0
141
0.0
142
1.0
143
1.0
 70
   688
 72
     0
 73
     0
 74
     5
  7

 75
    16
 76
     0
 77
     2
 78
   300
147
1.0
148
0.0
149
0.0
100
AcDbLayout
  1
Layout2
 70
     1
 71
     2
 10
0.0
 20
0.0
 11
0.0
 21
0.0
 12
0.0
 22
0.0
 32
0.0
 14
0.0
 24
0.0
 34
0.0
 15
0.0
 25
0.0
 35
0.0
146
0.0
 13
0.0
 23
0.0
 33
0.0
 16
1.0
 26
0.0
 36
0.0
 17
0.0
 27
1.0
 37
0.0
 76
     0
330
23
  0
LAYOUT
  5
22
102
{ACAD_REACTORS
330
1A
102
}
330
1A
100
AcDbPlotSettings
  1

  2

  4

  6

 40
0.0
 41
0.0
 42
0.0
 43
0.0
 44
0.0
 45
0.0
 46
0.0
 47
0.0
 48
0.0
 49
0.0
140
0.0
141
0.0
142
1.0
143
1.0
 70
  1712
 72
     0
 73
     0
 74
     0
  7

 75
     0
 76
     0
 77
     2
 78
   300
147
1.0
148
0.0
149
0.0
100
AcDbLayout
  1
Model
 70
     1
 71
     0
 10
0.0
 20
0.0
 11
2376.0
 21
1680.0
 12
0.0
 22
0.0
 32
0.0
 14
0.0
 24
0.0
 34
0.0
 15
2376.0
 25
1680.0
 35
0.0
146
0.0
 13
0.0
 23
0.0
 33
0.0
 16
1.0
 26
0.0
 36
0.0
 17
0.0
 27
1.0
 37
0.0
 76
     0
330
1F
  0
MLINESTYLE
  5
18
102
{ACAD_REACTORS
330
17
102
}
330
17
100
AcDbMlineStyle
  2
Standard
 70
     0
  3

 62
   256
 51
90.0
 52
90.0
 71
     2
 49
0.5
 62
   256
  6
BYLAYER
 49
-0.5
 62
   256
  6
BYLAYER
  0
ACDBPLACEHOLDER
  5
F
102
{ACAD_REACTORS
330
E
102
}
330
E
  0
ENDSEC
  0
EOF
