  0
SECTION
  2
HEADER
  9
$ACADVER
  1
AC1015
  9
$ACADMAINTVER
 70
     6
  9
$DWGCODEPAGE
  3
ANSI_932
  9
$INSBASE
 10
0.0
 20
0.0
 30
0.0
  9
$EXTMIN
 10
0.0
 20
0.0
 30
0.0
  9
$EXTMAX
 10
1188.0
 20
840.0
 30
0.0
  9
$LIMMIN
 10
0.0
 20
0.0
  9
$LIMMAX
 10
1188.0
 20
840.0
  9
$ORTHOMODE
 70
     0
  9
$REGENMODE
 70
     1
  9
$FILLMODE
 70
     1
  9
$QTEXTMODE
 70
     0
  9
$MIRRTEXT
 70
     1
  9
$LTSCALE
 40
1.0
  9
$ATTMODE
 70
     1
  9
$TEXTSIZE
 40
12.0
  9
$TRACEWID
 40
0.05
  9
$TEXTSTYLE
  7
Standard
  9
$CLAYER
  8
0
  9
$CELTYPE
  6
ByLayer
  9
$CECOLOR
 62
   256
  9
$CELTSCALE
 40
1.0
  9
$DISPSILH
 70
     0
  9
$DIMSCALE
 40
4.0
  9
$DIMASZ
 40
2.0
  9
$DIMEXO
 40
2.0
  9
$DIMDLI
 40
10.0
  9
$DIMRND
 40
0.0
  9
$DIMDLE
 40
0.0
  9
$DIMEXE
 40
1.0
  9
$DIMTP
 40
0.0
  9
$DIMTM
 40
0.0
  9
$DIMTXT
 40
3.0
  9
$DIMCEN
 40
0.09
  9
$DIMTSZ
 40
0.0
  9
$DIMTOL
 70
     0
  9
$DIMLIM
 70
     0
  9
$DIMTIH
 70
     0
  9
$DIMTOH
 70
     0
  9
$DIMSE1
 70
     0
  9
$DIMSE2
 70
     0
  9
$DIMTAD
 70
     3
  9
$DIMZIN
 70
     8
  9
$DIMBLK
  1

  9
$DIMASO
 70
     1
  9
$DIMSHO
 70
     1
  9
$DIMPOST
  1

  9
$DIMAPOST
  1

  9
$DIMALT
 70
     0
  9
$DIMALTD
 70
     2
  9
$DIMALTF
 40
25.4
  9
$DIMLFAC
 40
1.0
  9
$DIMTOFL
 70
     1
  9
$DIMTVP
 40
0.7
  9
$DIMTIX
 70
     0
  9
$DIMSOXD
 70
     0
  9
$DIMSAH
 70
     0
  9
$DIMBLK1
  1

  9
$DIMBLK2
  1

  9
$DIMSTYLE
  2
Standard
  9
$DIMCLRD
 70
     0
  9
$DIMCLRE
 70
     0
  9
$DIMCLRT
 70
     0
  9
$DIMTFAC
 40
0.5
  9
$DIMGAP
 40
0.09
  9
$DIMJUST
 70
     0
  9
$DIMSD1
 70
     0
  9
$DIMSD2
 70
     0
  9
$DIMTOLJ
 70
     1
  9
$DIMTZIN
 70
     8
  9
$DIMALTZ
 70
     0
  9
$DIMALTTZ
 70
     0
  9
$DIMUPT
 70
     1
  9
$DIMDEC
 70
     2
  9
$DIMTDEC
 70
     4
  9
$DIMALTU
 70
     2
  9
$DIMALTTD
 70
     2
  9
$DIMTXSTY
  7
Standard
  9
$DIMAUNIT
 70
     0
  9
$DIMADEC
 70
     0
  9
$DIMALTRND
 40
0.0
  9
$DIMAZIN
 70
     0
  9
$DIMDSEP
 70
    46
  9
$DIMATFIT
 70
     2
  9
$DIMFRAC
 70
     0
  9
$DIMLDRBLK
  1

  9
$DIMLUNIT
 70
     2
  9
$DIMLWD
 70
    -2
  9
$DIMLWE
 70
    -2
  9
$DIMTMOVE
 70
     2
  9
$LUNITS
 70
     2
  9
$LUPREC
 70
     4
  9
$SKETCHINC
 40
0.1
  9
$FILLETRAD
 40
0.5
  9
$AUNITS
 70
     0
  9
$AUPREC
 70
     0
  9
$MENU
  1
.
  9
$ELEVATION
 40
0.0
  9
$PELEVATION
 40
0.0
  9
$THICKNESS
 40
0.0
  9
$LIMCHECK
 70
     0
  9
$CHAMFERA
 40
0.5
  9
$CHAMFERB
 40
0.5
  9
$CHAMFERC
 40
1.0
  9
$CHAMFERD
 40
0.0
  9
$SKPOLY
 70
     0
  9
$TDCREATE
 40
2456427.862210648
  9
$TDUCREATE
 40
2456427.487210648
  9
$TDUPDATE
 40
2456427.862210648
  9
$TDUUPDATE
 40
2456427.487210648
  9
$TDINDWG
 40
0.0000000116
  9
$TDUSRTIMER
 40
0.0000000116
  9
$USRTIMER
 70
     1
  9
$ANGBASE
 50
0.0
  9
$ANGDIR
 70
     0
  9
$PDMODE
 70
     0
  9
$PDSIZE
 40
0.0
  9
$PLINEWID
 40
0.0
  9
$SPLFRAME
 70
     0
  9
$SPLINETYPE
 70
     6
  9
$SPLINESEGS
 70
     8
  9
$HANDSEED
  5
354
  9
$SURFTAB1
 70
     6
  9
$SURFTAB2
 70
     6
  9
$SURFTYPE
 70
     6
  9
$SURFU
 70
     6
  9
$SURFV
 70
     6
  9
$UCSBASE
  2

  9
$UCSNAME
  2

  9
$UCSORG
 10
0.0
 20
0.0
 30
0.0
  9
$UCSXDIR
 10
1.0
 20
0.0
 30
0.0
  9
$UCSYDIR
 10
0.0
 20
1.0
 30
0.0
  9
$UCSORTHOREF
  2

  9
$UCSORTHOVIEW
 70
     0
  9
$UCSORGTOP
 10
0.0
 20
0.0
 30
0.0
  9
$UCSORGBOTTOM
 10
0.0
 20
0.0
 30
0.0
  9
$UCSORGLEFT
 10
0.0
 20
0.0
 30
0.0
  9
$UCSORGRIGHT
 10
0.0
 20
0.0
 30
0.0
  9
$UCSORGFRONT
 10
0.0
 20
0.0
 30
0.0
  9
$UCSORGBACK
 10
0.0
 20
0.0
 30
0.0
  9
$PUCSBASE
  2

  9
$PUCSNAME
  2

  9
$PUCSORG
 10
0.0
 20
0.0
 30
0.0
  9
$PUCSXDIR
 10
1.0
 20
0.0
 30
0.0
  9
$PUCSYDIR
 10
0.0
 20
1.0
 30
0.0
  9
$PUCSORTHOREF
  2

  9
$PUCSORTHOVIEW
 70
     0
  9
$PUCSORGTOP
 10
0.0
 20
0.0
 30
0.0
  9
$PUCSORGBOTTOM
 10
0.0
 20
0.0
 30
0.0
  9
$PUCSORGLEFT
 10
0.0
 20
0.0
 30
0.0
  9
$PUCSORGRIGHT
 10
0.0
 20
0.0
 30
0.0
  9
$PUCSORGFRONT
 10
0.0
 20
0.0
 30
0.0
  9
$PUCSORGBACK
 10
0.0
 20
0.0
 30
0.0
  9
$USERI1
 70
     0
  9
$USERI2
 70
     0
  9
$USERI3
 70
     0
  9
$USERI4
 70
     0
  9
$USERI5
 70
     0
  9
$USERR1
 40
0.0
  9
$USERR2
 40
0.0
  9
$USERR3
 40
0.0
  9
$USERR4
 40
0.0
  9
$USERR5
 40
0.0
  9
$WORLDVIEW
 70
     1
  9
$SHADEDGE
 70
     3
  9
$SHADEDIF
 70
    70
  9
$TILEMODE
 70
     1
  9
$MAXACTVP
 70
    64
  9
$PINSBASE
 10
0.0
 20
0.0
 30
0.0
  9
$PLIMCHECK
 70
     0
  9
$PEXTMIN
 10
0.0
 20
0.0
 30
0.0
  9
$PEXTMAX
 10
297.0
 20
210.0
 30
0.0
  9
$PLIMMIN
 10
0.0
 20
0.0
  9
$PLIMMAX
 10
297.0
 20
210.0
  9
$UNITMODE
 70
     0
  9
$VISRETAIN
 70
     1
  9
$PLINEGEN
 70
     0
  9
$PSLTSCALE
 70
     1
  9
$TREEDEPTH
 70
  3020
  9
$CMLSTYLE
  2
Standard
  9
$CMLJUST
 70
     0
  9
$CMLSCALE
 40
1.0
  9
$PROXYGRAPHICS
 70
     1
  9
$MEASUREMENT
 70
     1
  9
$CELWEIGHT
370
    -1
  9
$ENDCAPS
280
     0
  9
$JOINSTYLE
280
     0
  9
$LWDISPLAY
290
     0
  9
$INSUNITS
 70
     4
  9
$HYPERLINKBASE
  1

  9
$STYLESHEET
  1

  9
$XEDIT
290
     1
  9
$CEPSNTYPE
380
     0
  9
$PSTYLEMODE
290
     1
  9
$FINGERPRINTGUID
  2
{C787C48D-0BAF-4EA7-9F36-4AB2A4EFA39E}
  9
$VERSIONGUID
  2
{FAEB1C32-E019-11D5-929B-00C0DF256EC4}
  9
$EXTNAMES
290
     1
  9
$PSVPSCALE
 40
0.0
  9
$OLESTARTUP
290
     0
  0
ENDSEC
  0
SECTION
  2
CLASSES
  0
CLASS
  1
ACDBDICTIONARYWDFLT
  2
AcDbDictionaryWithDefault
  3
ObjectDBX Classes
 90
        0
280
     0
281
     0
  0
CLASS
  1
DICTIONARYVAR
  2
AcDbDictionaryVar
  3
ObjectDBX Classes
 90
        0
280
     0
281
     0
  0
CLASS
  1
ACDBPLACEHOLDER
  2
AcDbPlaceHolder
  3
ObjectDBX Classes
 90
        0
280
     0
281
     0
  0
CLASS
  1
LAYOUT
  2
AcDbLayout
  3
ObjectDBX Classes
 90
        0
280
     0
281
     0
  0
ENDSEC
  0
SECTION
  2
TABLES
  0
TABLE
  2
VPORT
  5
8
330
0
100
AcDbSymbolTable
 70
     1
  0
VPORT
  5
29
330
8
100
AcDbSymbolTableRecord
100
AcDbViewportTableRecord
  2
*Active
 70
     0
 10
0.0
 20
0.0
 11
1.0
 21
1.0
 12
10.42990654205607
 22
4.5
 13
0.0
 23
0.0
 14
0.5
 24
0.5
 15
0.5
 25
0.5
 16
0.0
 26
0.0
 36
1.0
 17
0.0
 27
0.0
 37
0.0
 40
9.0
 41
1.972972972850329
 42
50.0
 43
0.0
 44
0.0
 50
0.0
 51
0.0
 71
     0
 72
   100
 73
     1
 74
     3
 75
     0
 76
     0
 77
     0
 78
     0
281
     0
 65
     1
110
0.0
120
0.0
130
0.0
111
1.0
121
0.0
131
0.0
112
0.0
122
1.0
132
0.0
 79
     0
146
0.0
  0
ENDTAB
  0
TABLE
  2
LTYPE
  5
5
330
0
100
AcDbSymbolTable
 70
     9
  0
LTYPE
  5
14
330
5
100
AcDbSymbolTableRecord
100
AcDbLinetypeTableRecord
  2
ByBlock
 70
     0
  3

 72
    65
 73
     0
 40
0.0
  0
LTYPE
  5
15
330
5
100
AcDbSymbolTableRecord
100
AcDbLinetypeTableRecord
  2
ByLayer
 70
     0
  3

 72
    65
 73
     0
 40
0.0
  0
LTYPE
  5
16
330
5
100
AcDbSymbolTableRecord
100
AcDbLinetypeTableRecord
  2
Continuous
 70
     0
  3
Solid line
 72
    65
 73
     0
 40
0.0
  0
LTYPE
  5
68
330
5
100
AcDbSymbolTableRecord
100
AcDbLinetypeTableRecord
  2
DOT
 70
     0
  3
DOT
 72
    65
 73
     2
 40
4.0
 49
6.0
 74
     0
 49
-2.0
 74
     0
  0
LTYPE
  5
69
330
5
100
AcDbSymbolTableRecord
100
AcDbLinetypeTableRecord
  2
HIDDEN
 70
     0
  3
HIDDEN
 72
    65
 73
     2
 40
4.2
 49
8.4
 74
     0
 49
-4.2
 74
     0
  0
LTYPE
  5
6A
330
5
100
AcDbSymbolTableRecord
100
AcDbLinetypeTableRecord
  2
DASHDOT
 70
     0
  3
DASHDOT
 72
    65
 73
     4
 40
14.5
 49
30.0
 74
     0
 49
-9.0
 74
     0
 49
2.5
 74
     0
 49
-9.0
 74
     0
  0
LTYPE
  5
6B
330
5
100
AcDbSymbolTableRecord
100
AcDbLinetypeTableRecord
  2
PHANTOM
 70
     0
  3
PHANTOM
 72
    65
 73
     6
 40
12.0
 49
30.0
 74
     0
 49
-9.0
 74
     0
 49
2.5
 74
     0
 49
-5.0
 74
     0
 49
2.5
 74
     0
 49
-9.0
 74
     0
  0
LTYPE
  5
6C
330
5
100
AcDbSymbolTableRecord
100
AcDbLinetypeTableRecord
  2
ACAD_ISO14W100
 70
     0
  3
ACAD_ISO14W100
 72
    65
 73
     8
 40
1.5
 49
12.0
 74
     0
 49
-3.0
 74
     0
 49
0.5
 74
     0
 49
-3.0
 74
     0
 49
0.5
 74
     0
 49
-3.0
 74
     0
 49
0.5
 74
     0
 49
-3.0
 74
     0
  0
LTYPE
  5
6D
330
5
100
AcDbSymbolTableRecord
100
AcDbLinetypeTableRecord
  2
ACAD_ISO06W100
 70
     0
  3
ACAD_ISO06W100
 72
    65
 73
     8
 40
13.5
 49
24.0
 74
     0
 49
-3.0
 74
     0
 49
0.5
 74
     0
 49
-3.0
 74
     0
 49
0.5
 74
     0
 49
-3.0
 74
     0
 49
0.5
 74
     0
 49
-3.0
 74
     0
  0
LTYPE
  5
6E
330
5
100
AcDbSymbolTableRecord
100
AcDbLinetypeTableRecord
  2
ACAD_ISO11W100
 70
     0
  3
ACAD_ISO11W100
 72
    65
 73
     6
 40
15.5
 49
12.0
 74
     0
 49
-3.0
 74
     0
 49
12.0
 74
     0
 49
-3.0
 74
     0
 49
0.5
 74
     0
 49
-3.0
 74
     0
  0
LTYPE
  5
6F
330
5
100
AcDbSymbolTableRecord
100
AcDbLinetypeTableRecord
  2
ACAD_ISO13W100
 70
     0
  3
ACAD_ISO13W100
 72
    65
 73
     8
 40
13.0
 49
12.0
 74
     0
 49
-3.0
 74
     0
 49
12.0
 74
     0
 49
-3.0
 74
     0
 49
0.5
 74
     0
 49
-3.0
 74
     0
 49
0.5
 74
     0
 49
-3.0
 74
     0
  0
ENDTAB
  0
TABLE
  2
LAYER
  5
2
330
0
100
AcDbSymbolTable
 70
    32
  0
LAYER
  5
10
330
2
100
AcDbSymbolTableRecord
100
AcDbLayerTableRecord
  2
0
 70
     0
 62
     7
  6
Continuous
370
    -3
390
F
  0
LAYER
  5
70
330
2
100
AcDbSymbolTableRecord
100
AcDbLayerTableRecord
  2
1
 70
     0
 62
    45
  6
Continuous
370
    -3
390
F
  0
LAYER
  5
71
330
2
100
AcDbSymbolTableRecord
100
AcDbLayerTableRecord
  2
2
 70
     0
 62
    90
  6
Continuous
370
    -3
390
F
  0
LAYER
  5
72
330
2
100
AcDbSymbolTableRecord
100
AcDbLayerTableRecord
  2
3
 70
     0
 62
     6
  6
Continuous
370
    -3
390
F
  0
LAYER
  5
73
330
2
100
AcDbSymbolTableRecord
100
AcDbLayerTableRecord
  2
4
 70
     0
 62
    30
  6
Continuous
370
    -3
390
F
  0
LAYER
  5
74
330
2
100
AcDbSymbolTableRecord
100
AcDbLayerTableRecord
  2
5
 70
     0
 62
     2
  6
Continuous
370
    -3
390
F
  0
LAYER
  5
75
330
2
100
AcDbSymbolTableRecord
100
AcDbLayerTableRecord
  2
6
 70
     0
 62
     7
  6
Continuous
370
    -3
390
F
  0
LAYER
  5
76
330
2
100
AcDbSymbolTableRecord
100
AcDbLayerTableRecord
  2
7
 70
     0
 62
   132
  6
Continuous
370
    -3
390
F
  0
LAYER
  5
77
330
2
100
AcDbSymbolTableRecord
100
AcDbLayerTableRecord
  2
8
 70
     0
 62
   171
  6
Continuous
370
    -3
390
F
  0
LAYER
  5
78
330
2
100
AcDbSymbolTableRecord
100
AcDbLayerTableRecord
  2
9
 70
     0
 62
     5
  6
Continuous
370
    -3
390
F
  0
LAYER
  5
79
330
2
100
AcDbSymbolTableRecord
100
AcDbLayerTableRecord
  2
10
 70
     0
 62
   172
  6
Continuous
370
    -3
390
F
  0
LAYER
  5
7A
330
2
100
AcDbSymbolTableRecord
100
AcDbLayerTableRecord
  2
11
 70
     0
 62
    16
  6
Continuous
370
    -3
390
F
  0
LAYER
  5
7B
330
2
100
AcDbSymbolTableRecord
100
AcDbLayerTableRecord
  2
12
 70
     0
 62
   136
  6
Continuous
370
    -3
390
F
  0
LAYER
  5
7C
330
2
100
AcDbSymbolTableRecord
100
AcDbLayerTableRecord
  2
13
 70
     0
 62
   216
  6
Continuous
370
    -3
390
F
  0
LAYER
  5
7D
330
2
100
AcDbSymbolTableRecord
100
AcDbLayerTableRecord
  2
14
 70
     0
 62
     7
  6
Continuous
370
    -3
390
F
  0
LAYER
  5
7E
330
2
100
AcDbSymbolTableRecord
100
AcDbLayerTableRecord
  2
15
 70
     0
 62
    14
  6
Continuous
370
    -3
390
F
  0
LAYER
  5
7F
330
2
100
AcDbSymbolTableRecord
100
AcDbLayerTableRecord
  2
16
 70
     0
 62
    94
  6
Continuous
370
    -3
390
F
  0
LAYER
  5
80
330
2
100
AcDbSymbolTableRecord
100
AcDbLayerTableRecord
  2
17
 70
     0
 62
   230
  6
Continuous
370
    -3
390
F
  0
LAYER
  5
81
330
2
100
AcDbSymbolTableRecord
100
AcDbLayerTableRecord
  2
18
 70
     0
 62
     7
  6
Continuous
370
    -3
390
F
  0
LAYER
  5
82
330
2
100
AcDbSymbolTableRecord
100
AcDbLayerTableRecord
  2
19
 70
     0
 62
    52
  6
Continuous
370
    -3
390
F
  0
LAYER
  5
83
330
2
100
AcDbSymbolTableRecord
100
AcDbLayerTableRecord
  2
20
 70
     0
 62
   134
  6
Continuous
370
    -3
390
F
  0
LAYER
  5
84
330
2
100
AcDbSymbolTableRecord
100
AcDbLayerTableRecord
  2
21
 70
     0
 62
   214
  6
Continuous
370
    -3
390
F
  0
LAYER
  5
85
330
2
100
AcDbSymbolTableRecord
100
AcDbLayerTableRecord
  2
22
 70
     0
 62
     7
  6
Continuous
370
    -3
390
F
  0
LAYER
  5
86
330
2
100
AcDbSymbolTableRecord
100
AcDbLayerTableRecord
  2
128
 70
     0
 62
     7
  6
Continuous
370
    -3
390
F
  0
LAYER
  5
87
330
2
100
AcDbSymbolTableRecord
100
AcDbLayerTableRecord
  2
129
 70
     0
 62
     7
  6
Continuous
370
    -3
390
F
  0
LAYER
  5
88
330
2
100
AcDbSymbolTableRecord
100
AcDbLayerTableRecord
  2
130
 70
     0
 62
     7
  6
Continuous
370
    -3
390
F
  0
LAYER
  5
89
330
2
100
AcDbSymbolTableRecord
100
AcDbLayerTableRecord
  2
131
 70
     0
 62
     3
  6
Continuous
370
    -3
390
F
  0
LAYER
  5
8A
330
2
100
AcDbSymbolTableRecord
100
AcDbLayerTableRecord
  2
132
 70
     0
 62
     7
  6
Continuous
370
    -3
390
F
  0
LAYER
  5
8B
330
2
100
AcDbSymbolTableRecord
100
AcDbLayerTableRecord
  2
133
 70
     0
 62
     7
  6
Continuous
370
    -3
390
F
  0
LAYER
  5
8C
330
2
100
AcDbSymbolTableRecord
100
AcDbLayerTableRecord
  2
134
 70
     0
 62
     1
  6
Continuous
370
    -3
390
F
  0
LAYER
  5
8D
330
2
100
AcDbSymbolTableRecord
100
AcDbLayerTableRecord
  2
135
 70
     0
 62
     4
  6
Continuous
370
    -3
390
F
  0
LAYER
  5
8E
330
2
100
AcDbSymbolTableRecord
100
AcDbLayerTableRecord
  2
136
 70
     0
 62
     7
  6
Continuous
370
    -3
390
F
  0
ENDTAB
  0
TABLE
  2
STYLE
  5
3
330
0
100
AcDbSymbolTable
 70
     2
  0
STYLE
  5
11
330
3
100
AcDbSymbolTableRecord
100
AcDbTextStyleTableRecord
  2
Standard
 70
     0
 40
0.0
 41
1.0
 50
0.0
 71
     0
 42
0.2
  3
txt
  4
bigfont
  0
STYLE
  5
2C
330
3
100
AcDbSymbolTableRecord
100
AcDbTextStyleTableRecord
  2
T_STANDARD
 70
     4
 40
10.0
 41
1.0
 50
0.0
 71
     0
 42
10.0
  3
txt
  4
bigfont
  0
ENDTAB
  0
TABLE
  2
VIEW
  5
6
330
0
100
AcDbSymbolTable
 70
     0
  0
ENDTAB
  0
TABLE
  2
UCS
  5
7
330
0
100
AcDbSymbolTable
 70
     0
  0
ENDTAB
  0
TABLE
  2
APPID
  5
9
330
0
100
AcDbSymbolTable
 70
     2
  0
APPID
  5
12
330
9
100
AcDbSymbolTableRecord
100
AcDbRegAppTableRecord
  2
ACAD
 70
     0
  0
APPID
  5
2B
330
9
100
AcDbSymbolTableRecord
100
AcDbRegAppTableRecord
  2
ODA
 70
     0
  0
ENDTAB
  0
TABLE
  2
DIMSTYLE
  5
A
330
0
100
AcDbSymbolTable
 70
     1
100
AcDbDimStyleTable
  0
DIMSTYLE
105
27
102
{ACAD_REACTORS
330
C9
330
D3
330
DB
330
E3
330
EB
330
170
330
17C
330
188
330
194
330
1DA
330
203
330
246
330
252
330
25E
330
28E
330
29A
330
2A8
330
2B5
330
2C0
330
2CB
330
2D6
330
2E1
330
2EC
330
2F7
330
302
330
30D
330
318
330
323
102
}
330
A
100
AcDbSymbolTableRecord
100
AcDbDimStyleTableRecord
  2
Standard
 70
     0
340
11
  0
ENDTAB
  0
TABLE
  2
BLOCK_RECORD
  5
1
330
0
100
AcDbSymbolTable
 70
    41
  0
BLOCK_RECORD
  5
1F
330
1
100
AcDbSymbolTableRecord
100
AcDbBlockTableRecord
  2
*Model_Space
340
22
  0
BLOCK_RECORD
  5
1B
330
1
100
AcDbSymbolTableRecord
100
AcDbBlockTableRecord
  2
*Paper_Space
340
1E
  0
BLOCK_RECORD
  5
23
330
1
100
AcDbSymbolTableRecord
100
AcDbBlockTableRecord
  2
*Paper_Space0
340
26
  0
BLOCK_RECORD
  5
2D
330
1
100
AcDbSymbolTableRecord
100
AcDbBlockTableRecord
  2
_ORIGIN
340
0
  0
BLOCK_RECORD
  5
32
330
1
100
AcDbSymbolTableRecord
100
AcDbBlockTableRecord
  2
_DOTBLANK
340
0
  0
BLOCK_RECORD
  5
37
330
1
100
AcDbSymbolTableRecord
100
AcDbBlockTableRecord
  2
_DOT
340
0
  0
BLOCK_RECORD
  5
3C
330
1
100
AcDbSymbolTableRecord
100
AcDbBlockTableRecord
  2
_OPEN
340
0
  0
BLOCK_RECORD
  5
42
330
1
100
AcDbSymbolTableRecord
100
AcDbBlockTableRecord
  2
_CLOSED
340
0
  0
BLOCK_RECORD
  5
49
330
1
100
AcDbSymbolTableRecord
100
AcDbBlockTableRecord
  2
_CLOSEDBLANK
340
0
  0
BLOCK_RECORD
  5
4F
330
1
100
AcDbSymbolTableRecord
100
AcDbBlockTableRecord
  2
_BOXBLANK
340
0
  0
BLOCK_RECORD
  5
57
330
1
100
AcDbSymbolTableRecord
100
AcDbBlockTableRecord
  2
_BOXFILLED
340
0
  0
BLOCK_RECORD
  5
5C
330
1
100
AcDbSymbolTableRecord
100
AcDbBlockTableRecord
  2
_INTEGRAL
340
0
  0
BLOCK_RECORD
  5
61
330
1
100
AcDbSymbolTableRecord
100
AcDbBlockTableRecord
  2
_OBLIQUE
340
0
  0
BLOCK_RECORD
  5
65
330
1
100
AcDbSymbolTableRecord
100
AcDbBlockTableRecord
  2
_NONE
340
0
  0
BLOCK_RECORD
  5
8F
330
1
100
AcDbSymbolTableRecord
100
AcDbBlockTableRecord
  2
*G12
340
0
102
{BLKREFS
331
96
102
}
  0
BLOCK_RECORD
  5
C0
330
1
100
AcDbSymbolTableRecord
100
AcDbBlockTableRecord
  2
Dim1
340
0
  0
BLOCK_RECORD
  5
CA
330
1
100
AcDbSymbolTableRecord
100
AcDbBlockTableRecord
  2
Dim2
340
0
  0
BLOCK_RECORD
  5
D4
330
1
100
AcDbSymbolTableRecord
100
AcDbBlockTableRecord
  2
Dim3
340
0
  0
BLOCK_RECORD
  5
DC
330
1
100
AcDbSymbolTableRecord
100
AcDbBlockTableRecord
  2
Dim4
340
0
  0
BLOCK_RECORD
  5
E4
330
1
100
AcDbSymbolTableRecord
100
AcDbBlockTableRecord
  2
Dim5
340
0
  0
BLOCK_RECORD
  5
165
330
1
100
AcDbSymbolTableRecord
100
AcDbBlockTableRecord
  2
Dim6
340
0
  0
BLOCK_RECORD
  5
171
330
1
100
AcDbSymbolTableRecord
100
AcDbBlockTableRecord
  2
Dim7
340
0
  0
BLOCK_RECORD
  5
17D
330
1
100
AcDbSymbolTableRecord
100
AcDbBlockTableRecord
  2
Dim8
340
0
  0
BLOCK_RECORD
  5
189
330
1
100
AcDbSymbolTableRecord
100
AcDbBlockTableRecord
  2
Dim9
340
0
  0
BLOCK_RECORD
  5
1CF
330
1
100
AcDbSymbolTableRecord
100
AcDbBlockTableRecord
  2
Dim10
340
0
  0
BLOCK_RECORD
  5
1F8
330
1
100
AcDbSymbolTableRecord
100
AcDbBlockTableRecord
  2
Dim11
340
0
  0
BLOCK_RECORD
  5
23B
330
1
100
AcDbSymbolTableRecord
100
AcDbBlockTableRecord
  2
Dim12
340
0
  0
BLOCK_RECORD
  5
247
330
1
100
AcDbSymbolTableRecord
100
AcDbBlockTableRecord
  2
Dim13
340
0
  0
BLOCK_RECORD
  5
253
330
1
100
AcDbSymbolTableRecord
100
AcDbBlockTableRecord
  2
Dim14
340
0
  0
BLOCK_RECORD
  5
283
330
1
100
AcDbSymbolTableRecord
100
AcDbBlockTableRecord
  2
Dim15
340
0
  0
BLOCK_RECORD
  5
28F
330
1
100
AcDbSymbolTableRecord
100
AcDbBlockTableRecord
  2
Dim16
340
0
  0
BLOCK_RECORD
  5
29D
330
1
100
AcDbSymbolTableRecord
100
AcDbBlockTableRecord
  2
Dim17
340
0
  0
BLOCK_RECORD
  5
2AA
330
1
100
AcDbSymbolTableRecord
100
AcDbBlockTableRecord
  2
Dim18
340
0
  0
BLOCK_RECORD
  5
2B6
330
1
100
AcDbSymbolTableRecord
100
AcDbBlockTableRecord
  2
Dim19
340
0
  0
BLOCK_RECORD
  5
2C1
330
1
100
AcDbSymbolTableRecord
100
AcDbBlockTableRecord
  2
Dim20
340
0
  0
BLOCK_RECORD
  5
2CC
330
1
100
AcDbSymbolTableRecord
100
AcDbBlockTableRecord
  2
Dim21
340
0
  0
BLOCK_RECORD
  5
2D7
330
1
100
AcDbSymbolTableRecord
100
AcDbBlockTableRecord
  2
Dim22
340
0
  0
BLOCK_RECORD
  5
2E2
330
1
100
AcDbSymbolTableRecord
100
AcDbBlockTableRecord
  2
Dim23
340
0
  0
BLOCK_RECORD
  5
2ED
330
1
100
AcDbSymbolTableRecord
100
AcDbBlockTableRecord
  2
Dim24
340
0
  0
BLOCK_RECORD
  5
2F8
330
1
100
AcDbSymbolTableRecord
100
AcDbBlockTableRecord
  2
Dim25
340
0
  0
BLOCK_RECORD
  5
303
330
1
100
AcDbSymbolTableRecord
100
AcDbBlockTableRecord
  2
Dim26
340
0
  0
BLOCK_RECORD
  5
30E
330
1
100
AcDbSymbolTableRecord
100
AcDbBlockTableRecord
  2
Dim27
340
0
  0
BLOCK_RECORD
  5
319
330
1
100
AcDbSymbolTableRecord
100
AcDbBlockTableRecord
  2
Dim28
340
0
  0
ENDTAB
  0
ENDSEC
  0
SECTION
  2
BLOCKS
  0
BLOCK
  5
20
330
1F
100
AcDbEntity
  8
0
100
AcDbBlockBegin
  2
*Model_Space
 70
     0
 71
     0
 10
0.0
 20
0.0
 30
0.0
  3
*Model_Space
  1

  0
ENDBLK
  5
21
330
1F
100
AcDbEntity
  8
0
100
AcDbBlockEnd
  0
BLOCK
  5
1C
330
1B
100
AcDbEntity
 67
     1
  8
0
100
AcDbBlockBegin
  2
*Paper_Space
 70
     0
 71
     0
 10
0.0
 20
0.0
 30
0.0
  3
*Paper_Space
  1

  0
ENDBLK
  5
1D
330
1B
100
AcDbEntity
 67
     1
  8
0
100
AcDbBlockEnd
  0
BLOCK
  5
24
330
23
100
AcDbEntity
  8
0
100
AcDbBlockBegin
  2
*Paper_Space0
 70
     0
 71
     0
 10
0.0
 20
0.0
 30
0.0
  3
*Paper_Space0
  1

  0
ENDBLK
  5
25
330
23
100
AcDbEntity
  8
0
100
AcDbBlockEnd
  0
BLOCK
  5
30
330
2D
100
AcDbEntity
  8
0
100
AcDbBlockBegin
  2
_ORIGIN
 70
     0
 71
     0
 10
0.0
 20
0.0
 30
0.0
  3
_ORIGIN
  1

  0
CIRCLE
  5
2E
330
2D
100
AcDbEntity
  8
0
100
AcDbCircle
 10
0.0
 20
0.0
 30
0.0
 40
0.5
  0
LINE
  5
2F
330
2D
100
AcDbEntity
  8
0
100
AcDbLine
 10
0.0
 20
0.0
 30
0.0
 11
-1.0
 21
0.0
 31
0.0
  0
ENDBLK
  5
31
330
2D
100
AcDbEntity
  8
0
100
AcDbBlockEnd
  0
BLOCK
  5
35
330
32
100
AcDbEntity
  8
0
100
AcDbBlockBegin
  2
_DOTBLANK
 70
     0
 71
     0
 10
0.0
 20
0.0
 30
0.0
  3
_DOTBLANK
  1

  0
CIRCLE
  5
33
330
32
100
AcDbEntity
  8
0
100
AcDbCircle
 10
0.0
 20
0.0
 30
0.0
 40
0.5
  0
LINE
  5
34
330
32
100
AcDbEntity
  8
0
100
AcDbLine
 10
-0.5
 20
0.0
 30
0.0
 11
-1.0
 21
0.0
 31
0.0
  0
ENDBLK
  5
36
330
32
100
AcDbEntity
  8
0
100
AcDbBlockEnd
  0
BLOCK
  5
3A
330
37
100
AcDbEntity
  8
0
100
AcDbBlockBegin
  2
_DOT
 70
     0
 71
     0
 10
0.0
 20
0.0
 30
0.0
  3
_DOT
  1

  0
LWPOLYLINE
  5
38
330
37
100
AcDbEntity
  8
0
100
AcDbPolyline
 90
        2
 70
     1
 43
0.5
 10
-0.25
 20
0.0
 42
1.0
 10
0.25
 20
0.0
 42
1.0
  0
LINE
  5
39
330
37
100
AcDbEntity
  8
0
100
AcDbLine
 10
-0.5
 20
0.0
 30
0.0
 11
-1.0
 21
0.0
 31
0.0
  0
ENDBLK
  5
3B
330
37
100
AcDbEntity
  8
0
100
AcDbBlockEnd
  0
BLOCK
  5
40
330
3C
100
AcDbEntity
  8
0
100
AcDbBlockBegin
  2
_OPEN
 70
     0
 71
     0
 10
0.0
 20
0.0
 30
0.0
  3
_OPEN
  1

  0
LINE
  5
3D
330
3C
100
AcDbEntity
  8
0
100
AcDbLine
 10
-1.0
 20
0.1666666666666667
 30
0.0
 11
0.0
 21
0.0
 31
0.0
  0
LINE
  5
3E
330
3C
100
AcDbEntity
  8
0
100
AcDbLine
 10
-1.0
 20
-0.1666666666666667
 30
0.0
 11
0.0
 21
0.0
 31
0.0
  0
LINE
  5
3F
330
3C
100
AcDbEntity
  8
0
100
AcDbLine
 10
0.0
 20
0.0
 30
0.0
 11
-1.0
 21
0.0
 31
0.0
  0
ENDBLK
  5
41
330
3C
100
AcDbEntity
  8
0
100
AcDbBlockEnd
  0
BLOCK
  5
47
330
42
100
AcDbEntity
  8
0
100
AcDbBlockBegin
  2
_CLOSED
 70
     0
 71
     0
 10
0.0
 20
0.0
 30
0.0
  3
_CLOSED
  1

  0
LINE
  5
43
330
42
100
AcDbEntity
  8
0
100
AcDbLine
 10
-1.0
 20
0.1666666666666667
 30
0.0
 11
0.0
 21
0.0
 31
0.0
  0
LINE
  5
44
330
42
100
AcDbEntity
  8
0
100
AcDbLine
 10
0.0
 20
0.0
 30
0.0
 11
-1.0
 21
-0.1666666666666667
 31
0.0
  0
LINE
  5
45
330
42
100
AcDbEntity
  8
0
100
AcDbLine
 10
-1.0
 20
0.1666666666666667
 30
0.0
 11
-1.0
 21
-0.1666666666666667
 31
0.0
  0
LINE
  5
46
330
42
100
AcDbEntity
  8
0
100
AcDbLine
 10
0.0
 20
0.0
 30
0.0
 11
-1.0
 21
0.0
 31
0.0
  0
ENDBLK
  5
48
330
42
100
AcDbEntity
  8
0
100
AcDbBlockEnd
  0
BLOCK
  5
4D
330
49
100
AcDbEntity
  8
0
100
AcDbBlockBegin
  2
_CLOSEDBLANK
 70
     0
 71
     0
 10
0.0
 20
0.0
 30
0.0
  3
_CLOSEDBLANK
  1

  0
LINE
  5
4A
330
49
100
AcDbEntity
  8
0
100
AcDbLine
 10
-1.0
 20
0.1666666666666667
 30
0.0
 11
0.0
 21
0.0
 31
0.0
  0
LINE
  5
4B
330
49
100
AcDbEntity
  8
0
100
AcDbLine
 10
0.0
 20
0.0
 30
0.0
 11
-1.0
 21
-0.1666666666666667
 31
0.0
  0
LINE
  5
4C
330
49
100
AcDbEntity
  8
0
100
AcDbLine
 10
-1.0
 20
0.1666666666666667
 30
0.0
 11
-1.0
 21
-0.1666666666666667
 31
0.0
  0
ENDBLK
  5
4E
330
49
100
AcDbEntity
  8
0
100
AcDbBlockEnd
  0
BLOCK
  5
55
330
4F
100
AcDbEntity
  8
0
100
AcDbBlockBegin
  2
_BOXBLANK
 70
     0
 71
     0
 10
0.0
 20
0.0
 30
0.0
  3
_BOXBLANK
  1

  0
LINE
  5
50
330
4F
100
AcDbEntity
  8
0
100
AcDbLine
 10
-0.5
 20
-0.5
 30
0.0
 11
0.5
 21
-0.5
 31
0.0
  0
LINE
  5
51
330
4F
100
AcDbEntity
  8
0
100
AcDbLine
 10
0.5
 20
-0.5
 30
0.0
 11
0.5
 21
0.5
 31
0.0
  0
LINE
  5
52
330
4F
100
AcDbEntity
  8
0
100
AcDbLine
 10
0.5
 20
0.5
 30
0.0
 11
-0.5
 21
0.5
 31
0.0
  0
LINE
  5
53
330
4F
100
AcDbEntity
  8
0
100
AcDbLine
 10
-0.5
 20
0.5
 30
0.0
 11
-0.5
 21
-0.5
 31
0.0
  0
LINE
  5
54
330
4F
100
AcDbEntity
  8
0
100
AcDbLine
 10
-0.5
 20
0.0
 30
0.0
 11
-1.0
 21
0.0
 31
0.0
  0
ENDBLK
  5
56
330
4F
100
AcDbEntity
  8
0
100
AcDbBlockEnd
  0
BLOCK
  5
5A
330
57
100
AcDbEntity
  8
0
100
AcDbBlockBegin
  2
_BOXFILLED
 70
     0
 71
     0
 10
0.0
 20
0.0
 30
0.0
  3
_BOXFILLED
  1

  0
SOLID
  5
58
330
57
100
AcDbEntity
  8
0
100
AcDbTrace
 10
-0.5
 20
0.5
 30
0.0
 11
0.5
 21
0.5
 31
0.0
 12
-0.5
 22
-0.5
 32
0.0
 13
0.5
 23
-0.5
 33
0.0
  0
LINE
  5
59
330
57
100
AcDbEntity
  8
0
100
AcDbLine
 10
-0.5
 20
0.0
 30
0.0
 11
-1.0
 21
0.0
 31
0.0
  0
ENDBLK
  5
5B
330
57
100
AcDbEntity
  8
0
100
AcDbBlockEnd
  0
BLOCK
  5
5F
330
5C
100
AcDbEntity
  8
0
100
AcDbBlockBegin
  2
_INTEGRAL
 70
     0
 71
     0
 10
0.0
 20
0.0
 30
0.0
  3
_INTEGRAL
  1

  0
ARC
  5
5D
330
5C
100
AcDbEntity
  8
0
100
AcDbCircle
 10
0.444888
 20
-0.0913346
 30
0.0
 40
0.4541666
100
AcDbArc
 50
5844.169510334396
 51
9625.69095819783
  0
ARC
  5
5E
330
5C
100
AcDbEntity
  8
0
100
AcDbCircle
 10
-0.444888
 20
0.0913346
 30
0.0
 40
0.4541666
100
AcDbArc
 50
16157.40982268921
 51
19938.93127055265
  0
ENDBLK
  5
60
330
5C
100
AcDbEntity
  8
0
100
AcDbBlockEnd
  0
BLOCK
  5
63
330
61
100
AcDbEntity
  8
0
100
AcDbBlockBegin
  2
_OBLIQUE
 70
     0
 71
     0
 10
0.0
 20
0.0
 30
0.0
  3
_OBLIQUE
  1

  0
LINE
  5
62
330
61
100
AcDbEntity
  8
0
100
AcDbLine
 10
-0.5
 20
-0.5
 30
0.0
 11
0.5
 21
0.5
 31
0.0
  0
ENDBLK
  5
64
330
61
100
AcDbEntity
  8
0
100
AcDbBlockEnd
  0
BLOCK
  5
66
330
65
100
AcDbEntity
  8
0
100
AcDbBlockBegin
  2
_NONE
 70
     0
 71
     0
 10
0.0
 20
0.0
 30
0.0
  3
_NONE
  1

  0
ENDBLK
  5
67
330
65
100
AcDbEntity
  8
0
100
AcDbBlockEnd
  0
BLOCK
  5
90
330
8F
100
AcDbEntity
  8
0
100
AcDbBlockBegin
  2
*G12
 70
     1
 71
     0
 10
0.0
 20
0.0
 30
0.0
  3
*G12
  1

  0
LINE
  5
92
330
8F
100
AcDbEntity
  8
9
  6
Continuous
 62
     5
370
    30
100
AcDbLine
 10
48.0
 20
48.0
 30
0.0
 11
48.0
 21
768.0
 31
0.0
  0
LINE
  5
93
330
8F
100
AcDbEntity
  8
9
  6
Continuous
 62
     5
370
    30
100
AcDbLine
 10
48.0
 20
768.0
 30
0.0
 11
1140.0
 21
768.0
 31
0.0
  0
LINE
  5
94
330
8F
100
AcDbEntity
  8
9
  6
Continuous
 62
     5
370
    30
100
AcDbLine
 10
1140.0
 20
768.0
 30
0.0
 11
1140.0
 21
48.0
 31
0.0
  0
LINE
  5
95
330
8F
100
AcDbEntity
  8
9
  6
Continuous
 62
     5
370
    30
100
AcDbLine
 10
1140.0
 20
48.0
 30
0.0
 11
48.0
 21
48.0
 31
0.0
  0
ENDBLK
  5
91
330
8F
100
AcDbEntity
  8
0
100
AcDbBlockEnd
  0
BLOCK
  5
C1
330
C0
100
AcDbEntity
  8
0
100
AcDbBlockBegin
  2
Dim1
 70
     0
 71
     0
 10
0.0
 20
0.0
 30
0.0
  3
Dim1
  1

  0
LINE
  5
C3
330
C0
100
AcDbEntity
  8
6
  6
Continuous
 62
     7
370
     9
100
AcDbLine
 10
590.6773262790578
 20
687.3524431810034
 30
0.0
 11
590.6773262790578
 21
655.3524431810058
 31
0.0
  0
LINE
  5
C4
330
C0
100
AcDbEntity
  8
6
  6
Continuous
 62
     7
370
     9
100
AcDbLine
 10
590.6773262790578
 20
687.3524431810034
 30
0.0
 11
592.747878639878
 21
679.6250365706909
 31
0.0
  0
LINE
  5
C5
330
C0
100
AcDbEntity
  8
6
  6
Continuous
 62
     7
370
     9
100
AcDbLine
 10
590.6773262790578
 20
687.3524431810034
 30
0.0
 11
588.6067739182376
 21
679.6250365706909
 31
0.0
  0
LINE
  5
C6
330
C0
100
AcDbEntity
  8
6
  6
Continuous
 62
     7
370
     9
100
AcDbLine
 10
590.6773262790578
 20
655.3524431810058
 30
0.0
 11
588.6067739182376
 21
663.0798497913183
 31
0.0
  0
LINE
  5
C7
330
C0
100
AcDbEntity
  8
6
  6
Continuous
 62
     7
370
     9
100
AcDbLine
 10
590.6773262790578
 20
655.3524431810058
 30
0.0
 11
592.747878639878
 21
663.0798497913183
 31
0.0
  0
MTEXT
  5
C8
330
C0
100
AcDbEntity
  8
6
  6
Continuous
 62
     7
370
     9
100
AcDbMText
 10
583.6773262790578
 20
671.3524431810047
 30
0.0
 40
14.0
 41
0.0
 71
     8
 72
     1
  1
φ32
 11
1.615544574432587E-15
 21
1.0
 31
0.0
 73
     1
 44
1.0
  0
ENDBLK
  5
C2
330
C0
100
AcDbEntity
  8
0
100
AcDbBlockEnd
  0
BLOCK
  5
CB
330
CA
100
AcDbEntity
  8
0
100
AcDbBlockBegin
  2
Dim2
 70
     0
 71
     0
 10
0.0
 20
0.0
 30
0.0
  3
Dim2
  1

  0
LINE
  5
CD
330
CA
100
AcDbEntity
  8
6
  6
Continuous
 62
     7
370
     9
100
AcDbLine
 10
545.6773262790578
 20
656.8524431810033
 30
0.0
 11
545.6773262790578
 21
685.8524431810034
 31
0.0
  0
LINE
  5
CE
330
CA
100
AcDbEntity
  8
6
  6
Continuous
 62
     7
370
     9
100
AcDbLine
 10
545.6773262790578
 20
656.8524431810033
 30
0.0
 11
543.6067739182376
 21
664.5798497913158
 31
0.0
  0
LINE
  5
CF
330
CA
100
AcDbEntity
  8
6
  6
Continuous
 62
     7
370
     9
100
AcDbLine
 10
545.6773262790578
 20
656.8524431810033
 30
0.0
 11
547.747878639878
 21
664.5798497913158
 31
0.0
  0
LINE
  5
D0
330
CA
100
AcDbEntity
  8
6
  6
Continuous
 62
     7
370
     9
100
AcDbLine
 10
545.6773262790578
 20
685.8524431810034
 30
0.0
 11
547.747878639878
 21
678.1250365706909
 31
0.0
  0
LINE
  5
D1
330
CA
100
AcDbEntity
  8
6
  6
Continuous
 62
     7
370
     9
100
AcDbLine
 10
545.6773262790578
 20
685.8524431810034
 30
0.0
 11
543.6067739182376
 21
678.1250365706909
 31
0.0
  0
MTEXT
  5
D2
330
CA
100
AcDbEntity
  8
6
  6
Continuous
 62
     7
370
     9
100
AcDbMText
 10
538.6773262790578
 20
671.3524431810033
 30
0.0
 40
14.0
 41
0.0
 71
     8
 72
     1
  1
φ29
 11
1.615544574432587E-15
 21
1.0
 31
0.0
 73
     1
 44
1.0
  0
ENDBLK
  5
CC
330
CA
100
AcDbEntity
  8
0
100
AcDbBlockEnd
  0
BLOCK
  5
D5
330
D4
100
AcDbEntity
  8
0
100
AcDbBlockBegin
  2
Dim3
 70
     0
 71
     0
 10
0.0
 20
0.0
 30
0.0
  3
Dim3
  1

  0
LINE
  5
D7
330
D4
100
AcDbEntity
  8
6
  6
Continuous
 62
     7
370
     9
100
AcDbLine
 10
635.677326279058
 20
615.4742039317018
 30
0.0
 11
635.6773262790581
 21
656.852497748989
 31
0.0
  0
LINE
  5
D8
330
D4
100
AcDbEntity
  8
6
  6
Continuous
 62
     7
370
     9
100
AcDbLine
 10
635.677326279058
 20
656.852497748989
 30
0.0
 11
637.7478786398781
 21
649.1250911386765
 31
0.0
  0
LINE
  5
D9
330
D4
100
AcDbEntity
  8
6
  6
Continuous
 62
     7
370
     9
100
AcDbLine
 10
635.677326279058
 20
656.852497748989
 30
0.0
 11
633.6067739182378
 21
649.1250911386765
 31
0.0
  0
MTEXT
  5
DA
330
D4
100
AcDbEntity
  8
6
  6
Continuous
 62
     7
370
     9
100
AcDbMText
 10
628.677326279058
 20
636.1633508403454
 30
0.0
 40
14.0
 41
0.0
 71
     8
 72
     1
  1
R170
 11
1.837589179357618E-15
 21
1.0
 31
0.0
 73
     1
 44
1.0
  0
ENDBLK
  5
D6
330
D4
100
AcDbEntity
  8
0
100
AcDbBlockEnd
  0
BLOCK
  5
DD
330
DC
100
AcDbEntity
  8
0
100
AcDbBlockBegin
  2
Dim4
 70
     0
 71
     0
 10
0.0
 20
0.0
 30
0.0
  3
Dim4
  1

  0
LINE
  5
DF
330
DC
100
AcDbEntity
  8
6
  6
Continuous
 62
     7
370
     9
100
AcDbLine
 10
659.8581163280817
 20
682.3547572344164
 30
0.0
 11
658.1773262790566
 21
655.4497248470024
 31
0.0
  0
LINE
  5
E0
330
DC
100
AcDbEntity
  8
6
  6
Continuous
 62
     7
370
     9
100
AcDbLine
 10
658.1773262790566
 20
655.4497248470024
 30
0.0
 11
656.5926036937186
 21
663.2911950106592
 31
0.0
  0
LINE
  5
E1
330
DC
100
AcDbEntity
  8
6
  6
Continuous
 62
     7
370
     9
100
AcDbLine
 10
658.1773262790566
 20
655.4497248470024
 30
0.0
 11
660.7256513440312
 21
663.0329985044159
 31
0.0
  0
MTEXT
  5
E2
330
DC
100
AcDbEntity
  8
6
  6
Continuous
 62
     7
370
     9
100
AcDbMText
 10
652.0313407368085
 20
669.3386887195759
 30
0.0
 40
14.0
 41
0.0
 71
     8
 72
     1
  1
R50
 11
0.06234966840949571
 21
0.9980543666801053
 31
0.0
 73
     1
 44
1.0
  0
ENDBLK
  5
DE
330
DC
100
AcDbEntity
  8
0
100
AcDbBlockEnd
  0
BLOCK
  5
E5
330
E4
100
AcDbEntity
  8
0
100
AcDbBlockBegin
  2
Dim5
 70
     0
 71
     0
 10
0.0
 20
0.0
 30
0.0
  3
Dim5
  1

  0
LINE
  5
E7
330
E4
100
AcDbEntity
  8
6
  6
Continuous
 62
     7
370
     9
100
AcDbLine
 10
611.4965362300336
 20
682.3547572344164
 30
0.0
 11
613.1773262790587
 21
655.4497248470024
 31
0.0
  0
LINE
  5
E8
330
E4
100
AcDbEntity
  8
6
  6
Continuous
 62
     7
370
     9
100
AcDbLine
 10
613.1773262790587
 20
655.4497248470024
 30
0.0
 11
610.629001214084
 21
663.0329985044159
 31
0.0
  0
LINE
  5
E9
330
E4
100
AcDbEntity
  8
6
  6
Continuous
 62
     7
370
     9
100
AcDbLine
 10
613.1773262790587
 20
655.4497248470024
 30
0.0
 11
614.7620488643968
 21
663.2911950106592
 31
0.0
  0
MTEXT
  5
EA
330
E4
100
AcDbEntity
  8
6
  6
Continuous
 62
     7
370
     9
100
AcDbMText
 10
619.323311821307
 20
669.3386887195759
 30
0.0
 40
14.0
 41
0.0
 71
     8
 72
     1
  1
R50
 11
0.0623496684094897
 21
-0.9980543666801056
 31
0.0
 73
     1
 44
1.0
  0
ENDBLK
  5
E6
330
E4
100
AcDbEntity
  8
0
100
AcDbBlockEnd
  0
BLOCK
  5
166
330
165
100
AcDbEntity
  8
0
100
AcDbBlockBegin
  2
Dim6
 70
     0
 71
     0
 10
0.0
 20
0.0
 30
0.0
  3
Dim6
  1

  0
LINE
  5
168
330
165
100
AcDbEntity
  8
6
  6
Continuous
 62
     7
370
     9
100
AcDbLine
 10
926.9273262790607
 20
298.5160263088375
 30
0.0
 11
946.9273262790609
 21
298.5160263088375
 31
0.0
  0
LINE
  5
169
330
165
100
AcDbEntity
  8
6
  6
Continuous
 62
     7
370
     9
100
AcDbLine
 10
926.9273262790607
 20
302.5160263088375
 30
0.0
 11
926.9273262790606
 21
276.5160263088375
 31
0.0
  0
LINE
  5
16A
330
165
100
AcDbEntity
  8
6
  6
Continuous
 62
     7
370
     9
100
AcDbLine
 10
946.9273262790609
 20
302.5160263088375
 30
0.0
 11
946.9273262790609
 21
276.5160263088375
 31
0.0
  0
LINE
  5
16B
330
165
100
AcDbEntity
  8
6
  6
Continuous
 62
     7
370
     9
100
AcDbLine
 10
926.9273262790607
 20
298.5160263088375
 30
0.0
 11
934.6547328893732
 21
300.5865786696577
 31
0.0
  0
LINE
  5
16C
330
165
100
AcDbEntity
  8
6
  6
Continuous
 62
     7
370
     9
100
AcDbLine
 10
926.9273262790607
 20
298.5160263088375
 30
0.0
 11
934.6547328893732
 21
296.4454739480174
 31
0.0
  0
LINE
  5
16D
330
165
100
AcDbEntity
  8
6
  6
Continuous
 62
     7
370
     9
100
AcDbLine
 10
946.9273262790609
 20
298.5160263088375
 30
0.0
 11
939.1999196687484
 21
296.4454739480174
 31
0.0
  0
LINE
  5
16E
330
165
100
AcDbEntity
  8
6
  6
Continuous
 62
     7
370
     9
100
AcDbLine
 10
946.9273262790609
 20
298.5160263088375
 30
0.0
 11
939.1999196687484
 21
300.5865786696577
 31
0.0
  0
MTEXT
  5
16F
330
165
100
AcDbEntity
  8
6
  6
Continuous
 62
     7
370
     9
100
AcDbMText
 10
937.2734123781952
 20
305.5160263088375
 30
0.0
 40
14.0
 41
0.0
 71
     8
 72
     1
  1
20
 73
     1
 44
1.0
  0
ENDBLK
  5
167
330
165
100
AcDbEntity
  8
0
100
AcDbBlockEnd
  0
BLOCK
  5
172
330
171
100
AcDbEntity
  8
0
100
AcDbBlockBegin
  2
Dim7
 70
     0
 71
     0
 10
0.0
 20
0.0
 30
0.0
  3
Dim7
  1

  0
LINE
  5
174
330
171
100
AcDbEntity
  8
6
  6
Continuous
 62
     7
370
     9
100
AcDbLine
 10
954.677326585208
 20
377.9469894728406
 30
0.0
 11
877.1773262790603
 21
377.9469894728406
 31
0.0
  0
LINE
  5
175
330
171
100
AcDbEntity
  8
6
  6
Continuous
 62
     7
370
     9
100
AcDbLine
 10
954.677326585208
 20
373.9469894728406
 30
0.0
 11
954.6773265852084
 21
439.9469894728405
 31
0.0
  0
LINE
  5
176
330
171
100
AcDbEntity
  8
6
  6
Continuous
 62
     7
370
     9
100
AcDbLine
 10
877.1773262790603
 20
373.9469894728406
 30
0.0
 11
877.1773262790607
 21
439.9469894728406
 31
0.0
  0
LINE
  5
177
330
171
100
AcDbEntity
  8
6
  6
Continuous
 62
     7
370
     9
100
AcDbLine
 10
954.677326585208
 20
377.9469894728406
 30
0.0
 11
946.9499199748955
 21
375.8764371120205
 31
0.0
  0
LINE
  5
178
330
171
100
AcDbEntity
  8
6
  6
Continuous
 62
     7
370
     9
100
AcDbLine
 10
954.677326585208
 20
377.9469894728406
 30
0.0
 11
946.9499199748955
 21
380.0175418336609
 31
0.0
  0
LINE
  5
179
330
171
100
AcDbEntity
  8
6
  6
Continuous
 62
     7
370
     9
100
AcDbLine
 10
877.1773262790603
 20
377.9469894728406
 30
0.0
 11
884.9047328893728
 21
380.0175418336608
 31
0.0
  0
LINE
  5
17A
330
171
100
AcDbEntity
  8
6
  6
Continuous
 62
     7
370
     9
100
AcDbLine
 10
877.1773262790603
 20
377.9469894728406
 30
0.0
 11
884.9047328893728
 21
375.8764371120205
 31
0.0
  0
MTEXT
  5
17B
330
171
100
AcDbEntity
  8
6
  6
Continuous
 62
     7
370
     9
100
AcDbMText
 10
914.3021718474224
 20
384.9469894728406
 30
0.0
 40
14.0
 41
0.0
 71
     8
 72
     1
  1
77.5
 73
     1
 44
1.0
  0
ENDBLK
  5
173
330
171
100
AcDbEntity
  8
0
100
AcDbBlockEnd
  0
BLOCK
  5
17E
330
17D
100
AcDbEntity
  8
0
100
AcDbBlockBegin
  2
Dim8
 70
     0
 71
     0
 10
0.0
 20
0.0
 30
0.0
  3
Dim8
  1

  0
LINE
  5
180
330
17D
100
AcDbEntity
  8
6
  6
Continuous
 62
     7
370
     9
100
AcDbLine
 10
984.6773265852082
 20
518.9469894728406
 30
0.0
 11
984.6773265852082
 21
447.9469894728402
 31
0.0
  0
LINE
  5
181
330
17D
100
AcDbEntity
  8
6
  6
Continuous
 62
     7
370
     9
100
AcDbLine
 10
988.6773265852082
 20
518.9469894728406
 30
0.0
 11
962.6773265852084
 21
518.9469894728406
 31
0.0
  0
LINE
  5
182
330
17D
100
AcDbEntity
  8
6
  6
Continuous
 62
     7
370
     9
100
AcDbLine
 10
988.6773265852082
 20
447.9469894728401
 30
0.0
 11
962.6773262790584
 21
447.9469894728405
 31
0.0
  0
LINE
  5
183
330
17D
100
AcDbEntity
  8
6
  6
Continuous
 62
     7
370
     9
100
AcDbLine
 10
984.6773265852082
 20
518.9469894728406
 30
0.0
 11
986.7478789460284
 21
511.2195828625281
 31
0.0
  0
LINE
  5
184
330
17D
100
AcDbEntity
  8
6
  6
Continuous
 62
     7
370
     9
100
AcDbLine
 10
984.6773265852082
 20
518.9469894728406
 30
0.0
 11
982.6067742243881
 21
511.2195828625281
 31
0.0
  0
LINE
  5
185
330
17D
100
AcDbEntity
  8
6
  6
Continuous
 62
     7
370
     9
100
AcDbLine
 10
984.6773265852082
 20
447.9469894728402
 30
0.0
 11
982.6067742243881
 21
455.6743960831527
 31
0.0
  0
LINE
  5
186
330
17D
100
AcDbEntity
  8
6
  6
Continuous
 62
     7
370
     9
100
AcDbLine
 10
984.6773265852082
 20
447.9469894728402
 30
0.0
 11
986.7478789460284
 21
455.6743960831527
 31
0.0
  0
MTEXT
  5
187
330
17D
100
AcDbEntity
  8
6
  6
Continuous
 62
     7
370
     9
100
AcDbMText
 10
977.6773265852082
 20
482.8608826282751
 30
0.0
 40
14.0
 41
0.0
 71
     8
 72
     1
  1
71
 11
1.615544574432587E-15
 21
1.0
 31
0.0
 73
     1
 44
1.0
  0
ENDBLK
  5
17F
330
17D
100
AcDbEntity
  8
0
100
AcDbBlockEnd
  0
BLOCK
  5
18A
330
189
100
AcDbEntity
  8
0
100
AcDbBlockBegin
  2
Dim9
 70
     0
 71
     0
 10
0.0
 20
0.0
 30
0.0
  3
Dim9
  1

  0
LINE
  5
18C
330
189
100
AcDbEntity
  8
6
  6
Continuous
 62
     7
370
     9
100
AcDbLine
 10
917.1773262790582
 20
407.9469894728406
 30
0.0
 11
954.677326585208
 21
407.9469894728406
 31
0.0
  0
LINE
  5
18D
330
189
100
AcDbEntity
  8
6
  6
Continuous
 62
     7
370
     9
100
AcDbLine
 10
917.1773262790582
 20
403.9469894728406
 30
0.0
 11
917.1773262790584
 21
439.9469894728406
 31
0.0
  0
LINE
  5
18E
330
189
100
AcDbEntity
  8
6
  6
Continuous
 62
     7
370
     9
100
AcDbLine
 10
954.677326585208
 20
403.9469894728406
 30
0.0
 11
954.6773265852083
 21
439.9469894728405
 31
0.0
  0
LINE
  5
18F
330
189
100
AcDbEntity
  8
6
  6
Continuous
 62
     7
370
     9
100
AcDbLine
 10
917.1773262790582
 20
407.9469894728406
 30
0.0
 11
924.9047328893707
 21
410.0175418336608
 31
0.0
  0
LINE
  5
190
330
189
100
AcDbEntity
  8
6
  6
Continuous
 62
     7
370
     9
100
AcDbLine
 10
917.1773262790582
 20
407.9469894728406
 30
0.0
 11
924.9047328893707
 21
405.8764371120205
 31
0.0
  0
LINE
  5
191
330
189
100
AcDbEntity
  8
6
  6
Continuous
 62
     7
370
     9
100
AcDbLine
 10
954.677326585208
 20
407.9469894728406
 30
0.0
 11
946.9499199748955
 21
405.8764371120205
 31
0.0
  0
LINE
  5
192
330
189
100
AcDbEntity
  8
6
  6
Continuous
 62
     7
370
     9
100
AcDbLine
 10
954.677326585208
 20
407.9469894728406
 30
0.0
 11
946.9499199748955
 21
410.0175418336609
 31
0.0
  0
MTEXT
  5
193
330
189
100
AcDbEntity
  8
6
  6
Continuous
 62
     7
370
     9
100
AcDbMText
 10
936.7368636566284
 20
414.9469894728406
 30
0.0
 40
14.0
 41
0.0
 71
     8
 72
     1
  1
37.5
 73
     1
 44
1.0
  0
ENDBLK
  5
18B
330
189
100
AcDbEntity
  8
0
100
AcDbBlockEnd
  0
BLOCK
  5
1D0
330
1CF
100
AcDbEntity
  8
0
100
AcDbBlockBegin
  2
Dim10
 70
     0
 71
     0
 10
0.0
 20
0.0
 30
0.0
  3
Dim10
  1

  0
LINE
  5
1D2
330
1CF
100
AcDbEntity
  8
6
  6
Continuous
 62
     7
370
     9
100
AcDbLine
 10
986.6773262790605
 20
260.5219531730544
 30
0.0
 11
986.6773262790605
 21
244.5219531730544
 31
0.0
  0
LINE
  5
1D3
330
1CF
100
AcDbEntity
  8
6
  6
Continuous
 62
     7
370
     9
100
AcDbLine
 10
990.6773262790605
 20
260.5219531730543
 30
0.0
 11
962.6773262790607
 21
260.5219531730546
 31
0.0
  0
LINE
  5
1D4
330
1CF
100
AcDbEntity
  8
6
  6
Continuous
 62
     7
370
     9
100
AcDbLine
 10
990.6773262790605
 20
244.5219531730544
 30
0.0
 11
962.6773262790607
 21
244.5219531730546
 31
0.0
  0
LINE
  5
1D5
330
1CF
100
AcDbEntity
  8
6
  6
Continuous
 62
     7
370
     9
100
AcDbLine
 10
986.6773262790605
 20
260.5219531730544
 30
0.0
 11
988.7478786398807
 21
252.7945465627418
 31
0.0
  0
LINE
  5
1D6
330
1CF
100
AcDbEntity
  8
6
  6
Continuous
 62
     7
370
     9
100
AcDbLine
 10
986.6773262790605
 20
260.5219531730544
 30
0.0
 11
984.6067739182404
 21
252.7945465627418
 31
0.0
  0
LINE
  5
1D7
330
1CF
100
AcDbEntity
  8
6
  6
Continuous
 62
     7
370
     9
100
AcDbLine
 10
986.6773262790605
 20
244.5219531730544
 30
0.0
 11
984.6067739182404
 21
252.249359783367
 31
0.0
  0
LINE
  5
1D8
330
1CF
100
AcDbEntity
  8
6
  6
Continuous
 62
     7
370
     9
100
AcDbLine
 10
986.6773262790605
 20
244.5219531730544
 30
0.0
 11
988.7478786398807
 21
252.249359783367
 31
0.0
  0
MTEXT
  5
1D9
330
1CF
100
AcDbEntity
  8
6
  6
Continuous
 62
     7
370
     9
100
AcDbMText
 10
979.6773262790605
 20
252.5219531730544
 30
0.0
 40
14.0
 41
0.0
 71
     8
 72
     1
  1
16
 11
1.615544574432587E-15
 21
1.0
 31
0.0
 73
     1
 44
1.0
  0
ENDBLK
  5
1D1
330
1CF
100
AcDbEntity
  8
0
100
AcDbBlockEnd
  0
BLOCK
  5
1F9
330
1F8
100
AcDbEntity
  8
0
100
AcDbBlockBegin
  2
Dim11
 70
     0
 71
     0
 10
0.0
 20
0.0
 30
0.0
  3
Dim11
  1

  0
LINE
  5
1FB
330
1F8
100
AcDbEntity
  8
6
  6
Continuous
 62
     7
370
     9
100
AcDbLine
 10
210.1599071252704
 20
503.4469894728404
 30
0.0
 11
210.1599071252704
 21
447.9469894728405
 31
0.0
  0
LINE
  5
1FC
330
1F8
100
AcDbEntity
  8
6
  6
Continuous
 62
     7
370
     9
100
AcDbLine
 10
206.1599071252704
 20
503.4469894728404
 30
0.0
 11
231.9099071252704
 21
503.4469894728406
 31
0.0
  0
LINE
  5
1FD
330
1F8
100
AcDbEntity
  8
6
  6
Continuous
 62
     7
370
     9
100
AcDbLine
 10
206.1599071252704
 20
447.9469894728404
 30
0.0
 11
232.1599071252704
 21
447.9469894728407
 31
0.0
  0
LINE
  5
1FE
330
1F8
100
AcDbEntity
  8
6
  6
Continuous
 62
     7
370
     9
100
AcDbLine
 10
210.1599071252704
 20
503.4469894728404
 30
0.0
 11
212.2304594860905
 21
495.7195828625279
 31
0.0
  0
LINE
  5
1FF
330
1F8
100
AcDbEntity
  8
6
  6
Continuous
 62
     7
370
     9
100
AcDbLine
 10
210.1599071252704
 20
503.4469894728404
 30
0.0
 11
208.0893547644502
 21
495.7195828625279
 31
0.0
  0
LINE
  5
200
330
1F8
100
AcDbEntity
  8
6
  6
Continuous
 62
     7
370
     9
100
AcDbLine
 10
210.1599071252704
 20
447.9469894728405
 30
0.0
 11
208.0893547644502
 21
455.674396083153
 31
0.0
  0
LINE
  5
201
330
1F8
100
AcDbEntity
  8
6
  6
Continuous
 62
     7
370
     9
100
AcDbLine
 10
210.1599071252704
 20
447.9469894728405
 30
0.0
 11
212.2304594860906
 21
455.674396083153
 31
0.0
  0
MTEXT
  5
202
330
1F8
100
AcDbEntity
  8
6
  6
Continuous
 62
     7
370
     9
100
AcDbMText
 10
203.1599071252704
 20
478.1502941210859
 30
0.0
 40
14.0
 41
0.0
 71
     8
 72
     1
  1
55.5
 11
4.058035228607931E-15
 21
1.0
 31
0.0
 73
     1
 44
1.0
  0
ENDBLK
  5
1FA
330
1F8
100
AcDbEntity
  8
0
100
AcDbBlockEnd
  0
BLOCK
  5
23C
330
23B
100
AcDbEntity
  8
0
100
AcDbBlockBegin
  2
Dim12
 70
     0
 71
     0
 10
0.0
 20
0.0
 30
0.0
  3
Dim12
  1

  0
LINE
  5
23E
330
23B
100
AcDbEntity
  8
6
  6
Continuous
 62
     7
370
     9
100
AcDbLine
 10
237.4099071252705
 20
549.4469894728408
 30
0.0
 11
269.4099071252705
 21
549.4469894728408
 31
0.0
  0
LINE
  5
23F
330
23B
100
AcDbEntity
  8
6
  6
Continuous
 62
     7
370
     9
100
AcDbLine
 10
237.4099071252705
 20
553.4469894728408
 30
0.0
 11
237.4099071252704
 21
510.5225450283966
 31
0.0
  0
LINE
  5
240
330
23B
100
AcDbEntity
  8
6
  6
Continuous
 62
     7
370
     9
100
AcDbLine
 10
269.4099071252705
 20
553.4469894728408
 30
0.0
 11
269.4099071252704
 21
510.5225450283966
 31
0.0
  0
LINE
  5
241
330
23B
100
AcDbEntity
  8
6
  6
Continuous
 62
     7
370
     9
100
AcDbLine
 10
237.4099071252705
 20
549.4469894728408
 30
0.0
 11
245.137313735583
 21
551.517541833661
 31
0.0
  0
LINE
  5
242
330
23B
100
AcDbEntity
  8
6
  6
Continuous
 62
     7
370
     9
100
AcDbLine
 10
237.4099071252705
 20
549.4469894728408
 30
0.0
 11
245.137313735583
 21
547.3764371120205
 31
0.0
  0
LINE
  5
243
330
23B
100
AcDbEntity
  8
6
  6
Continuous
 62
     7
370
     9
100
AcDbLine
 10
269.4099071252705
 20
549.4469894728408
 30
0.0
 11
261.682500514958
 21
547.3764371120207
 31
0.0
  0
LINE
  5
244
330
23B
100
AcDbEntity
  8
6
  6
Continuous
 62
     7
370
     9
100
AcDbLine
 10
269.4099071252705
 20
549.4469894728408
 30
0.0
 11
261.682500514958
 21
551.517541833661
 31
0.0
  0
MTEXT
  5
245
330
23B
100
AcDbEntity
  8
6
  6
Continuous
 62
     7
370
     9
100
AcDbMText
 10
253.4099071252705
 20
556.4469894728408
 30
0.0
 40
14.0
 41
0.0
 71
     8
 72
     1
  1
32
 73
     1
 44
1.0
  0
ENDBLK
  5
23D
330
23B
100
AcDbEntity
  8
0
100
AcDbBlockEnd
  0
BLOCK
  5
248
330
247
100
AcDbEntity
  8
0
100
AcDbBlockBegin
  2
Dim13
 70
     0
 71
     0
 10
0.0
 20
0.0
 30
0.0
  3
Dim13
  1

  0
LINE
  5
24A
330
247
100
AcDbEntity
  8
6
  6
Continuous
 62
     7
370
     9
100
AcDbLine
 10
180.1599071252704
 20
519.4469894728401
 30
0.0
 11
180.1599071252704
 21
447.9469894728402
 31
0.0
  0
LINE
  5
24B
330
247
100
AcDbEntity
  8
6
  6
Continuous
 62
     7
370
     9
100
AcDbLine
 10
176.1599071252704
 20
519.4469894728401
 30
0.0
 11
245.397750200694
 21
519.4469894728406
 31
0.0
  0
LINE
  5
24C
330
247
100
AcDbEntity
  8
6
  6
Continuous
 62
     7
370
     9
100
AcDbLine
 10
176.1599071252704
 20
447.9469894728401
 30
0.0
 11
232.1599071252704
 21
447.9469894728407
 31
0.0
  0
LINE
  5
24D
330
247
100
AcDbEntity
  8
6
  6
Continuous
 62
     7
370
     9
100
AcDbLine
 10
180.1599071252704
 20
519.4469894728401
 30
0.0
 11
182.2304594860906
 21
511.7195828625275
 31
0.0
  0
LINE
  5
24E
330
247
100
AcDbEntity
  8
6
  6
Continuous
 62
     7
370
     9
100
AcDbLine
 10
180.1599071252704
 20
519.4469894728401
 30
0.0
 11
178.0893547644502
 21
511.7195828625275
 31
0.0
  0
LINE
  5
24F
330
247
100
AcDbEntity
  8
6
  6
Continuous
 62
     7
370
     9
100
AcDbLine
 10
180.1599071252704
 20
447.9469894728402
 30
0.0
 11
178.0893547644502
 21
455.6743960831527
 31
0.0
  0
LINE
  5
250
330
247
100
AcDbEntity
  8
6
  6
Continuous
 62
     7
370
     9
100
AcDbLine
 10
180.1599071252704
 20
447.9469894728402
 30
0.0
 11
182.2304594860906
 21
455.6743960831527
 31
0.0
  0
MTEXT
  5
251
330
247
100
AcDbEntity
  8
6
  6
Continuous
 62
     7
370
     9
100
AcDbMText
 10
173.1599071252704
 20
484.1996768371351
 30
0.0
 40
14.0
 41
0.0
 71
     8
 72
     1
  1
71.5
 11
4.058035228607931E-15
 21
1.0
 31
0.0
 73
     1
 44
1.0
  0
ENDBLK
  5
249
330
247
100
AcDbEntity
  8
0
100
AcDbBlockEnd
  0
BLOCK
  5
254
330
253
100
AcDbEntity
  8
0
100
AcDbBlockBegin
  2
Dim14
 70
     0
 71
     0
 10
0.0
 20
0.0
 30
0.0
  3
Dim14
  1

  0
LINE
  5
256
330
253
100
AcDbEntity
  8
6
  6
Continuous
 62
     7
370
     9
100
AcDbLine
 10
240.1599071252699
 20
407.9469894728406
 30
0.0
 11
266.6599071252699
 21
407.9469894728406
 31
0.0
  0
LINE
  5
257
330
253
100
AcDbEntity
  8
6
  6
Continuous
 62
     7
370
     9
100
AcDbLine
 10
240.1599071252699
 20
403.9469894728406
 30
0.0
 11
240.1599071252703
 21
439.9469894728408
 31
0.0
  0
LINE
  5
258
330
253
100
AcDbEntity
  8
6
  6
Continuous
 62
     7
370
     9
100
AcDbLine
 10
266.6599071252699
 20
403.9469894728406
 30
0.0
 11
266.6599071252703
 21
439.9469894728408
 31
0.0
  0
LINE
  5
259
330
253
100
AcDbEntity
  8
6
  6
Continuous
 62
     7
370
     9
100
AcDbLine
 10
240.1599071252699
 20
407.9469894728406
 30
0.0
 11
247.8873137355825
 21
410.0175418336608
 31
0.0
  0
LINE
  5
25A
330
253
100
AcDbEntity
  8
6
  6
Continuous
 62
     7
370
     9
100
AcDbLine
 10
240.1599071252699
 20
407.9469894728406
 30
0.0
 11
247.8873137355825
 21
405.8764371120205
 31
0.0
  0
LINE
  5
25B
330
253
100
AcDbEntity
  8
6
  6
Continuous
 62
     7
370
     9
100
AcDbLine
 10
266.6599071252699
 20
407.9469894728406
 30
0.0
 11
258.9325005149574
 21
405.8764371120205
 31
0.0
  0
LINE
  5
25C
330
253
100
AcDbEntity
  8
6
  6
Continuous
 62
     7
370
     9
100
AcDbLine
 10
266.6599071252699
 20
407.9469894728406
 30
0.0
 11
258.9325005149574
 21
410.0175418336609
 31
0.0
  0
MTEXT
  5
25D
330
253
100
AcDbEntity
  8
6
  6
Continuous
 62
     7
370
     9
100
AcDbMText
 10
253.4099071252699
 20
414.9469894728406
 30
0.0
 40
14.0
 41
0.0
 71
     8
 72
     1
  1
26.5
 73
     1
 44
1.0
  0
ENDBLK
  5
255
330
253
100
AcDbEntity
  8
0
100
AcDbBlockEnd
  0
BLOCK
  5
284
330
283
100
AcDbEntity
  8
0
100
AcDbBlockBegin
  2
Dim15
 70
     0
 71
     0
 10
0.0
 20
0.0
 30
0.0
  3
Dim15
  1

  0
LINE
  5
286
330
283
100
AcDbEntity
  8
6
  6
Continuous
 62
     7
370
     9
100
AcDbLine
 10
935.6773262790603
 20
197.5260869565212
 30
0.0
 11
335.6773265852187
 21
197.5260869565212
 31
0.0
  0
LINE
  5
287
330
283
100
AcDbEntity
  8
6
  6
Continuous
 62
     7
370
     9
100
AcDbLine
 10
935.6773262790603
 20
193.5260869565212
 30
0.0
 11
935.6773262790606
 21
229.5260869565212
 31
0.0
  0
LINE
  5
288
330
283
100
AcDbEntity
  8
6
  6
Continuous
 62
     7
370
     9
100
AcDbLine
 10
335.6773265852186
 20
193.5260869565212
 30
0.0
 11
335.677326585219
 21
229.5260869565212
 31
0.0
  0
LINE
  5
289
330
283
100
AcDbEntity
  8
6
  6
Continuous
 62
     7
370
     9
100
AcDbLine
 10
935.6773262790603
 20
197.5260869565212
 30
0.0
 11
927.9499196687477
 21
195.4555345957011
 31
0.0
  0
LINE
  5
28A
330
283
100
AcDbEntity
  8
6
  6
Continuous
 62
     7
370
     9
100
AcDbLine
 10
935.6773262790603
 20
197.5260869565212
 30
0.0
 11
927.9499196687477
 21
199.5966393173414
 31
0.0
  0
LINE
  5
28B
330
283
100
AcDbEntity
  8
6
  6
Continuous
 62
     7
370
     9
100
AcDbLine
 10
335.6773265852187
 20
197.5260869565212
 30
0.0
 11
343.4047331955312
 21
199.5966393173414
 31
0.0
  0
LINE
  5
28C
330
283
100
AcDbEntity
  8
6
  6
Continuous
 62
     7
370
     9
100
AcDbLine
 10
335.6773265852187
 20
197.5260869565212
 30
0.0
 11
343.4047331955312
 21
195.4555345957011
 31
0.0
  0
MTEXT
  5
28D
330
283
100
AcDbEntity
  8
6
  6
Continuous
 62
     7
370
     9
100
AcDbMText
 10
635.6773262790591
 20
204.5260869565212
 30
0.0
 40
14.0
 41
0.0
 71
     8
 72
     1
  1
600
 73
     1
 44
1.0
  0
ENDBLK
  5
285
330
283
100
AcDbEntity
  8
0
100
AcDbBlockEnd
  0
BLOCK
  5
290
330
28F
100
AcDbEntity
  8
0
100
AcDbBlockBegin
  2
Dim16
 70
     0
 71
     0
 10
0.0
 20
0.0
 30
0.0
  3
Dim16
  1

  0
LINE
  5
292
330
28F
100
AcDbEntity
  8
6
  6
Continuous
 62
     7
370
     9
100
AcDbLine
 10
316.6773262790589
 20
579.4469894728408
 30
0.0
 11
954.6773265852084
 21
579.4469894728408
 31
0.0
  0
LINE
  5
293
330
28F
100
AcDbEntity
  8
6
  6
Continuous
 62
     7
370
     9
100
AcDbLine
 10
316.6773262790589
 20
583.4469894728408
 30
0.0
 11
316.6773262790587
 21
527.4469894728405
 31
0.0
  0
LINE
  5
294
330
28F
100
AcDbEntity
  8
6
  6
Continuous
 62
     7
370
     9
100
AcDbLine
 10
954.6773265852084
 20
583.4469894728408
 30
0.0
 11
954.6773265852084
 21
527.4469894728405
 31
0.0
  0
LINE
  5
295
330
28F
100
AcDbEntity
  8
6
  6
Continuous
 62
     7
370
     9
100
AcDbLine
 10
316.6773262790589
 20
579.4469894728408
 30
0.0
 11
324.4047328893714
 21
581.517541833661
 31
0.0
  0
LINE
  5
296
330
28F
100
AcDbEntity
  8
6
  6
Continuous
 62
     7
370
     9
100
AcDbLine
 10
316.6773262790589
 20
579.4469894728408
 30
0.0
 11
324.4047328893714
 21
577.3764371120205
 31
0.0
  0
LINE
  5
297
330
28F
100
AcDbEntity
  8
6
  6
Continuous
 62
     7
370
     9
100
AcDbLine
 10
954.6773265852084
 20
579.4469894728408
 30
0.0
 11
946.9499199748959
 21
577.3764371120207
 31
0.0
  0
LINE
  5
298
330
28F
100
AcDbEntity
  8
6
  6
Continuous
 62
     7
370
     9
100
AcDbLine
 10
954.6773265852084
 20
579.4469894728408
 30
0.0
 11
946.9499199748959
 21
581.517541833661
 31
0.0
  0
MTEXT
  5
299
330
28F
100
AcDbEntity
  8
6
  6
Continuous
 62
     7
370
     9
100
AcDbMText
 10
635.677326279058
 20
586.4469894728408
 30
0.0
 40
14.0
 41
0.0
 71
     8
 72
     1
  1
638
 73
     1
 44
1.0
  0
ENDBLK
  5
291
330
28F
100
AcDbEntity
  8
0
100
AcDbBlockEnd
  0
BLOCK
  5
29E
330
29D
100
AcDbEntity
  8
0
100
AcDbBlockBegin
  2
Dim17
 70
     0
 71
     0
 10
0.0
 20
0.0
 30
0.0
  3
Dim17
  1

  0
LINE
  5
2A0
330
29D
100
AcDbEntity
  8
6
  6
Continuous
 62
     7
370
     9
100
AcDbLine
 10
377.6773262790587
 20
549.4469894728408
 30
0.0
 11
893.6773265852084
 21
549.4469894728408
 31
0.0
  0
LINE
  5
2A1
330
29D
100
AcDbEntity
  8
6
  6
Continuous
 62
     7
370
     9
100
AcDbLine
 10
377.6773262790587
 20
553.4469894728408
 30
0.0
 11
377.6773262790587
 21
527.4469894728406
 31
0.0
  0
LINE
  5
2A2
330
29D
100
AcDbEntity
  8
6
  6
Continuous
 62
     7
370
     9
100
AcDbLine
 10
893.6773265852084
 20
553.4469894728408
 30
0.0
 11
893.6773265852084
 21
527.4469894728405
 31
0.0
  0
LINE
  5
2A3
330
29D
100
AcDbEntity
  8
6
  6
Continuous
 62
     7
370
     9
100
AcDbLine
 10
377.6773262790587
 20
549.4469894728408
 30
0.0
 11
385.4047328893712
 21
551.517541833661
 31
0.0
  0
LINE
  5
2A4
330
29D
100
AcDbEntity
  8
6
  6
Continuous
 62
     7
370
     9
100
AcDbLine
 10
377.6773262790587
 20
549.4469894728408
 30
0.0
 11
385.4047328893712
 21
547.3764371120205
 31
0.0
  0
LINE
  5
2A5
330
29D
100
AcDbEntity
  8
6
  6
Continuous
 62
     7
370
     9
100
AcDbLine
 10
893.6773265852084
 20
549.4469894728408
 30
0.0
 11
885.9499199748959
 21
547.3764371120207
 31
0.0
  0
LINE
  5
2A6
330
29D
100
AcDbEntity
  8
6
  6
Continuous
 62
     7
370
     9
100
AcDbLine
 10
893.6773265852084
 20
549.4469894728408
 30
0.0
 11
885.9499199748959
 21
551.517541833661
 31
0.0
  0
MTEXT
  5
2A7
330
29D
100
AcDbEntity
  8
6
  6
Continuous
 62
     7
370
     9
100
AcDbMText
 10
635.6773262790578
 20
556.4469894728408
 30
0.0
 40
14.0
 41
0.0
 71
     8
 72
     1
  1
516
 73
     1
 44
1.0
  0
ENDBLK
  5
29F
330
29D
100
AcDbEntity
  8
0
100
AcDbBlockEnd
  0
BLOCK
  5
2AB
330
2AA
100
AcDbEntity
  8
0
100
AcDbBlockBegin
  2
Dim18
 70
     0
 71
     0
 10
0.0
 20
0.0
 30
0.0
  3
Dim18
  1

  0
LINE
  5
2AD
330
2AA
100
AcDbEntity
  8
6
  6
Continuous
 62
     7
370
     9
100
AcDbLine
 10
394.1773262790577
 20
719.3524431809992
 30
0.0
 11
433.1773262790577
 21
719.3524431809992
 31
0.0
  0
LINE
  5
2AE
330
2AA
100
AcDbEntity
  8
6
  6
Continuous
 62
     7
370
     9
100
AcDbLine
 10
394.1773262790577
 20
723.3524431809992
 30
0.0
 11
394.1773262790576
 21
695.3524431809992
 31
0.0
  0
LINE
  5
2AF
330
2AA
100
AcDbEntity
  8
6
  6
Continuous
 62
     7
370
     9
100
AcDbLine
 10
433.1773262790577
 20
723.3524431809992
 30
0.0
 11
433.1773262790576
 21
695.3524431809992
 31
0.0
  0
LINE
  5
2B0
330
2AA
100
AcDbEntity
  8
6
  6
Continuous
 62
     7
370
     9
100
AcDbLine
 10
394.1773262790577
 20
719.3524431809992
 30
0.0
 11
401.9047328893702
 21
721.4229955418194
 31
0.0
  0
LINE
  5
2B1
330
2AA
100
AcDbEntity
  8
6
  6
Continuous
 62
     7
370
     9
100
AcDbLine
 10
394.1773262790577
 20
719.3524431809992
 30
0.0
 11
401.9047328893702
 21
717.281890820179
 31
0.0
  0
LINE
  5
2B2
330
2AA
100
AcDbEntity
  8
6
  6
Continuous
 62
     7
370
     9
100
AcDbLine
 10
433.1773262790577
 20
719.3524431809992
 30
0.0
 11
425.4499196687452
 21
717.2818908201791
 31
0.0
  0
LINE
  5
2B3
330
2AA
100
AcDbEntity
  8
6
  6
Continuous
 62
     7
370
     9
100
AcDbLine
 10
433.1773262790577
 20
719.3524431809992
 30
0.0
 11
425.4499196687452
 21
721.4229955418194
 31
0.0
  0
MTEXT
  5
2B4
330
2AA
100
AcDbEntity
  8
6
  6
Continuous
 62
     7
370
     9
100
AcDbMText
 10
413.6773262790576
 20
726.3524431809992
 30
0.0
 40
14.0
 41
0.0
 71
     8
 72
     1
  1
39
 73
     1
 44
1.0
  0
ENDBLK
  5
2AC
330
2AA
100
AcDbEntity
  8
0
100
AcDbBlockEnd
  0
BLOCK
  5
2B7
330
2B6
100
AcDbEntity
  8
0
100
AcDbBlockBegin
  2
Dim19
 70
     0
 71
     0
 10
0.0
 20
0.0
 30
0.0
  3
Dim19
  1

  0
LINE
  5
2B9
330
2B6
100
AcDbEntity
  8
6
  6
Continuous
 62
     7
370
     9
100
AcDbLine
 10
433.1773262790577
 20
719.3524431809992
 30
0.0
 11
478.1773262790577
 21
719.3524431809992
 31
0.0
  0
LINE
  5
2BA
330
2B6
100
AcDbEntity
  8
6
  6
Continuous
 62
     7
370
     9
100
AcDbLine
 10
478.1773262790577
 20
723.3524431809992
 30
0.0
 11
478.1773262790577
 21
695.3524431809992
 31
0.0
  0
LINE
  5
2BB
330
2B6
100
AcDbEntity
  8
6
  6
Continuous
 62
     7
370
     9
100
AcDbLine
 10
433.1773262790577
 20
719.3524431809992
 30
0.0
 11
440.9047328893702
 21
721.4229955418194
 31
0.0
  0
LINE
  5
2BC
330
2B6
100
AcDbEntity
  8
6
  6
Continuous
 62
     7
370
     9
100
AcDbLine
 10
433.1773262790577
 20
719.3524431809992
 30
0.0
 11
440.9047328893702
 21
717.281890820179
 31
0.0
  0
LINE
  5
2BD
330
2B6
100
AcDbEntity
  8
6
  6
Continuous
 62
     7
370
     9
100
AcDbLine
 10
478.1773262790577
 20
719.3524431809992
 30
0.0
 11
470.4499196687452
 21
717.2818908201791
 31
0.0
  0
LINE
  5
2BE
330
2B6
100
AcDbEntity
  8
6
  6
Continuous
 62
     7
370
     9
100
AcDbLine
 10
478.1773262790577
 20
719.3524431809992
 30
0.0
 11
470.4499196687452
 21
721.4229955418194
 31
0.0
  0
MTEXT
  5
2BF
330
2B6
100
AcDbEntity
  8
6
  6
Continuous
 62
     7
370
     9
100
AcDbMText
 10
455.6773262790577
 20
726.3524431809992
 30
0.0
 40
14.0
 41
0.0
 71
     8
 72
     1
  1
45
 73
     1
 44
1.0
  0
ENDBLK
  5
2B8
330
2B6
100
AcDbEntity
  8
0
100
AcDbBlockEnd
  0
BLOCK
  5
2C2
330
2C1
100
AcDbEntity
  8
0
100
AcDbBlockBegin
  2
Dim20
 70
     0
 71
     0
 10
0.0
 20
0.0
 30
0.0
  3
Dim20
  1

  0
LINE
  5
2C4
330
2C1
100
AcDbEntity
  8
6
  6
Continuous
 62
     7
370
     9
100
AcDbLine
 10
478.1773262790577
 20
719.3524431809992
 30
0.0
 11
523.1773262790578
 21
719.3524431809992
 31
0.0
  0
LINE
  5
2C5
330
2C1
100
AcDbEntity
  8
6
  6
Continuous
 62
     7
370
     9
100
AcDbLine
 10
523.1773262790578
 20
723.3524431809992
 30
0.0
 11
523.1773262790578
 21
695.3524431809992
 31
0.0
  0
LINE
  5
2C6
330
2C1
100
AcDbEntity
  8
6
  6
Continuous
 62
     7
370
     9
100
AcDbLine
 10
478.1773262790577
 20
719.3524431809992
 30
0.0
 11
485.9047328893702
 21
721.4229955418194
 31
0.0
  0
LINE
  5
2C7
330
2C1
100
AcDbEntity
  8
6
  6
Continuous
 62
     7
370
     9
100
AcDbLine
 10
478.1773262790577
 20
719.3524431809992
 30
0.0
 11
485.9047328893702
 21
717.281890820179
 31
0.0
  0
LINE
  5
2C8
330
2C1
100
AcDbEntity
  8
6
  6
Continuous
 62
     7
370
     9
100
AcDbLine
 10
523.1773262790578
 20
719.3524431809992
 30
0.0
 11
515.4499196687452
 21
717.2818908201791
 31
0.0
  0
LINE
  5
2C9
330
2C1
100
AcDbEntity
  8
6
  6
Continuous
 62
     7
370
     9
100
AcDbLine
 10
523.1773262790578
 20
719.3524431809992
 30
0.0
 11
515.4499196687452
 21
721.4229955418194
 31
0.0
  0
MTEXT
  5
2CA
330
2C1
100
AcDbEntity
  8
6
  6
Continuous
 62
     7
370
     9
100
AcDbMText
 10
500.6773262790577
 20
726.3524431809992
 30
0.0
 40
14.0
 41
0.0
 71
     8
 72
     1
  1
45
 73
     1
 44
1.0
  0
ENDBLK
  5
2C3
330
2C1
100
AcDbEntity
  8
0
100
AcDbBlockEnd
  0
BLOCK
  5
2CD
330
2CC
100
AcDbEntity
  8
0
100
AcDbBlockBegin
  2
Dim21
 70
     0
 71
     0
 10
0.0
 20
0.0
 30
0.0
  3
Dim21
  1

  0
LINE
  5
2CF
330
2CC
100
AcDbEntity
  8
6
  6
Continuous
 62
     7
370
     9
100
AcDbLine
 10
523.1773262790578
 20
719.3524431809992
 30
0.0
 11
568.1773262790578
 21
719.3524431809992
 31
0.0
  0
LINE
  5
2D0
330
2CC
100
AcDbEntity
  8
6
  6
Continuous
 62
     7
370
     9
100
AcDbLine
 10
568.1773262790578
 20
723.3524431809992
 30
0.0
 11
568.1773262790578
 21
695.3524431809992
 31
0.0
  0
LINE
  5
2D1
330
2CC
100
AcDbEntity
  8
6
  6
Continuous
 62
     7
370
     9
100
AcDbLine
 10
523.1773262790578
 20
719.3524431809992
 30
0.0
 11
530.9047328893703
 21
721.4229955418194
 31
0.0
  0
LINE
  5
2D2
330
2CC
100
AcDbEntity
  8
6
  6
Continuous
 62
     7
370
     9
100
AcDbLine
 10
523.1773262790578
 20
719.3524431809992
 30
0.0
 11
530.9047328893703
 21
717.281890820179
 31
0.0
  0
LINE
  5
2D3
330
2CC
100
AcDbEntity
  8
6
  6
Continuous
 62
     7
370
     9
100
AcDbLine
 10
568.1773262790578
 20
719.3524431809992
 30
0.0
 11
560.4499196687452
 21
717.2818908201791
 31
0.0
  0
LINE
  5
2D4
330
2CC
100
AcDbEntity
  8
6
  6
Continuous
 62
     7
370
     9
100
AcDbLine
 10
568.1773262790578
 20
719.3524431809992
 30
0.0
 11
560.4499196687452
 21
721.4229955418194
 31
0.0
  0
MTEXT
  5
2D5
330
2CC
100
AcDbEntity
  8
6
  6
Continuous
 62
     7
370
     9
100
AcDbMText
 10
545.6773262790578
 20
726.3524431809992
 30
0.0
 40
14.0
 41
0.0
 71
     8
 72
     1
  1
45
 73
     1
 44
1.0
  0
ENDBLK
  5
2CE
330
2CC
100
AcDbEntity
  8
0
100
AcDbBlockEnd
  0
BLOCK
  5
2D8
330
2D7
100
AcDbEntity
  8
0
100
AcDbBlockBegin
  2
Dim22
 70
     0
 71
     0
 10
0.0
 20
0.0
 30
0.0
  3
Dim22
  1

  0
LINE
  5
2DA
330
2D7
100
AcDbEntity
  8
6
  6
Continuous
 62
     7
370
     9
100
AcDbLine
 10
568.1773262790578
 20
719.3524431809992
 30
0.0
 11
613.1773262790578
 21
719.3524431809992
 31
0.0
  0
LINE
  5
2DB
330
2D7
100
AcDbEntity
  8
6
  6
Continuous
 62
     7
370
     9
100
AcDbLine
 10
613.1773262790578
 20
723.3524431809992
 30
0.0
 11
613.1773262790578
 21
695.3524431809992
 31
0.0
  0
LINE
  5
2DC
330
2D7
100
AcDbEntity
  8
6
  6
Continuous
 62
     7
370
     9
100
AcDbLine
 10
568.1773262790578
 20
719.3524431809992
 30
0.0
 11
575.9047328893703
 21
721.4229955418194
 31
0.0
  0
LINE
  5
2DD
330
2D7
100
AcDbEntity
  8
6
  6
Continuous
 62
     7
370
     9
100
AcDbLine
 10
568.1773262790578
 20
719.3524431809992
 30
0.0
 11
575.9047328893703
 21
717.281890820179
 31
0.0
  0
LINE
  5
2DE
330
2D7
100
AcDbEntity
  8
6
  6
Continuous
 62
     7
370
     9
100
AcDbLine
 10
613.1773262790578
 20
719.3524431809992
 30
0.0
 11
605.4499196687452
 21
717.2818908201791
 31
0.0
  0
LINE
  5
2DF
330
2D7
100
AcDbEntity
  8
6
  6
Continuous
 62
     7
370
     9
100
AcDbLine
 10
613.1773262790578
 20
719.3524431809992
 30
0.0
 11
605.4499196687452
 21
721.4229955418194
 31
0.0
  0
MTEXT
  5
2E0
330
2D7
100
AcDbEntity
  8
6
  6
Continuous
 62
     7
370
     9
100
AcDbMText
 10
590.6773262790578
 20
726.3524431809992
 30
0.0
 40
14.0
 41
0.0
 71
     8
 72
     1
  1
45
 73
     1
 44
1.0
  0
ENDBLK
  5
2D9
330
2D7
100
AcDbEntity
  8
0
100
AcDbBlockEnd
  0
BLOCK
  5
2E3
330
2E2
100
AcDbEntity
  8
0
100
AcDbBlockBegin
  2
Dim23
 70
     0
 71
     0
 10
0.0
 20
0.0
 30
0.0
  3
Dim23
  1

  0
LINE
  5
2E5
330
2E2
100
AcDbEntity
  8
6
  6
Continuous
 62
     7
370
     9
100
AcDbLine
 10
613.1773262790578
 20
719.3524431809992
 30
0.0
 11
658.1773262790578
 21
719.3524431809992
 31
0.0
  0
LINE
  5
2E6
330
2E2
100
AcDbEntity
  8
6
  6
Continuous
 62
     7
370
     9
100
AcDbLine
 10
658.1773262790578
 20
723.3524431809992
 30
0.0
 11
658.1773262790578
 21
695.3524431809992
 31
0.0
  0
LINE
  5
2E7
330
2E2
100
AcDbEntity
  8
6
  6
Continuous
 62
     7
370
     9
100
AcDbLine
 10
613.1773262790578
 20
719.3524431809992
 30
0.0
 11
620.9047328893703
 21
721.4229955418194
 31
0.0
  0
LINE
  5
2E8
330
2E2
100
AcDbEntity
  8
6
  6
Continuous
 62
     7
370
     9
100
AcDbLine
 10
613.1773262790578
 20
719.3524431809992
 30
0.0
 11
620.9047328893703
 21
717.281890820179
 31
0.0
  0
LINE
  5
2E9
330
2E2
100
AcDbEntity
  8
6
  6
Continuous
 62
     7
370
     9
100
AcDbLine
 10
658.1773262790578
 20
719.3524431809992
 30
0.0
 11
650.4499196687452
 21
717.2818908201791
 31
0.0
  0
LINE
  5
2EA
330
2E2
100
AcDbEntity
  8
6
  6
Continuous
 62
     7
370
     9
100
AcDbLine
 10
658.1773262790578
 20
719.3524431809992
 30
0.0
 11
650.4499196687452
 21
721.4229955418194
 31
0.0
  0
MTEXT
  5
2EB
330
2E2
100
AcDbEntity
  8
6
  6
Continuous
 62
     7
370
     9
100
AcDbMText
 10
635.6773262790578
 20
726.3524431809992
 30
0.0
 40
14.0
 41
0.0
 71
     8
 72
     1
  1
45
 73
     1
 44
1.0
  0
ENDBLK
  5
2E4
330
2E2
100
AcDbEntity
  8
0
100
AcDbBlockEnd
  0
BLOCK
  5
2EE
330
2ED
100
AcDbEntity
  8
0
100
AcDbBlockBegin
  2
Dim24
 70
     0
 71
     0
 10
0.0
 20
0.0
 30
0.0
  3
Dim24
  1

  0
LINE
  5
2F0
330
2ED
100
AcDbEntity
  8
6
  6
Continuous
 62
     7
370
     9
100
AcDbLine
 10
658.1773262790578
 20
719.3524431809992
 30
0.0
 11
703.1773262790578
 21
719.3524431809992
 31
0.0
  0
LINE
  5
2F1
330
2ED
100
AcDbEntity
  8
6
  6
Continuous
 62
     7
370
     9
100
AcDbLine
 10
703.1773262790578
 20
723.3524431809992
 30
0.0
 11
703.1773262790578
 21
695.3524431809992
 31
0.0
  0
LINE
  5
2F2
330
2ED
100
AcDbEntity
  8
6
  6
Continuous
 62
     7
370
     9
100
AcDbLine
 10
658.1773262790578
 20
719.3524431809992
 30
0.0
 11
665.9047328893703
 21
721.4229955418194
 31
0.0
  0
LINE
  5
2F3
330
2ED
100
AcDbEntity
  8
6
  6
Continuous
 62
     7
370
     9
100
AcDbLine
 10
658.1773262790578
 20
719.3524431809992
 30
0.0
 11
665.9047328893703
 21
717.281890820179
 31
0.0
  0
LINE
  5
2F4
330
2ED
100
AcDbEntity
  8
6
  6
Continuous
 62
     7
370
     9
100
AcDbLine
 10
703.1773262790578
 20
719.3524431809992
 30
0.0
 11
695.4499196687452
 21
717.2818908201791
 31
0.0
  0
LINE
  5
2F5
330
2ED
100
AcDbEntity
  8
6
  6
Continuous
 62
     7
370
     9
100
AcDbLine
 10
703.1773262790578
 20
719.3524431809992
 30
0.0
 11
695.4499196687452
 21
721.4229955418194
 31
0.0
  0
MTEXT
  5
2F6
330
2ED
100
AcDbEntity
  8
6
  6
Continuous
 62
     7
370
     9
100
AcDbMText
 10
680.6773262790578
 20
726.3524431809992
 30
0.0
 40
14.0
 41
0.0
 71
     8
 72
     1
  1
45
 73
     1
 44
1.0
  0
ENDBLK
  5
2EF
330
2ED
100
AcDbEntity
  8
0
100
AcDbBlockEnd
  0
BLOCK
  5
2F9
330
2F8
100
AcDbEntity
  8
0
100
AcDbBlockBegin
  2
Dim25
 70
     0
 71
     0
 10
0.0
 20
0.0
 30
0.0
  3
Dim25
  1

  0
LINE
  5
2FB
330
2F8
100
AcDbEntity
  8
6
  6
Continuous
 62
     7
370
     9
100
AcDbLine
 10
703.1773262790578
 20
719.3524431809992
 30
0.0
 11
748.1773262790578
 21
719.3524431809992
 31
0.0
  0
LINE
  5
2FC
330
2F8
100
AcDbEntity
  8
6
  6
Continuous
 62
     7
370
     9
100
AcDbLine
 10
748.1773262790578
 20
723.3524431809992
 30
0.0
 11
748.1773262790578
 21
695.3524431809992
 31
0.0
  0
LINE
  5
2FD
330
2F8
100
AcDbEntity
  8
6
  6
Continuous
 62
     7
370
     9
100
AcDbLine
 10
703.1773262790578
 20
719.3524431809992
 30
0.0
 11
710.9047328893703
 21
721.4229955418194
 31
0.0
  0
LINE
  5
2FE
330
2F8
100
AcDbEntity
  8
6
  6
Continuous
 62
     7
370
     9
100
AcDbLine
 10
703.1773262790578
 20
719.3524431809992
 30
0.0
 11
710.9047328893703
 21
717.281890820179
 31
0.0
  0
LINE
  5
2FF
330
2F8
100
AcDbEntity
  8
6
  6
Continuous
 62
     7
370
     9
100
AcDbLine
 10
748.1773262790578
 20
719.3524431809992
 30
0.0
 11
740.4499196687452
 21
717.2818908201791
 31
0.0
  0
LINE
  5
300
330
2F8
100
AcDbEntity
  8
6
  6
Continuous
 62
     7
370
     9
100
AcDbLine
 10
748.1773262790578
 20
719.3524431809992
 30
0.0
 11
740.4499196687452
 21
721.4229955418194
 31
0.0
  0
MTEXT
  5
301
330
2F8
100
AcDbEntity
  8
6
  6
Continuous
 62
     7
370
     9
100
AcDbMText
 10
725.6773262790578
 20
726.3524431809992
 30
0.0
 40
14.0
 41
0.0
 71
     8
 72
     1
  1
45
 73
     1
 44
1.0
  0
ENDBLK
  5
2FA
330
2F8
100
AcDbEntity
  8
0
100
AcDbBlockEnd
  0
BLOCK
  5
304
330
303
100
AcDbEntity
  8
0
100
AcDbBlockBegin
  2
Dim26
 70
     0
 71
     0
 10
0.0
 20
0.0
 30
0.0
  3
Dim26
  1

  0
LINE
  5
306
330
303
100
AcDbEntity
  8
6
  6
Continuous
 62
     7
370
     9
100
AcDbLine
 10
748.1773262790578
 20
719.3524431809992
 30
0.0
 11
793.1773262790578
 21
719.3524431809992
 31
0.0
  0
LINE
  5
307
330
303
100
AcDbEntity
  8
6
  6
Continuous
 62
     7
370
     9
100
AcDbLine
 10
793.1773262790578
 20
723.3524431809992
 30
0.0
 11
793.1773262790578
 21
695.3524431809992
 31
0.0
  0
LINE
  5
308
330
303
100
AcDbEntity
  8
6
  6
Continuous
 62
     7
370
     9
100
AcDbLine
 10
748.1773262790578
 20
719.3524431809992
 30
0.0
 11
755.9047328893703
 21
721.4229955418194
 31
0.0
  0
LINE
  5
309
330
303
100
AcDbEntity
  8
6
  6
Continuous
 62
     7
370
     9
100
AcDbLine
 10
748.1773262790578
 20
719.3524431809992
 30
0.0
 11
755.9047328893703
 21
717.281890820179
 31
0.0
  0
LINE
  5
30A
330
303
100
AcDbEntity
  8
6
  6
Continuous
 62
     7
370
     9
100
AcDbLine
 10
793.1773262790578
 20
719.3524431809992
 30
0.0
 11
785.4499196687452
 21
717.2818908201791
 31
0.0
  0
LINE
  5
30B
330
303
100
AcDbEntity
  8
6
  6
Continuous
 62
     7
370
     9
100
AcDbLine
 10
793.1773262790578
 20
719.3524431809992
 30
0.0
 11
785.4499196687452
 21
721.4229955418194
 31
0.0
  0
MTEXT
  5
30C
330
303
100
AcDbEntity
  8
6
  6
Continuous
 62
     7
370
     9
100
AcDbMText
 10
770.6773262790578
 20
726.3524431809992
 30
0.0
 40
14.0
 41
0.0
 71
     8
 72
     1
  1
45
 73
     1
 44
1.0
  0
ENDBLK
  5
305
330
303
100
AcDbEntity
  8
0
100
AcDbBlockEnd
  0
BLOCK
  5
30F
330
30E
100
AcDbEntity
  8
0
100
AcDbBlockBegin
  2
Dim27
 70
     0
 71
     0
 10
0.0
 20
0.0
 30
0.0
  3
Dim27
  1

  0
LINE
  5
311
330
30E
100
AcDbEntity
  8
6
  6
Continuous
 62
     7
370
     9
100
AcDbLine
 10
793.1773262790578
 20
719.3524431809992
 30
0.0
 11
838.1773262790578
 21
719.3524431809992
 31
0.0
  0
LINE
  5
312
330
30E
100
AcDbEntity
  8
6
  6
Continuous
 62
     7
370
     9
100
AcDbLine
 10
838.1773262790578
 20
723.3524431809992
 30
0.0
 11
838.1773262790578
 21
695.3524431809992
 31
0.0
  0
LINE
  5
313
330
30E
100
AcDbEntity
  8
6
  6
Continuous
 62
     7
370
     9
100
AcDbLine
 10
793.1773262790578
 20
719.3524431809992
 30
0.0
 11
800.9047328893703
 21
721.4229955418194
 31
0.0
  0
LINE
  5
314
330
30E
100
AcDbEntity
  8
6
  6
Continuous
 62
     7
370
     9
100
AcDbLine
 10
793.1773262790578
 20
719.3524431809992
 30
0.0
 11
800.9047328893703
 21
717.281890820179
 31
0.0
  0
LINE
  5
315
330
30E
100
AcDbEntity
  8
6
  6
Continuous
 62
     7
370
     9
100
AcDbLine
 10
838.1773262790578
 20
719.3524431809992
 30
0.0
 11
830.4499196687452
 21
717.2818908201791
 31
0.0
  0
LINE
  5
316
330
30E
100
AcDbEntity
  8
6
  6
Continuous
 62
     7
370
     9
100
AcDbLine
 10
838.1773262790578
 20
719.3524431809992
 30
0.0
 11
830.4499196687452
 21
721.4229955418194
 31
0.0
  0
MTEXT
  5
317
330
30E
100
AcDbEntity
  8
6
  6
Continuous
 62
     7
370
     9
100
AcDbMText
 10
815.6773262790578
 20
726.3524431809992
 30
0.0
 40
14.0
 41
0.0
 71
     8
 72
     1
  1
45
 73
     1
 44
1.0
  0
ENDBLK
  5
310
330
30E
100
AcDbEntity
  8
0
100
AcDbBlockEnd
  0
BLOCK
  5
31A
330
319
100
AcDbEntity
  8
0
100
AcDbBlockBegin
  2
Dim28
 70
     0
 71
     0
 10
0.0
 20
0.0
 30
0.0
  3
Dim28
  1

  0
LINE
  5
31C
330
319
100
AcDbEntity
  8
6
  6
Continuous
 62
     7
370
     9
100
AcDbLine
 10
838.1773262790578
 20
719.3524431809992
 30
0.0
 11
877.1773262790578
 21
719.3524431809992
 31
0.0
  0
LINE
  5
31D
330
319
100
AcDbEntity
  8
6
  6
Continuous
 62
     7
370
     9
100
AcDbLine
 10
877.1773262790578
 20
723.3524431809992
 30
0.0
 11
877.1773262790578
 21
695.3524431809992
 31
0.0
  0
LINE
  5
31E
330
319
100
AcDbEntity
  8
6
  6
Continuous
 62
     7
370
     9
100
AcDbLine
 10
838.1773262790578
 20
719.3524431809992
 30
0.0
 11
845.9047328893703
 21
721.4229955418194
 31
0.0
  0
LINE
  5
31F
330
319
100
AcDbEntity
  8
6
  6
Continuous
 62
     7
370
     9
100
AcDbLine
 10
838.1773262790578
 20
719.3524431809992
 30
0.0
 11
845.9047328893703
 21
717.281890820179
 31
0.0
  0
LINE
  5
320
330
319
100
AcDbEntity
  8
6
  6
Continuous
 62
     7
370
     9
100
AcDbLine
 10
877.1773262790578
 20
719.3524431809992
 30
0.0
 11
869.4499196687452
 21
717.2818908201791
 31
0.0
  0
LINE
  5
321
330
319
100
AcDbEntity
  8
6
  6
Continuous
 62
     7
370
     9
100
AcDbLine
 10
877.1773262790578
 20
719.3524431809992
 30
0.0
 11
869.4499196687452
 21
721.4229955418194
 31
0.0
  0
MTEXT
  5
322
330
319
100
AcDbEntity
  8
6
  6
Continuous
 62
     7
370
     9
100
AcDbMText
 10
857.6773262790578
 20
726.3524431809992
 30
0.0
 40
14.0
 41
0.0
 71
     8
 72
     1
  1
39
 73
     1
 44
1.0
  0
ENDBLK
  5
31B
330
319
100
AcDbEntity
  8
0
100
AcDbBlockEnd
  0
ENDSEC
  0
SECTION
  2
ENTITIES
  0
INSERT
  5
96
330
1F
100
AcDbEntity
  8
0
100
AcDbBlockReference
  2
*G12
 10
0.0
 20
0.0
 30
0.0
  0
LINE
  5
97
330
1F
100
AcDbEntity
  8
8
  6
Continuous
 62
   171
370
    18
100
AcDbLine
 10
948.0
 20
144.0
 30
0.0
 11
948.0
 21
80.0
 31
0.0
  0
TEXT
  5
98
330
1F
100
AcDbEntity
  8
8
  6
Continuous
 62
   171
370
     9
100
AcDbText
 10
750.0
 20
78.0
 30
0.0
 40
11.66666666666667
  1
備考
 50
-0.0000000000000891
 41
0.9999999999999994
  7
T_STANDARD
100
AcDbText
  0
TEXT
  5
99
330
1F
100
AcDbEntity
  8
8
  6
Continuous
 62
   171
370
     9
100
AcDbText
 10
750.0
 20
110.0
 30
0.0
 40
11.66666666666667
  1
品番
 50
-0.0000000000000891
  7
T_STANDARD
100
AcDbText
  0
TEXT
  5
9A
330
1F
100
AcDbEntity
  8
8
  6
Continuous
 62
   171
370
     9
100
AcDbText
 10
750.0
 20
142.0
 30
0.0
 40
11.66666666666667
  1
品名
 50
-0.0000000000000891
  7
T_STANDARD
100
AcDbText
  0
LINE
  5
9B
330
1F
100
AcDbEntity
  8
8
  6
Continuous
 62
   171
370
    18
100
AcDbLine
 10
948.0
 20
112.0
 30
0.0
 11
740.0
 21
112.0
 31
0.0
  0
LINE
  5
9C
330
1F
100
AcDbEntity
  8
8
  6
Continuous
 62
   171
370
    18
100
AcDbLine
 10
760.0
 20
144.0
 30
0.0
 11
760.0
 21
48.0
 31
0.0
  0
LINE
  5
9D
330
1F
100
AcDbEntity
  8
9
  6
Continuous
 62
     5
370
    30
100
AcDbLine
 10
1140.0
 20
144.0
 30
0.0
 11
740.0
 21
144.0
 31
0.0
  0
LINE
  5
9E
330
1F
100
AcDbEntity
  8
9
  6
Continuous
 62
     5
370
    30
100
AcDbLine
 10
740.0
 20
144.0
 30
0.0
 11
740.0
 21
48.0
 31
0.0
  0
LINE
  5
9F
330
1F
100
AcDbEntity
  8
8
  6
Continuous
 62
   171
370
    18
100
AcDbLine
 10
996.0
 20
144.0
 30
0.0
 11
996.0
 21
48.0
 31
0.0
  0
TEXT
  5
A0
330
1F
100
AcDbEntity
  8
8
  6
Continuous
 62
   171
370
     9
100
AcDbText
 10
954.0
 20
128.0
 30
0.0
 40
12.0
  1
縮　尺
 41
0.8333333333333335
100
AcDbText
  0
LINE
  5
A1
330
1F
100
AcDbEntity
  8
8
  6
Continuous
 62
   171
370
    18
100
AcDbLine
 10
948.0
 20
124.0
 30
0.0
 11
996.0
 21
124.0
 31
0.0
  0
LINE
  5
A2
330
1F
100
AcDbEntity
  8
8
  6
Continuous
 62
   171
370
    18
100
AcDbLine
 10
996.0
 20
80.0
 30
0.0
 11
740.0
 21
80.0
 31
0.0
  0
LINE
  5
A3
330
1F
100
AcDbEntity
  8
8
  6
Continuous
 62
   171
370
    18
100
AcDbLine
 10
1140.0
 20
72.0
 30
0.0
 11
996.0
 21
72.0
 31
0.0
  0
LINE
  5
A4
330
1F
100
AcDbEntity
  8
8
  6
Continuous
 62
   171
370
    18
100
AcDbLine
 10
996.0
 20
96.0
 30
0.0
 11
1140.0
 21
96.0
 31
0.0
  0
LINE
  5
A5
330
1F
100
AcDbEntity
  8
8
  6
Continuous
 62
   171
370
    18
100
AcDbLine
 10
1140.0
 20
112.0
 30
0.0
 11
996.0
 21
112.0
 31
0.0
  0
TEXT
  5
A6
330
1F
100
AcDbEntity
  8
8
  6
Continuous
 62
   171
370
     9
100
AcDbText
 10
1002.0
 20
47.99999999999998
 30
0.0
 40
12.0
  1
年月日
 41
0.8333333333333335
100
AcDbText
  0
TEXT
  5
A7
330
1F
100
AcDbEntity
  8
8
  6
Continuous
 62
   171
370
     9
100
AcDbText
 10
1002.0
 20
60.0
 30
0.0
 40
12.0
  1
作　成
 41
0.8333333333333335
100
AcDbText
  0
TEXT
  5
A8
330
1F
100
AcDbEntity
  8
8
  6
Continuous
 62
   171
370
     9
100
AcDbText
 10
1005.0
 20
98.0
 30
0.0
 40
12.0
  1
承 認
 41
0.8333333333333334
100
AcDbText
  0
LINE
  5
A9
330
1F
100
AcDbEntity
  8
8
  6
Continuous
 62
   171
370
    18
100
AcDbLine
 10
1044.0
 20
112.0
 30
0.0
 11
1044.0
 21
48.0
 31
0.0
  0
TEXT
  5
AA
330
1F
100
AcDbEntity
  8
8
  6
Continuous
 62
   171
370
     9
100
AcDbText
 10
1053.0
 20
98.0
 30
0.0
 40
12.0
  1
検 図
 41
0.8333333333333334
100
AcDbText
  0
LINE
  5
AB
330
1F
100
AcDbEntity
  8
8
  6
Continuous
 62
   171
370
    18
100
AcDbLine
 10
1092.0
 20
112.0
 30
0.0
 11
1092.0
 21
72.0
 31
0.0
  0
TEXT
  5
AC
330
1F
100
AcDbEntity
  8
8
  6
Continuous
 62
   171
370
     9
100
AcDbText
 10
1100.0
 20
76.00000000000003
 30
0.0
 40
16.0
  1
藤戸
 41
0.8333333333333334
100
AcDbText
  0
TEXT
  5
AD
330
1F
100
AcDbEntity
  8
8
  6
Continuous
 62
   171
370
     9
100
AcDbText
 10
1101.0
 20
98.0
 30
0.0
 40
12.0
  1
設 計
 41
0.8333333333333334
100
AcDbText
  0
TEXT
  5
AE
330
1F
100
AcDbEntity
  8
8
  6
Continuous
 62
   171
370
     9
100
AcDbText
 10
955.1999999999998
 20
94.0
 30
0.0
 40
16.0
  1
１：４
 41
0.5833333333333397
100
AcDbText
  0
LINE
  5
AF
330
1F
100
AcDbEntity
  8
8
  6
Continuous
 62
   171
370
    18
100
AcDbLine
 10
1020.0
 20
754.0
 30
0.0
 11
1020.0
 21
767.9999999999995
 31
0.0
  0
LINE
  5
B0
330
1F
100
AcDbEntity
  8
8
  6
Continuous
 62
   171
370
    18
100
AcDbLine
 10
940.0
 20
754.0
 30
0.0
 11
940.0
 21
767.9999999999995
 31
0.0
  0
LINE
  5
B1
330
1F
100
AcDbEntity
  8
8
  6
Continuous
 62
   171
370
    18
100
AcDbLine
 10
740.0
 20
754.0
 30
0.0
 11
740.0
 21
767.9999999999995
 31
0.0
  0
LINE
  5
B2
330
1F
100
AcDbEntity
  8
8
  6
Continuous
 62
   171
370
    18
100
AcDbLine
 10
712.0
 20
754.0
 30
0.0
 11
712.0
 21
767.9999999999995
 31
0.0
  0
LINE
  5
B3
330
1F
100
AcDbEntity
  8
8
  6
Continuous
 62
   171
370
    18
100
AcDbLine
 10
1140.0
 20
754.0
 30
0.0
 11
712.0
 21
754.0
 31
0.0
  0
TEXT
  5
B4
330
1F
100
AcDbEntity
  8
8
  6
Continuous
 62
   171
370
     9
100
AcDbText
 10
716.0
 20
755.9999999999999
 30
0.0
 40
10.0
  1
記号
 41
0.8333333333333334
100
AcDbText
  0
TEXT
  5
B5
330
1F
100
AcDbEntity
  8
8
  6
Continuous
 62
   171
370
     9
100
AcDbText
 10
797.5
 20
756.0
 30
0.0
 40
10.0
  1
訂　 正　 記　 事
 41
0.8333333333333334
100
AcDbText
  0
TEXT
  5
B6
330
1F
100
AcDbEntity
  8
8
  6
Continuous
 62
   171
370
     9
100
AcDbText
 10
945.0
 20
756.0
 30
0.0
 40
10.0
  1
訂 正 年 月 日
 41
0.8333333333333334
100
AcDbText
  0
TEXT
  5
B7
330
1F
100
AcDbEntity
  8
8
  6
Continuous
 62
   171
370
     9
100
AcDbText
 10
1045.0
 20
756.0
 30
0.0
 40
10.0
  1
備　　　　　考
 41
0.8333333333333333
100
AcDbText
  0
TEXT
  5
B8
330
1F
100
AcDbEntity
  8
8
  6
Continuous
 62
   171
370
     9
100
AcDbText
 10
772.4000000000001
 20
128.0
 30
0.0
 40
16.0
  1
木製高級インテリアバー
 41
0.6250000000000001
100
AcDbText
  0
TEXT
  5
B9
330
1F
100
AcDbEntity
  8
8
  6
Continuous
 62
   171
370
     9
100
AcDbText
 10
772.4000000000001
 20
112.0
 30
0.0
 40
16.0
  1
天然木高級ディンプルタイプ
 41
0.6250000000000001
100
AcDbText
  0
TEXT
  5
BA
330
1F
100
AcDbEntity
  8
8
  6
Continuous
 62
   171
370
     9
100
AcDbText
 10
772.3999999999999
 20
56.0
 30
0.0
 40
16.0
  1
色については品番表参照のこと
 41
0.5000000000000004
100
AcDbText
  0
TEXT
  5
BB
330
1F
100
AcDbEntity
  8
8
  6
Continuous
 62
   171
370
     9
100
AcDbText
 10
1004.0
 20
118.0
 30
0.0
 40
20.0
  1
株式会社シマブン
 41
0.6666666666666679
100
AcDbText
  0
TEXT
  5
BC
330
1F
100
AcDbEntity
  8
8
  6
Continuous
 62
   171
370
     9
100
AcDbText
 10
1004.0
 20
76.00000000000003
 30
0.0
 40
16.0
  1
大野
 41
0.8333333333333334
100
AcDbText
  0
TEXT
  5
BD
330
1F
100
AcDbEntity
  8
8
  6
Continuous
 62
   171
370
     9
100
AcDbText
 10
1052.0
 20
76.00000000000003
 30
0.0
 40
16.0
  1
深川
 41
0.8333333333333334
100
AcDbText
  0
TEXT
  5
BE
330
1F
100
AcDbEntity
  8
8
  6
Continuous
 62
   171
370
     9
100
AcDbText
 10
1048.0
 20
53.99999999999998
 30
0.0
 40
12.0
  1
２０１２年１２月０７日
 41
0.5555555555555557
100
AcDbText
  0
TEXT
  5
BF
330
1F
100
AcDbEntity
  8
8
  6
Continuous
 62
   171
370
     9
100
AcDbText
 10
772.4000000000001
 20
88.00000000000003
 30
0.0
 40
16.0
  1
ＴＩＷＤ－３２Ｓ６００
 41
0.6250000000000001
100
AcDbText
  0
DIMENSION
  5
C9
330
1F
100
AcDbEntity
  8
6
  6
Continuous
 62
     7
370
     9
100
AcDbDimension
  2
Dim1
 10
590.6773262790578
 20
687.3524431810034
 30
0.0
 11
583.6773262790578
 21
671.3524431810047
 31
0.0
 70
   160
  1
<>
 71
     5
 42
-1.0
  3
Standard
100
AcDbAlignedDimension
 13
590.6773262790578
 23
687.3524431810034
 33
0.0
 14
590.6773262790578
 24
655.3524431810058
 34
0.0
 50
89.99999999999991
100
AcDbRotatedDimension
1001
ACAD
1000
DSTYLE
1002
{
1070
   344
1005
3C
1070
   343
1005
3C
1070
   173
1070
     1
1070
   289
1070
     2
1070
   279
1070
     2
1070
   288
1070
     1
1070
    77
1070
     3
1070
   172
1070
     1
1070
   174
1070
     0
1070
    74
1070
     0
1070
    73
1070
     0
1070
   284
1070
     8
1070
    78
1070
     8
1070
   140
1040
3.0
1070
    40
1040
4.0
1070
    42
1040
2.0
1070
    44
1040
1.0
1070
    43
1040
10.0
1070
   271
1070
     2
1070
    41
1040
2.0
1002
}
  0
DIMENSION
  5
D3
330
1F
100
AcDbEntity
  8
6
  6
Continuous
 62
     7
370
     9
100
AcDbDimension
  2
Dim2
 10
545.6773262790578
 20
656.8524431810033
 30
0.0
 11
538.6773262790578
 21
671.3524431810033
 31
0.0
 70
   160
  1
<>
 71
     5
 42
-1.0
  3
Standard
100
AcDbAlignedDimension
 13
545.6773262790578
 23
656.8524431810033
 33
0.0
 14
545.6773262790578
 24
685.8524431810034
 34
0.0
 50
89.99999999999991
100
AcDbRotatedDimension
1001
ACAD
1000
DSTYLE
1002
{
1070
   344
1005
3C
1070
   343
1005
3C
1070
   173
1070
     1
1070
   289
1070
     2
1070
   279
1070
     2
1070
   288
1070
     1
1070
    77
1070
     3
1070
   172
1070
     1
1070
   174
1070
     0
1070
    74
1070
     0
1070
    73
1070
     0
1070
   284
1070
     8
1070
    78
1070
     8
1070
   140
1040
3.0
1070
    40
1040
4.0
1070
    42
1040
2.0
1070
    44
1040
1.0
1070
    43
1040
10.0
1070
   271
1070
     2
1070
    41
1040
2.0
1002
}
  0
DIMENSION
  5
DB
330
1F
100
AcDbEntity
  8
6
  6
Continuous
 62
     7
370
     9
100
AcDbDimension
  2
Dim3
 10
635.6773262790578
 20
487.3586091395517
 30
0.0
 11
628.677326279058
 21
636.1633508403454
 31
0.0
 70
   164
  1
<>
 71
     5
 42
-1.0
  3
Standard
100
AcDbRadialDimension
 15
635.6773262790581
 25
656.852497748989
 35
0.0
 40
0.0
1001
ACAD
1000
DSTYLE
1002
{
1070
   344
1005
3C
1070
   343
1005
65
1070
   173
1070
     1
1070
   289
1070
     2
1070
   279
1070
     2
1070
   288
1070
     1
1070
    77
1070
     3
1070
   172
1070
     1
1070
   174
1070
     0
1070
    74
1070
     0
1070
    73
1070
     0
1070
   284
1070
     8
1070
    78
1070
     8
1070
   140
1040
3.0
1070
    40
1040
4.0
1070
    42
1040
0.0
1070
    44
1040
0.0
1070
    43
1040
10.0
1070
   271
1070
     2
1070
    41
1040
2.0
1002
}
  0
DIMENSION
  5
E3
330
1F
100
AcDbEntity
  8
6
  6
Continuous
 62
     7
370
     9
100
AcDbDimension
  2
Dim4
 10
661.2948096995312
 20
705.3524431810076
 30
0.0
 11
652.0313407368085
 21
669.3386887195759
 31
0.0
 70
   164
  1
<>
 71
     5
 42
-1.0
  3
Standard
100
AcDbRadialDimension
 15
658.1773262790566
 25
655.4497248470024
 35
0.0
 40
0.0
1001
ACAD
1000
DSTYLE
1002
{
1070
   344
1005
3C
1070
   343
1005
65
1070
   173
1070
     1
1070
   289
1070
     2
1070
   279
1070
     2
1070
   288
1070
     1
1070
    77
1070
     3
1070
   172
1070
     1
1070
   174
1070
     0
1070
    74
1070
     0
1070
    73
1070
     0
1070
   284
1070
     8
1070
    78
1070
     8
1070
   140
1040
3.0
1070
    40
1040
4.0
1070
    42
1040
0.0
1070
    44
1040
0.0
1070
    43
1040
10.0
1070
   271
1070
     2
1070
    41
1040
2.0
1002
}
  0
DIMENSION
  5
EB
330
1F
100
AcDbEntity
  8
6
  6
Continuous
 62
     7
370
     9
100
AcDbDimension
  2
Dim5
 10
610.059842858584
 20
705.3524431810076
 30
0.0
 11
619.323311821307
 21
669.3386887195759
 31
0.0
 70
   164
  1
<>
 71
     5
 42
-1.0
  3
Standard
100
AcDbRadialDimension
 15
613.1773262790587
 25
655.4497248470024
 35
0.0
 40
0.0
1001
ACAD
1000
DSTYLE
1002
{
1070
   344
1005
3C
1070
   343
1005
65
1070
   173
1070
     1
1070
   289
1070
     2
1070
   279
1070
     2
1070
   288
1070
     1
1070
    77
1070
     3
1070
   172
1070
     1
1070
   174
1070
     0
1070
    74
1070
     0
1070
    73
1070
     0
1070
   284
1070
     8
1070
    78
1070
     8
1070
   140
1040
3.0
1070
    40
1040
4.0
1070
    42
1040
0.0
1070
    44
1040
0.0
1070
    43
1040
10.0
1070
   271
1070
     2
1070
    41
1040
2.0
1002
}
  0
LINE
  5
EC
330
1F
100
AcDbEntity
  8
2
  6
Continuous
 62
    90
370
    18
100
AcDbLine
 10
481.2948100056747
 20
236.5219531730592
 30
0.0
 11
520.0598431647356
 21
236.5219531730589
 31
0.0
  0
ARC
  5
ED
330
1F
100
AcDbEntity
  8
2
  6
Continuous
 62
    90
370
    18
100
AcDbCircle
 10
481.2948100056752
 20
286.5219531730598
 30
0.0
 40
50.0
100
AcDbArc
 50
263.2976424942881
 51
269.9999999999993
  0
ARC
  5
EE
330
1F
100
AcDbEntity
  8
2
  6
Continuous
 62
    90
370
    18
100
AcDbCircle
 10
430.0598431647355
 20
286.5219531730589
 30
0.0
 40
50.0
100
AcDbArc
 50
269.9999999999998
 51
276.7023575057157
  0
ARC
  5
EF
330
1F
100
AcDbEntity
  8
2
  6
Continuous
 62
    90
370
    18
100
AcDbCircle
 10
455.6773265852091
 20
68.52811913160298
 30
0.0
 40
169.4938886094373
100
AcDbArc
 50
83.29764249428688
 51
96.70235750571437
  0
ARC
  5
F0
330
1F
100
AcDbEntity
  8
2
  6
Continuous
 62
    90
370
    18
100
AcDbCircle
 10
571.2948100056753
 20
286.5219531730598
 30
0.0
 40
50.0
100
AcDbArc
 50
263.297642494288
 51
269.9999999999991
  0
ARC
  5
F1
330
1F
100
AcDbEntity
  8
2
  6
Continuous
 62
    90
370
    18
100
AcDbCircle
 10
520.0598431647356
 20
286.5219531730589
 30
0.0
 40
50.0
100
AcDbArc
 50
269.9999999999998
 51
276.7023575057156
  0
ARC
  5
F2
330
1F
100
AcDbEntity
  8
2
  6
Continuous
 62
    90
370
    18
100
AcDbCircle
 10
545.6773265852091
 20
68.52811913160298
 30
0.0
 40
169.4938886094373
100
AcDbArc
 50
83.29764249428688
 51
96.70235750571437
  0
LINE
  5
F3
330
1F
100
AcDbEntity
  8
2
  6
Continuous
 62
    90
370
    18
100
AcDbLine
 10
610.059842858592
 20
236.5219531730592
 30
0.0
 11
571.294809699531
 21
236.5219531730589
 31
0.0
  0
LINE
  5
F4
330
1F
100
AcDbEntity
  8
2
  6
Continuous
 62
    90
370
    18
100
AcDbLine
 10
790.0598428585918
 20
236.5219531730592
 30
0.0
 11
751.294809699531
 21
236.5219531730589
 31
0.0
  0
ARC
  5
F5
330
1F
100
AcDbEntity
  8
2
  6
Continuous
 62
    90
370
    18
100
AcDbCircle
 10
790.0598428585913
 20
286.5219531730598
 30
0.0
 40
50.0
100
AcDbArc
 50
270.0000000000002
 51
276.7023575057113
  0
ARC
  5
F6
330
1F
100
AcDbEntity
  8
2
  6
Continuous
 62
    90
370
    18
100
AcDbCircle
 10
841.294809699531
 20
286.5219531730589
 30
0.0
 40
50.0
100
AcDbArc
 50
263.2976424942838
 51
269.9999999999998
  0
ARC
  5
F7
330
1F
100
AcDbEntity
  8
2
  6
Continuous
 62
    90
370
    18
100
AcDbCircle
 10
815.6773262790575
 20
68.52811913160298
 30
0.0
 40
169.4938886094373
100
AcDbArc
 50
83.29764249428564
 51
96.70235750571314
  0
LINE
  5
F8
330
1F
100
AcDbEntity
  8
2
  6
Continuous
 62
    90
370
    18
100
AcDbLine
 10
700.0598428585922
 20
236.5219531730592
 30
0.0
 11
661.2948096995312
 21
236.5219531730589
 31
0.0
  0
ARC
  5
F9
330
1F
100
AcDbEntity
  8
2
  6
Continuous
 62
    90
370
    18
100
AcDbCircle
 10
700.0598428585918
 20
286.5219531730598
 30
0.0
 40
50.0
100
AcDbArc
 50
269.9999999999999
 51
276.7023575057111
  0
ARC
  5
FA
330
1F
100
AcDbEntity
  8
2
  6
Continuous
 62
    90
370
    18
100
AcDbCircle
 10
751.2948096995315
 20
286.5219531730589
 30
0.0
 40
50.0
100
AcDbArc
 50
263.2976424942835
 51
269.9999999999998
  0
ARC
  5
FB
330
1F
100
AcDbEntity
  8
2
  6
Continuous
 62
    90
370
    18
100
AcDbCircle
 10
725.6773262790578
 20
68.52811913160298
 30
0.0
 40
169.4938886094373
100
AcDbArc
 50
83.29764249428564
 51
96.70235750571314
  0
ARC
  5
FC
330
1F
100
AcDbEntity
  8
2
  6
Continuous
 62
    90
370
    18
100
AcDbCircle
 10
610.0598428585915
 20
286.5219531730598
 30
0.0
 40
50.0
100
AcDbArc
 50
270.0000000000002
 51
276.7023575057113
  0
ARC
  5
FD
330
1F
100
AcDbEntity
  8
2
  6
Continuous
 62
    90
370
    18
100
AcDbCircle
 10
661.2948096995312
 20
286.5219531730589
 30
0.0
 40
50.0
100
AcDbArc
 50
263.2976424942838
 51
269.9999999999998
  0
ARC
  5
FE
330
1F
100
AcDbEntity
  8
2
  6
Continuous
 62
    90
370
    18
100
AcDbCircle
 10
635.6773262790578
 20
68.52811913160298
 30
0.0
 40
169.4938886094373
100
AcDbArc
 50
83.29764249428564
 51
96.70235750571314
  0
LINE
  5
FF
330
1F
100
AcDbEntity
  8
2
  6
Continuous
 62
    90
370
    18
100
AcDbLine
 10
481.2948100056747
 20
268.5219531730501
 30
0.0
 11
520.0598431647356
 21
268.5219531730505
 31
0.0
  0
ARC
  5
100
330
1F
100
AcDbEntity
  8
2
  6
Continuous
 62
    90
370
    18
100
AcDbCircle
 10
481.2948100056752
 20
218.5219531730496
 30
0.0
 40
50.0
100
AcDbArc
 50
90.0000000000004
 51
96.70235750571156
  0
ARC
  5
101
330
1F
100
AcDbEntity
  8
2
  6
Continuous
 62
    90
370
    18
100
AcDbCircle
 10
430.0598431647355
 20
218.5219531730505
 30
0.0
 40
50.0
100
AcDbArc
 50
83.29764249428399
 51
89.99999999999991
  0
ARC
  5
102
330
1F
100
AcDbEntity
  8
2
  6
Continuous
 62
    90
370
    18
100
AcDbCircle
 10
455.6773265852091
 20
436.5157872145064
 30
0.0
 40
169.4938886094373
100
AcDbArc
 50
263.2976424942852
 51
276.7023575057128
  0
ARC
  5
103
330
1F
100
AcDbEntity
  8
2
  6
Continuous
 62
    90
370
    18
100
AcDbCircle
 10
571.2948100056753
 20
218.5219531730496
 30
0.0
 40
50.0
100
AcDbArc
 50
90.00000000000053
 51
96.70235750571167
  0
ARC
  5
104
330
1F
100
AcDbEntity
  8
2
  6
Continuous
 62
    90
370
    18
100
AcDbCircle
 10
520.0598431647356
 20
218.5219531730505
 30
0.0
 40
50.0
100
AcDbArc
 50
83.2976424942841
 51
89.99999999999991
  0
ARC
  5
105
330
1F
100
AcDbEntity
  8
2
  6
Continuous
 62
    90
370
    18
100
AcDbCircle
 10
545.6773265852091
 20
436.5157872145064
 30
0.0
 40
169.4938886094373
100
AcDbArc
 50
263.2976424942852
 51
276.7023575057128
  0
LINE
  5
106
330
1F
100
AcDbEntity
  8
2
  6
Continuous
 62
    90
370
    18
100
AcDbLine
 10
610.059842858592
 20
268.5219531730501
 30
0.0
 11
571.294809699531
 21
268.5219531730505
 31
0.0
  0
LINE
  5
107
330
1F
100
AcDbEntity
  8
2
  6
Continuous
 62
    90
370
    18
100
AcDbLine
 10
790.0598428585918
 20
268.5219531730501
 30
0.0
 11
751.294809699531
 21
268.5219531730505
 31
0.0
  0
ARC
  5
108
330
1F
100
AcDbEntity
  8
2
  6
Continuous
 62
    90
370
    18
100
AcDbCircle
 10
790.0598428585913
 20
218.5219531730496
 30
0.0
 40
50.0
100
AcDbArc
 50
83.29764249428834
 51
89.99999999999947
  0
ARC
  5
109
330
1F
100
AcDbEntity
  8
2
  6
Continuous
 62
    90
370
    18
100
AcDbCircle
 10
841.294809699531
 20
218.5219531730505
 30
0.0
 40
50.0
100
AcDbArc
 50
89.99999999999991
 51
96.7023575057159
  0
ARC
  5
10A
330
1F
100
AcDbEntity
  8
2
  6
Continuous
 62
    90
370
    18
100
AcDbCircle
 10
815.6773262790575
 20
436.5157872145064
 30
0.0
 40
169.4938886094373
100
AcDbArc
 50
263.2976424942865
 51
276.702357505714
  0
LINE
  5
10B
330
1F
100
AcDbEntity
  8
2
  6
Continuous
 62
    90
370
    18
100
AcDbLine
 10
700.0598428585922
 20
268.5219531730501
 30
0.0
 11
661.2948096995312
 21
268.5219531730505
 31
0.0
  0
ARC
  5
10C
330
1F
100
AcDbEntity
  8
2
  6
Continuous
 62
    90
370
    18
100
AcDbCircle
 10
700.0598428585918
 20
218.5219531730496
 30
0.0
 40
50.0
100
AcDbArc
 50
83.2976424942886
 51
89.99999999999974
  0
ARC
  5
10D
330
1F
100
AcDbEntity
  8
2
  6
Continuous
 62
    90
370
    18
100
AcDbCircle
 10
751.2948096995315
 20
218.5219531730505
 30
0.0
 40
50.0
100
AcDbArc
 50
89.99999999999991
 51
96.70235750571615
  0
ARC
  5
10E
330
1F
100
AcDbEntity
  8
2
  6
Continuous
 62
    90
370
    18
100
AcDbCircle
 10
725.6773262790578
 20
436.5157872145064
 30
0.0
 40
169.4938886094373
100
AcDbArc
 50
263.2976424942865
 51
276.702357505714
  0
ARC
  5
10F
330
1F
100
AcDbEntity
  8
2
  6
Continuous
 62
    90
370
    18
100
AcDbCircle
 10
610.0598428585915
 20
218.5219531730496
 30
0.0
 40
50.0
100
AcDbArc
 50
83.29764249428834
 51
89.99999999999947
  0
ARC
  5
110
330
1F
100
AcDbEntity
  8
2
  6
Continuous
 62
    90
370
    18
100
AcDbCircle
 10
661.2948096995312
 20
218.5219531730505
 30
0.0
 40
50.0
100
AcDbArc
 50
89.99999999999991
 51
96.7023575057159
  0
ARC
  5
111
330
1F
100
AcDbEntity
  8
2
  6
Continuous
 62
    90
370
    18
100
AcDbCircle
 10
635.6773262790578
 20
436.5157872145064
 30
0.0
 40
169.4938886094373
100
AcDbArc
 50
263.2976424942865
 51
276.702357505714
  0
LINE
  5
112
330
1F
100
AcDbEntity
  8
2
  6
Continuous
 62
    90
370
    18
100
AcDbLine
 10
481.2948100056747
 20
487.4469894728453
 30
0.0
 11
520.0598431647356
 21
487.446989472845
 31
0.0
  0
ARC
  5
113
330
1F
100
AcDbEntity
  8
2
  6
Continuous
 62
    90
370
    18
100
AcDbCircle
 10
481.2948100056752
 20
537.4469894728459
 30
0.0
 40
50.0
100
AcDbArc
 50
263.2976424942881
 51
269.9999999999993
  0
ARC
  5
114
330
1F
100
AcDbEntity
  8
2
  6
Continuous
 62
    90
370
    18
100
AcDbCircle
 10
430.0598431647355
 20
537.446989472845
 30
0.0
 40
50.0
100
AcDbArc
 50
269.9999999999998
 51
276.7023575057157
  0
ARC
  5
115
330
1F
100
AcDbEntity
  8
2
  6
Continuous
 62
    90
370
    18
100
AcDbCircle
 10
455.6773265852091
 20
319.4531554313891
 30
0.0
 40
169.4938886094373
100
AcDbArc
 50
83.29764249428688
 51
96.70235750571437
  0
ARC
  5
116
330
1F
100
AcDbEntity
  8
2
  6
Continuous
 62
    90
370
    18
100
AcDbCircle
 10
571.2948100056753
 20
537.4469894728459
 30
0.0
 40
50.0
100
AcDbArc
 50
263.297642494288
 51
269.9999999999991
  0
ARC
  5
117
330
1F
100
AcDbEntity
  8
2
  6
Continuous
 62
    90
370
    18
100
AcDbCircle
 10
520.0598431647356
 20
537.446989472845
 30
0.0
 40
50.0
100
AcDbArc
 50
269.9999999999998
 51
276.7023575057156
  0
ARC
  5
118
330
1F
100
AcDbEntity
  8
2
  6
Continuous
 62
    90
370
    18
100
AcDbCircle
 10
545.6773265852091
 20
319.4531554313891
 30
0.0
 40
169.4938886094373
100
AcDbArc
 50
83.29764249428688
 51
96.70235750571437
  0
LINE
  5
119
330
1F
100
AcDbEntity
  8
2
  6
Continuous
 62
    90
370
    18
100
AcDbLine
 10
610.059842858592
 20
487.4469894728453
 30
0.0
 11
571.294809699531
 21
487.446989472845
 31
0.0
  0
LINE
  5
11A
330
1F
100
AcDbEntity
  8
2
  6
Continuous
 62
    90
370
    18
100
AcDbLine
 10
790.0598428585918
 20
487.4469894728453
 30
0.0
 11
751.294809699531
 21
487.446989472845
 31
0.0
  0
ARC
  5
11B
330
1F
100
AcDbEntity
  8
2
  6
Continuous
 62
    90
370
    18
100
AcDbCircle
 10
790.0598428585913
 20
537.4469894728459
 30
0.0
 40
50.0
100
AcDbArc
 50
270.0000000000002
 51
276.7023575057113
  0
ARC
  5
11C
330
1F
100
AcDbEntity
  8
2
  6
Continuous
 62
    90
370
    18
100
AcDbCircle
 10
841.294809699531
 20
537.446989472845
 30
0.0
 40
50.0
100
AcDbArc
 50
263.2976424942838
 51
269.9999999999998
  0
ARC
  5
11D
330
1F
100
AcDbEntity
  8
2
  6
Continuous
 62
    90
370
    18
100
AcDbCircle
 10
815.6773262790575
 20
319.4531554313891
 30
0.0
 40
169.4938886094373
100
AcDbArc
 50
83.29764249428564
 51
96.70235750571314
  0
LINE
  5
11E
330
1F
100
AcDbEntity
  8
2
  6
Continuous
 62
    90
370
    18
100
AcDbLine
 10
700.0598428585922
 20
487.4469894728453
 30
0.0
 11
661.2948096995312
 21
487.446989472845
 31
0.0
  0
ARC
  5
11F
330
1F
100
AcDbEntity
  8
2
  6
Continuous
 62
    90
370
    18
100
AcDbCircle
 10
700.0598428585918
 20
537.4469894728459
 30
0.0
 40
50.0
100
AcDbArc
 50
269.9999999999999
 51
276.7023575057111
  0
ARC
  5
120
330
1F
100
AcDbEntity
  8
2
  6
Continuous
 62
    90
370
    18
100
AcDbCircle
 10
751.2948096995315
 20
537.446989472845
 30
0.0
 40
50.0
100
AcDbArc
 50
263.2976424942835
 51
269.9999999999998
  0
ARC
  5
121
330
1F
100
AcDbEntity
  8
2
  6
Continuous
 62
    90
370
    18
100
AcDbCircle
 10
725.6773262790578
 20
319.4531554313891
 30
0.0
 40
169.4938886094373
100
AcDbArc
 50
83.29764249428564
 51
96.70235750571314
  0
ARC
  5
122
330
1F
100
AcDbEntity
  8
2
  6
Continuous
 62
    90
370
    18
100
AcDbCircle
 10
610.0598428585915
 20
537.4469894728459
 30
0.0
 40
50.0
100
AcDbArc
 50
270.0000000000002
 51
276.7023575057113
  0
ARC
  5
123
330
1F
100
AcDbEntity
  8
2
  6
Continuous
 62
    90
370
    18
100
AcDbCircle
 10
661.2948096995312
 20
537.446989472845
 30
0.0
 40
50.0
100
AcDbArc
 50
263.2976424942838
 51
269.9999999999998
  0
ARC
  5
124
330
1F
100
AcDbEntity
  8
2
  6
Continuous
 62
    90
370
    18
100
AcDbCircle
 10
635.6773262790578
 20
319.4531554313891
 30
0.0
 40
169.4938886094373
100
AcDbArc
 50
83.29764249428564
 51
96.70235750571314
  0
LINE
  5
125
330
1F
100
AcDbEntity
  8
2
  6
Continuous
 62
    90
370
    18
100
AcDbLine
 10
481.2948100056747
 20
519.4469894728362
 30
0.0
 11
520.0598431647356
 21
519.4469894728365
 31
0.0
  0
ARC
  5
126
330
1F
100
AcDbEntity
  8
2
  6
Continuous
 62
    90
370
    18
100
AcDbCircle
 10
481.2948100056752
 20
469.4469894728356
 30
0.0
 40
50.0
100
AcDbArc
 50
90.0000000000004
 51
96.70235750571156
  0
ARC
  5
127
330
1F
100
AcDbEntity
  8
2
  6
Continuous
 62
    90
370
    18
100
AcDbCircle
 10
430.0598431647355
 20
469.4469894728365
 30
0.0
 40
50.0
100
AcDbArc
 50
83.29764249428399
 51
89.99999999999991
  0
ARC
  5
128
330
1F
100
AcDbEntity
  8
2
  6
Continuous
 62
    90
370
    18
100
AcDbCircle
 10
455.6773265852091
 20
687.4408235142924
 30
0.0
 40
169.4938886094373
100
AcDbArc
 50
263.2976424942852
 51
276.7023575057128
  0
ARC
  5
129
330
1F
100
AcDbEntity
  8
2
  6
Continuous
 62
    90
370
    18
100
AcDbCircle
 10
571.2948100056753
 20
469.4469894728356
 30
0.0
 40
50.0
100
AcDbArc
 50
90.00000000000053
 51
96.70235750571167
  0
ARC
  5
12A
330
1F
100
AcDbEntity
  8
2
  6
Continuous
 62
    90
370
    18
100
AcDbCircle
 10
520.0598431647356
 20
469.4469894728365
 30
0.0
 40
50.0
100
AcDbArc
 50
83.2976424942841
 51
89.99999999999991
  0
ARC
  5
12B
330
1F
100
AcDbEntity
  8
2
  6
Continuous
 62
    90
370
    18
100
AcDbCircle
 10
545.6773265852091
 20
687.4408235142924
 30
0.0
 40
169.4938886094373
100
AcDbArc
 50
263.2976424942852
 51
276.7023575057128
  0
LINE
  5
12C
330
1F
100
AcDbEntity
  8
2
  6
Continuous
 62
    90
370
    18
100
AcDbLine
 10
610.059842858592
 20
519.4469894728362
 30
0.0
 11
571.294809699531
 21
519.4469894728365
 31
0.0
  0
LINE
  5
12D
330
1F
100
AcDbEntity
  8
2
  6
Continuous
 62
    90
370
    18
100
AcDbLine
 10
790.0598428585918
 20
519.4469894728362
 30
0.0
 11
751.294809699531
 21
519.4469894728365
 31
0.0
  0
ARC
  5
12E
330
1F
100
AcDbEntity
  8
2
  6
Continuous
 62
    90
370
    18
100
AcDbCircle
 10
790.0598428585913
 20
469.4469894728356
 30
0.0
 40
50.0
100
AcDbArc
 50
83.29764249428834
 51
89.99999999999947
  0
ARC
  5
12F
330
1F
100
AcDbEntity
  8
2
  6
Continuous
 62
    90
370
    18
100
AcDbCircle
 10
841.294809699531
 20
469.4469894728365
 30
0.0
 40
50.0
100
AcDbArc
 50
89.99999999999991
 51
96.7023575057159
  0
ARC
  5
130
330
1F
100
AcDbEntity
  8
2
  6
Continuous
 62
    90
370
    18
100
AcDbCircle
 10
815.6773262790575
 20
687.4408235142924
 30
0.0
 40
169.4938886094373
100
AcDbArc
 50
263.2976424942865
 51
276.702357505714
  0
LINE
  5
131
330
1F
100
AcDbEntity
  8
2
  6
Continuous
 62
    90
370
    18
100
AcDbLine
 10
700.0598428585922
 20
519.4469894728362
 30
0.0
 11
661.2948096995312
 21
519.4469894728365
 31
0.0
  0
ARC
  5
132
330
1F
100
AcDbEntity
  8
2
  6
Continuous
 62
    90
370
    18
100
AcDbCircle
 10
700.0598428585918
 20
469.4469894728356
 30
0.0
 40
50.0
100
AcDbArc
 50
83.2976424942886
 51
89.99999999999974
  0
ARC
  5
133
330
1F
100
AcDbEntity
  8
2
  6
Continuous
 62
    90
370
    18
100
AcDbCircle
 10
751.2948096995315
 20
469.4469894728365
 30
0.0
 40
50.0
100
AcDbArc
 50
89.99999999999991
 51
96.70235750571615
  0
ARC
  5
134
330
1F
100
AcDbEntity
  8
2
  6
Continuous
 62
    90
370
    18
100
AcDbCircle
 10
725.6773262790578
 20
687.4408235142924
 30
0.0
 40
169.4938886094373
100
AcDbArc
 50
263.2976424942865
 51
276.702357505714
  0
ARC
  5
135
330
1F
100
AcDbEntity
  8
2
  6
Continuous
 62
    90
370
    18
100
AcDbCircle
 10
610.0598428585915
 20
469.4469894728356
 30
0.0
 40
50.0
100
AcDbArc
 50
83.29764249428834
 51
89.99999999999947
  0
ARC
  5
136
330
1F
100
AcDbEntity
  8
2
  6
Continuous
 62
    90
370
    18
100
AcDbCircle
 10
661.2948096995312
 20
469.4469894728365
 30
0.0
 40
50.0
100
AcDbArc
 50
89.99999999999991
 51
96.7023575057159
  0
ARC
  5
137
330
1F
100
AcDbEntity
  8
2
  6
Continuous
 62
    90
370
    18
100
AcDbCircle
 10
635.6773262790578
 20
687.4408235142924
 30
0.0
 40
169.4938886094373
100
AcDbArc
 50
263.2976424942865
 51
276.702357505714
  0
LINE
  5
138
330
1F
100
AcDbEntity
  8
2
  6
Continuous
 62
    90
370
    18
100
AcDbLine
 10
481.2948100056747
 20
655.352443181008
 30
0.0
 11
520.0598431647356
 21
655.3524431810076
 31
0.0
  0
ARC
  5
139
330
1F
100
AcDbEntity
  8
2
  6
Continuous
 62
    90
370
    18
100
AcDbCircle
 10
481.2948100056752
 20
705.3524431810085
 30
0.0
 40
50.0
100
AcDbArc
 50
263.2976424942881
 51
269.9999999999993
  0
ARC
  5
13A
330
1F
100
AcDbEntity
  8
2
  6
Continuous
 62
    90
370
    18
100
AcDbCircle
 10
430.0598431647355
 20
705.3524431810076
 30
0.0
 40
50.0
100
AcDbArc
 50
269.9999999999998
 51
276.7023575057157
  0
ARC
  5
13B
330
1F
100
AcDbEntity
  8
2
  6
Continuous
 62
    90
370
    18
100
AcDbCircle
 10
455.6773265852091
 20
487.3586091395517
 30
0.0
 40
169.4938886094373
100
AcDbArc
 50
83.29764249428688
 51
96.70235750571437
  0
ARC
  5
13C
330
1F
100
AcDbEntity
  8
2
  6
Continuous
 62
    90
370
    18
100
AcDbCircle
 10
571.2948100056753
 20
705.3524431810085
 30
0.0
 40
50.0
100
AcDbArc
 50
263.297642494288
 51
269.9999999999991
  0
ARC
  5
13D
330
1F
100
AcDbEntity
  8
2
  6
Continuous
 62
    90
370
    18
100
AcDbCircle
 10
520.0598431647356
 20
705.3524431810076
 30
0.0
 40
50.0
100
AcDbArc
 50
269.9999999999998
 51
276.7023575057156
  0
ARC
  5
13E
330
1F
100
AcDbEntity
  8
2
  6
Continuous
 62
    90
370
    18
100
AcDbCircle
 10
545.6773265852091
 20
487.3586091395517
 30
0.0
 40
169.4938886094373
100
AcDbArc
 50
83.29764249428688
 51
96.70235750571437
  0
LINE
  5
13F
330
1F
100
AcDbEntity
  8
2
  6
Continuous
 62
    90
370
    18
100
AcDbLine
 10
610.059842858592
 20
655.352443181008
 30
0.0
 11
571.294809699531
 21
655.3524431810076
 31
0.0
  0
LINE
  5
140
330
1F
100
AcDbEntity
  8
2
  6
Continuous
 62
    90
370
    18
100
AcDbLine
 10
790.0598428585918
 20
655.352443181008
 30
0.0
 11
751.294809699531
 21
655.3524431810076
 31
0.0
  0
ARC
  5
141
330
1F
100
AcDbEntity
  8
2
  6
Continuous
 62
    90
370
    18
100
AcDbCircle
 10
790.0598428585913
 20
705.3524431810085
 30
0.0
 40
50.0
100
AcDbArc
 50
270.0000000000002
 51
276.7023575057113
  0
ARC
  5
142
330
1F
100
AcDbEntity
  8
2
  6
Continuous
 62
    90
370
    18
100
AcDbCircle
 10
841.294809699531
 20
705.3524431810076
 30
0.0
 40
50.0
100
AcDbArc
 50
263.2976424942838
 51
269.9999999999998
  0
ARC
  5
143
330
1F
100
AcDbEntity
  8
2
  6
Continuous
 62
    90
370
    18
100
AcDbCircle
 10
815.6773262790575
 20
487.3586091395517
 30
0.0
 40
169.4938886094373
100
AcDbArc
 50
83.29764249428564
 51
96.70235750571314
  0
LINE
  5
144
330
1F
100
AcDbEntity
  8
2
  6
Continuous
 62
    90
370
    18
100
AcDbLine
 10
700.0598428585922
 20
655.352443181008
 30
0.0
 11
661.2948096995312
 21
655.3524431810076
 31
0.0
  0
ARC
  5
145
330
1F
100
AcDbEntity
  8
2
  6
Continuous
 62
    90
370
    18
100
AcDbCircle
 10
700.0598428585918
 20
705.3524431810085
 30
0.0
 40
50.0
100
AcDbArc
 50
269.9999999999999
 51
276.7023575057111
  0
ARC
  5
146
330
1F
100
AcDbEntity
  8
2
  6
Continuous
 62
    90
370
    18
100
AcDbCircle
 10
751.2948096995315
 20
705.3524431810076
 30
0.0
 40
50.0
100
AcDbArc
 50
263.2976424942835
 51
269.9999999999998
  0
ARC
  5
147
330
1F
100
AcDbEntity
  8
2
  6
Continuous
 62
    90
370
    18
100
AcDbCircle
 10
725.6773262790578
 20
487.3586091395517
 30
0.0
 40
169.4938886094373
100
AcDbArc
 50
83.29764249428564
 51
96.70235750571314
  0
ARC
  5
148
330
1F
100
AcDbEntity
  8
2
  6
Continuous
 62
    90
370
    18
100
AcDbCircle
 10
610.0598428585915
 20
705.3524431810085
 30
0.0
 40
50.0
100
AcDbArc
 50
270.0000000000002
 51
276.7023575057113
  0
ARC
  5
149
330
1F
100
AcDbEntity
  8
2
  6
Continuous
 62
    90
370
    18
100
AcDbCircle
 10
661.2948096995312
 20
705.3524431810076
 30
0.0
 40
50.0
100
AcDbArc
 50
263.2976424942838
 51
269.9999999999998
  0
ARC
  5
14A
330
1F
100
AcDbEntity
  8
2
  6
Continuous
 62
    90
370
    18
100
AcDbCircle
 10
635.6773262790578
 20
487.3586091395517
 30
0.0
 40
169.4938886094373
100
AcDbArc
 50
83.29764249428564
 51
96.70235750571314
  0
LINE
  5
14B
330
1F
100
AcDbEntity
  8
2
  6
Continuous
 62
    90
370
    18
100
AcDbLine
 10
481.2948100056747
 20
687.3524431809989
 30
0.0
 11
520.0598431647356
 21
687.3524431809992
 31
0.0
  0
ARC
  5
14C
330
1F
100
AcDbEntity
  8
2
  6
Continuous
 62
    90
370
    18
100
AcDbCircle
 10
481.2948100056752
 20
637.3524431809983
 30
0.0
 40
50.0
100
AcDbArc
 50
90.0000000000004
 51
96.70235750571156
  0
ARC
  5
14D
330
1F
100
AcDbEntity
  8
2
  6
Continuous
 62
    90
370
    18
100
AcDbCircle
 10
430.0598431647355
 20
637.3524431809992
 30
0.0
 40
50.0
100
AcDbArc
 50
83.29764249428399
 51
89.99999999999991
  0
ARC
  5
14E
330
1F
100
AcDbEntity
  8
2
  6
Continuous
 62
    90
370
    18
100
AcDbCircle
 10
455.6773265852091
 20
855.3462772224551
 30
0.0
 40
169.4938886094373
100
AcDbArc
 50
263.2976424942852
 51
276.7023575057128
  0
ARC
  5
14F
330
1F
100
AcDbEntity
  8
2
  6
Continuous
 62
    90
370
    18
100
AcDbCircle
 10
571.2948100056753
 20
637.3524431809983
 30
0.0
 40
50.0
100
AcDbArc
 50
90.00000000000053
 51
96.70235750571167
  0
ARC
  5
150
330
1F
100
AcDbEntity
  8
2
  6
Continuous
 62
    90
370
    18
100
AcDbCircle
 10
520.0598431647356
 20
637.3524431809992
 30
0.0
 40
50.0
100
AcDbArc
 50
83.2976424942841
 51
89.99999999999991
  0
ARC
  5
151
330
1F
100
AcDbEntity
  8
2
  6
Continuous
 62
    90
370
    18
100
AcDbCircle
 10
545.6773265852091
 20
855.3462772224551
 30
0.0
 40
169.4938886094373
100
AcDbArc
 50
263.2976424942852
 51
276.7023575057128
  0
LINE
  5
152
330
1F
100
AcDbEntity
  8
2
  6
Continuous
 62
    90
370
    18
100
AcDbLine
 10
610.059842858592
 20
687.3524431809989
 30
0.0
 11
571.294809699531
 21
687.3524431809992
 31
0.0
  0
LINE
  5
153
330
1F
100
AcDbEntity
  8
2
  6
Continuous
 62
    90
370
    18
100
AcDbLine
 10
790.0598428585918
 20
687.3524431809989
 30
0.0
 11
751.294809699531
 21
687.3524431809992
 31
0.0
  0
ARC
  5
154
330
1F
100
AcDbEntity
  8
2
  6
Continuous
 62
    90
370
    18
100
AcDbCircle
 10
790.0598428585913
 20
637.3524431809983
 30
0.0
 40
50.0
100
AcDbArc
 50
83.29764249428834
 51
89.99999999999947
  0
ARC
  5
155
330
1F
100
AcDbEntity
  8
2
  6
Continuous
 62
    90
370
    18
100
AcDbCircle
 10
841.294809699531
 20
637.3524431809992
 30
0.0
 40
50.0
100
AcDbArc
 50
89.99999999999991
 51
96.7023575057159
  0
ARC
  5
156
330
1F
100
AcDbEntity
  8
2
  6
Continuous
 62
    90
370
    18
100
AcDbCircle
 10
815.6773262790575
 20
855.3462772224551
 30
0.0
 40
169.4938886094373
100
AcDbArc
 50
263.2976424942865
 51
276.702357505714
  0
LINE
  5
157
330
1F
100
AcDbEntity
  8
2
  6
Continuous
 62
    90
370
    18
100
AcDbLine
 10
700.0598428585922
 20
687.3524431809989
 30
0.0
 11
661.2948096995312
 21
687.3524431809992
 31
0.0
  0
ARC
  5
158
330
1F
100
AcDbEntity
  8
2
  6
Continuous
 62
    90
370
    18
100
AcDbCircle
 10
700.0598428585918
 20
637.3524431809983
 30
0.0
 40
50.0
100
AcDbArc
 50
83.2976424942886
 51
89.99999999999974
  0
ARC
  5
159
330
1F
100
AcDbEntity
  8
2
  6
Continuous
 62
    90
370
    18
100
AcDbCircle
 10
751.2948096995315
 20
637.3524431809992
 30
0.0
 40
50.0
100
AcDbArc
 50
89.99999999999991
 51
96.70235750571615
  0
ARC
  5
15A
330
1F
100
AcDbEntity
  8
2
  6
Continuous
 62
    90
370
    18
100
AcDbCircle
 10
725.6773262790578
 20
855.3462772224551
 30
0.0
 40
169.4938886094373
100
AcDbArc
 50
263.2976424942865
 51
276.702357505714
  0
ARC
  5
15B
330
1F
100
AcDbEntity
  8
2
  6
Continuous
 62
    90
370
    18
100
AcDbCircle
 10
610.0598428585915
 20
637.3524431809983
 30
0.0
 40
50.0
100
AcDbArc
 50
83.29764249428834
 51
89.99999999999947
  0
ARC
  5
15C
330
1F
100
AcDbEntity
  8
2
  6
Continuous
 62
    90
370
    18
100
AcDbCircle
 10
661.2948096995312
 20
637.3524431809992
 30
0.0
 40
50.0
100
AcDbArc
 50
89.99999999999991
 51
96.7023575057159
  0
ARC
  5
15D
330
1F
100
AcDbEntity
  8
2
  6
Continuous
 62
    90
370
    18
100
AcDbCircle
 10
635.6773262790578
 20
855.3462772224551
 30
0.0
 40
169.4938886094373
100
AcDbArc
 50
263.2976424942865
 51
276.702357505714
  0
LINE
  5
15E
330
1F
100
AcDbEntity
  8
1
  6
Continuous
 62
    45
370
     9
100
AcDbLine
 10
917.1773262790607
 20
263.7719531730547
 30
0.0
 11
917.1773262790607
 21
241.2719531730547
 31
0.0
  0
LINE
  5
15F
330
1F
100
AcDbEntity
  8
1
  6
Continuous
 62
    45
370
     9
100
AcDbLine
 10
917.1773262790607
 20
241.2719531730547
 30
0.0
 11
919.1773262790605
 21
239.2719531730547
 31
0.0
  0
LINE
  5
160
330
1F
100
AcDbEntity
  8
1
  6
Continuous
 62
    45
370
     9
100
AcDbLine
 10
919.1773262790607
 20
265.7719531730547
 30
0.0
 11
917.1773262790607
 21
263.7719531730547
 31
0.0
  0
LINE
  5
161
330
1F
100
AcDbEntity
  8
1
  6
Continuous
 62
    45
370
     9
100
AcDbLine
 10
953.1773262790607
 20
265.7719531730546
 30
0.0
 11
954.6773262790607
 21
263.7719531730546
 31
0.0
  0
LINE
  5
162
330
1F
100
AcDbEntity
  8
1
  6
Continuous
 62
    45
370
     9
100
AcDbLine
 10
953.1773262790605
 20
239.2719531730546
 30
0.0
 11
954.6773262790607
 21
241.2719531730546
 31
0.0
  0
LINE
  5
163
330
1F
100
AcDbEntity
  8
1
  6
Continuous
 62
    45
370
     9
100
AcDbLine
 10
953.1773262790607
 20
265.7719531730546
 30
0.0
 11
900.6773262790607
 21
265.7719531730548
 31
0.0
  0
LINE
  5
164
330
1F
100
AcDbEntity
  8
1
  6
Continuous
 62
    45
370
     9
100
AcDbLine
 10
953.1773262790605
 20
239.2719531730546
 30
0.0
 11
900.6773262790605
 21
239.2719531730548
 31
0.0
  0
DIMENSION
  5
170
330
1F
100
AcDbEntity
  8
6
  6
Continuous
 62
     7
370
     9
100
AcDbDimension
  2
Dim6
 10
926.9273262790607
 20
298.5160263088375
 30
0.0
 11
937.2734123781952
 21
305.5160263088375
 31
0.0
 70
   160
  1
<>
 71
     5
 42
-1.0
  3
Standard
100
AcDbAlignedDimension
 13
926.9273262790605
 23
268.5160263088375
 33
0.0
 14
946.9273262790609
 24
268.5160263088375
 34
0.0
100
AcDbRotatedDimension
1001
ACAD
1000
DSTYLE
1002
{
1070
   344
1005
3C
1070
   343
1005
3C
1070
   173
1070
     1
1070
   289
1070
     2
1070
   279
1070
     2
1070
   288
1070
     1
1070
    77
1070
     3
1070
   172
1070
     1
1070
   174
1070
     0
1070
    74
1070
     0
1070
    73
1070
     0
1070
   284
1070
     8
1070
    78
1070
     8
1070
   140
1040
3.0
1070
    40
1040
4.0
1070
    42
1040
2.0
1070
    44
1040
1.0
1070
    43
1040
10.0
1070
   271
1070
     2
1070
    41
1040
2.0
1002
}
  0
DIMENSION
  5
17C
330
1F
100
AcDbEntity
  8
6
  6
Continuous
 62
     7
370
     9
100
AcDbDimension
  2
Dim7
 10
954.677326585208
 20
377.9469894728406
 30
0.0
 11
914.3021718474224
 21
384.9469894728406
 31
0.0
 70
   160
  1
<>
 71
     5
 42
-1.0
  3
Standard
100
AcDbAlignedDimension
 13
954.6773265852084
 23
447.9469894728405
 33
0.0
 14
877.1773262790607
 24
447.9469894728406
 34
0.0
100
AcDbRotatedDimension
1001
ACAD
1000
DSTYLE
1002
{
1070
   344
1005
3C
1070
   343
1005
3C
1070
   173
1070
     1
1070
   289
1070
     2
1070
   279
1070
     2
1070
   288
1070
     1
1070
    77
1070
     3
1070
   172
1070
     1
1070
   174
1070
     0
1070
    74
1070
     0
1070
    73
1070
     0
1070
   284
1070
     8
1070
    78
1070
     8
1070
   140
1040
3.0
1070
    40
1040
4.0
1070
    42
1040
2.0
1070
    44
1040
1.0
1070
    43
1040
10.0
1070
   271
1070
     2
1070
    41
1040
2.0
1002
}
  0
DIMENSION
  5
188
330
1F
100
AcDbEntity
  8
6
  6
Continuous
 62
     7
370
     9
100
AcDbDimension
  2
Dim8
 10
984.6773265852082
 20
518.9469894728406
 30
0.0
 11
977.6773265852082
 21
482.8608826282751
 31
0.0
 70
   160
  1
<>
 71
     5
 42
-1.0
  3
Standard
100
AcDbAlignedDimension
 13
954.6773265852084
 23
518.9469894728406
 33
0.0
 14
954.6773262790584
 24
447.9469894728406
 34
0.0
 50
89.99999999999991
100
AcDbRotatedDimension
1001
ACAD
1000
DSTYLE
1002
{
1070
   344
1005
3C
1070
   343
1005
3C
1070
   173
1070
     1
1070
   289
1070
     2
1070
   279
1070
     2
1070
   288
1070
     1
1070
    77
1070
     3
1070
   172
1070
     1
1070
   174
1070
     0
1070
    74
1070
     0
1070
    73
1070
     0
1070
   284
1070
     8
1070
    78
1070
     8
1070
   140
1040
3.0
1070
    40
1040
4.0
1070
    42
1040
2.0
1070
    44
1040
1.0
1070
    43
1040
10.0
1070
   271
1070
     2
1070
    41
1040
2.0
1002
}
  0
DIMENSION
  5
194
330
1F
100
AcDbEntity
  8
6
  6
Continuous
 62
     7
370
     9
100
AcDbDimension
  2
Dim9
 10
917.1773262790582
 20
407.9469894728406
 30
0.0
 11
936.7368636566284
 21
414.9469894728406
 31
0.0
 70
   160
  1
<>
 71
     5
 42
-1.0
  3
Standard
100
AcDbAlignedDimension
 13
917.1773262790584
 23
447.9469894728406
 33
0.0
 14
954.6773265852084
 24
447.9469894728405
 34
0.0
100
AcDbRotatedDimension
1001
ACAD
1000
DSTYLE
1002
{
1070
   344
1005
3C
1070
   343
1005
3C
1070
   173
1070
     1
1070
   289
1070
     2
1070
   279
1070
     2
1070
   288
1070
     1
1070
    77
1070
     3
1070
   172
1070
     1
1070
   174
1070
     0
1070
    74
1070
     0
1070
    73
1070
     0
1070
   284
1070
     8
1070
    78
1070
     8
1070
   140
1040
3.0
1070
    40
1040
4.0
1070
    42
1040
2.0
1070
    44
1040
1.0
1070
    43
1040
10.0
1070
   271
1070
     2
1070
    41
1040
2.0
1002
}
  0
LINE
  5
195
330
1F
100
AcDbEntity
  8
1
  6
Continuous
 62
    45
370
     9
100
AcDbLine
 10
953.1773262790609
 20
268.0219531730546
 30
0.0
 11
953.1773262790607
 21
237.0219531730546
 31
0.0
  0
LINE
  5
196
330
1F
100
AcDbEntity
  8
1
  6
Continuous
 62
    45
370
     9
100
AcDbLine
 10
953.1773262790584
 20
495.4041354928407
 30
0.0
 11
954.6773262790584
 21
495.9845836928407
 31
0.0
  0
LINE
  5
197
330
1F
100
AcDbEntity
  8
1
  6
Continuous
 62
    45
370
     9
100
AcDbLine
 10
953.1773262790584
 20
447.9469894728408
 30
0.0
 11
953.1773262790584
 21
518.9469894728408
 31
0.0
  0
LINE
  5
198
330
1F
100
AcDbEntity
  8
1
  6
Continuous
 62
    45
370
     9
100
AcDbLine
 10
953.1773262790584
 20
495.4041354928407
 30
0.0
 11
900.6773262790584
 21
495.4041354928406
 31
0.0
  0
LINE
  5
199
330
1F
100
AcDbEntity
  8
1
  6
Continuous
 62
    45
370
     9
100
AcDbLine
 10
953.1773265852084
 20
686.8524431810033
 30
0.0
 11
953.1773265852084
 21
655.8524431810033
 31
0.0
  0
LINE
  5
19A
330
1F
100
AcDbEntity
  8
1
  6
Continuous
 62
    45
370
     9
100
AcDbLine
 10
917.1773262790584
 20
493.1564844928407
 30
0.0
 11
917.1773262790584
 21
487.9469894728406
 31
0.0
  0
LINE
  5
19B
330
1F
100
AcDbEntity
  8
1
  6
Continuous
 62
    45
370
     9
100
AcDbLine
 10
917.1773262790584
 20
493.1564844928407
 30
0.0
 11
919.1773262790584
 21
495.4041354928407
 31
0.0
  0
LINE
  5
19C
330
1F
100
AcDbEntity
  8
1
  6
Continuous
 62
    45
370
     9
100
AcDbLine
 10
919.1773262790584
 20
495.4041354928407
 30
0.0
 11
919.1773262790584
 21
447.9469894728406
 31
0.0
  0
LINE
  5
19D
330
1F
100
AcDbEntity
  8
2
  6
Continuous
 62
    90
370
     9
100
AcDbLine
 10
900.6773262790607
 20
265.7719531730548
 30
0.0
 11
900.6773262790605
 21
239.2719531730548
 31
0.0
  0
LINE
  5
19E
330
1F
100
AcDbEntity
  8
2
  6
Continuous
 62
    90
370
     9
100
AcDbLine
 10
900.6773262790607
 20
261.3360041730549
 30
0.0
 11
900.6773262790605
 21
239.2719531730548
 31
0.0
  0
LINE
  5
19F
330
1F
100
AcDbEntity
  8
2
  6
Continuous
 62
    90
370
     9
100
AcDbLine
 10
953.1773262790607
 20
268.0219531730546
 30
0.0
 11
900.6773262790607
 21
268.0219531730548
 31
0.0
  0
LINE
  5
1A0
330
1F
100
AcDbEntity
  8
2
  6
Continuous
 62
    90
370
     9
100
AcDbLine
 10
953.1773262790605
 20
237.0219531730546
 30
0.0
 11
900.6773262790605
 21
237.0219531730548
 31
0.0
  0
LINE
  5
1A1
330
1F
100
AcDbEntity
  8
2
  6
Continuous
 62
    90
370
     9
100
AcDbLine
 10
954.6773262790607
 20
266.0219531730546
 30
0.0
 11
954.6773262790605
 21
239.0219531730546
 31
0.0
  0
LINE
  5
1A2
330
1F
100
AcDbEntity
  8
2
  6
Continuous
 62
    90
370
     9
100
AcDbLine
 10
953.1773262790607
 20
268.0219531730546
 30
0.0
 11
954.6773262790607
 21
266.0219531730546
 31
0.0
  0
LINE
  5
1A3
330
1F
100
AcDbEntity
  8
2
  6
Continuous
 62
    90
370
     9
100
AcDbLine
 10
953.1773262790605
 20
237.0219531730546
 30
0.0
 11
954.6773262790605
 21
239.0219531730546
 31
0.0
  0
LINE
  5
1A4
330
1F
100
AcDbEntity
  8
2
  6
Continuous
 62
    90
370
     9
100
AcDbLine
 10
900.6773262790584
 20
487.9469894728406
 30
0.0
 11
917.1773262790584
 21
487.9469894728406
 31
0.0
  0
LINE
  5
1A5
330
1F
100
AcDbEntity
  8
2
  6
Continuous
 62
    90
370
     9
100
AcDbLine
 10
917.1773262790584
 20
447.9469894728406
 30
0.0
 11
952.6773262790584
 21
447.9469894728408
 31
0.0
  0
LINE
  5
1A6
330
1F
100
AcDbEntity
  8
2
  6
Continuous
 62
    90
370
     9
100
AcDbLine
 10
917.1773262790584
 20
487.9469894728406
 30
0.0
 11
917.1773262790584
 21
447.9469894728406
 31
0.0
  0
ARC
  5
1A7
330
1F
100
AcDbEntity
  8
2
  6
Continuous
 62
    90
370
     9
100
AcDbCircle
 10
900.3773262790585
 20
487.7469894728406
 30
0.0
 40
0.3
100
AcDbArc
 50
269.9999999999998
 51
0.0
  0
ARC
  5
1A8
330
1F
100
AcDbEntity
  8
2
  6
Continuous
 62
    90
370
     9
100
AcDbCircle
 10
877.4773262790586
 20
487.7469894728406
 30
0.0
 40
0.3
100
AcDbArc
 50
179.9999999999998
 51
269.9999999999998
  0
LINE
  5
1A9
330
1F
100
AcDbEntity
  8
2
  6
Continuous
 62
    90
370
     9
100
AcDbLine
 10
877.4773262790586
 20
487.4469894728406
 30
0.0
 11
900.3773262790585
 21
487.4469894728406
 31
0.0
  0
ARC
  5
1AA
330
1F
100
AcDbEntity
  8
2
  6
Continuous
 62
    90
370
     9
100
AcDbCircle
 10
900.3773262790585
 20
519.1469894728407
 30
0.0
 40
0.3
100
AcDbArc
 50
0.0
 51
89.99999999999991
  0
ARC
  5
1AB
330
1F
100
AcDbEntity
  8
2
  6
Continuous
 62
    90
370
     9
100
AcDbCircle
 10
877.4773262790584
 20
519.1469894728406
 30
0.0
 40
0.3
100
AcDbArc
 50
89.99999999999991
 51
179.9999999999998
  0
LINE
  5
1AC
330
1F
100
AcDbEntity
  8
2
  6
Continuous
 62
    90
370
     9
100
AcDbLine
 10
900.3773262790585
 20
519.4469894728406
 30
0.0
 11
877.4773262790584
 21
519.4469894728406
 31
0.0
  0
LINE
  5
1AD
330
1F
100
AcDbEntity
  8
2
  6
Continuous
 62
    90
370
     9
100
AcDbLine
 10
877.1773262790584
 20
487.7469894728406
 30
0.0
 11
877.1773262790584
 21
519.1469894728406
 31
0.0
  0
LINE
  5
1AE
330
1F
100
AcDbEntity
  8
2
  6
Continuous
 62
    90
370
     9
100
AcDbLine
 10
900.6773262790584
 20
487.7469894728406
 30
0.0
 11
900.6773262790584
 21
487.9469894728406
 31
0.0
  0
LINE
  5
1AF
330
1F
100
AcDbEntity
  8
2
  6
Continuous
 62
    90
370
     9
100
AcDbLine
 10
953.1773262790584
 20
518.9469894728408
 30
0.0
 11
900.6773262790584
 21
518.9469894728406
 31
0.0
  0
LINE
  5
1B0
330
1F
100
AcDbEntity
  8
2
  6
Continuous
 62
    90
370
     9
100
AcDbLine
 10
954.6773262790584
 20
447.9469894728408
 30
0.0
 11
952.6773262790584
 21
447.9469894728408
 31
0.0
  0
LINE
  5
1B1
330
1F
100
AcDbEntity
  8
2
  6
Continuous
 62
    90
370
     9
100
AcDbLine
 10
953.1773262790584
 20
518.9469894728408
 30
0.0
 11
954.6773262790584
 21
516.9469894728408
 31
0.0
  0
LINE
  5
1B2
330
1F
100
AcDbEntity
  8
2
  6
Continuous
 62
    90
370
     9
100
AcDbLine
 10
900.6773262790584
 20
487.9469894728406
 30
0.0
 11
900.6773262790584
 21
518.9469894728406
 31
0.0
  0
ARC
  5
1B3
330
1F
100
AcDbEntity
  8
2
  6
Continuous
 62
    90
370
     9
100
AcDbCircle
 10
900.3773265852085
 20
687.0524431810036
 30
0.0
 40
0.3
100
AcDbArc
 50
0.0
 51
89.99999999999991
  0
ARC
  5
1B4
330
1F
100
AcDbEntity
  8
2
  6
Continuous
 62
    90
370
     9
100
AcDbCircle
 10
877.4773265852086
 20
687.0524431810037
 30
0.0
 40
0.3
100
AcDbArc
 50
89.99999999999991
 51
179.9999999999998
  0
LINE
  5
1B5
330
1F
100
AcDbEntity
  8
2
  6
Continuous
 62
    90
370
     9
100
AcDbLine
 10
877.4773265852086
 20
687.3524431810037
 30
0.0
 11
900.3773265852085
 21
687.3524431810035
 31
0.0
  0
LINE
  5
1B6
330
1F
100
AcDbEntity
  8
2
  6
Continuous
 62
    90
370
     9
100
AcDbLine
 10
900.6773265852084
 20
680.1664941810036
 30
0.0
 11
900.6773265852084
 21
655.6524431810036
 31
0.0
  0
ARC
  5
1B7
330
1F
100
AcDbEntity
  8
2
  6
Continuous
 62
    90
370
     9
100
AcDbCircle
 10
900.3773265852085
 20
655.6524431810036
 30
0.0
 40
0.3
100
AcDbArc
 50
269.9999999999998
 51
0.0
  0
ARC
  5
1B8
330
1F
100
AcDbEntity
  8
2
  6
Continuous
 62
    90
370
     9
100
AcDbCircle
 10
877.4773265852084
 20
655.6524431810037
 30
0.0
 40
0.3
100
AcDbArc
 50
179.9999999999998
 51
269.9999999999998
  0
LINE
  5
1B9
330
1F
100
AcDbEntity
  8
2
  6
Continuous
 62
    90
370
     9
100
AcDbLine
 10
900.3773265852085
 20
655.3524431810035
 30
0.0
 11
877.4773265852084
 21
655.3524431810037
 31
0.0
  0
LINE
  5
1BA
330
1F
100
AcDbEntity
  8
2
  6
Continuous
 62
    90
370
     9
100
AcDbLine
 10
877.1773265852084
 20
687.0524431810037
 30
0.0
 11
877.1773265852084
 21
655.6524431810037
 31
0.0
  0
LINE
  5
1BB
330
1F
100
AcDbEntity
  8
2
  6
Continuous
 62
    90
370
     9
100
AcDbLine
 10
900.6773265852084
 20
687.0524431810036
 30
0.0
 11
900.6773265852084
 21
655.6524431810036
 31
0.0
  0
LINE
  5
1BC
330
1F
100
AcDbEntity
  8
2
  6
Continuous
 62
    90
370
     9
100
AcDbLine
 10
954.6773265852084
 20
684.8524431810033
 30
0.0
 11
954.6773265852084
 21
657.8524431810033
 31
0.0
  0
LINE
  5
1BD
330
1F
100
AcDbEntity
  8
2
  6
Continuous
 62
    90
370
     9
100
AcDbLine
 10
900.6773265852084
 20
655.8524431810035
 30
0.0
 11
900.6773265852084
 21
686.8524431810035
 31
0.0
  0
LINE
  5
1BE
330
1F
100
AcDbEntity
  8
2
  6
Continuous
 62
    90
370
     9
100
AcDbLine
 10
953.1773265852084
 20
686.8524431810033
 30
0.0
 11
900.6773265852084
 21
686.8524431810035
 31
0.0
  0
LINE
  5
1BF
330
1F
100
AcDbEntity
  8
2
  6
Continuous
 62
    90
370
     9
100
AcDbLine
 10
953.1773265852084
 20
655.8524431810033
 30
0.0
 11
900.6773265852084
 21
655.8524431810035
 31
0.0
  0
LINE
  5
1C0
330
1F
100
AcDbEntity
  8
2
  6
Continuous
 62
    90
370
     9
100
AcDbLine
 10
954.6773265852084
 20
657.8524431810033
 30
0.0
 11
953.1773265852084
 21
655.8524431810033
 31
0.0
  0
LINE
  5
1C1
330
1F
100
AcDbEntity
  8
2
  6
Continuous
 62
    90
370
     9
100
AcDbLine
 10
954.6773265852084
 20
684.8524431810033
 30
0.0
 11
953.1773265852084
 21
686.8524431810033
 31
0.0
  0
LINE
  5
1C2
330
1F
100
AcDbEntity
  8
1
  6
DASHDOT
 62
    45
370
     9
100
AcDbLine
 10
935.6773262790607
 20
275.7080789459002
 30
0.0
 11
935.6773262790607
 21
233.8948384110393
 31
0.0
  0
ARC
  5
1C3
330
1F
100
AcDbEntity
  8
2
  6
Continuous
 62
    90
370
     9
100
AcDbCircle
 10
900.3773262790608
 20
268.2219531730548
 30
0.0
 40
0.3
100
AcDbArc
 50
0.0
 51
89.99999999999991
  0
ARC
  5
1C4
330
1F
100
AcDbEntity
  8
2
  6
Continuous
 62
    90
370
     9
100
AcDbCircle
 10
877.4773262790607
 20
268.2219531730549
 30
0.0
 40
0.3
100
AcDbArc
 50
89.99999999999991
 51
179.9999999999998
  0
LINE
  5
1C5
330
1F
100
AcDbEntity
  8
2
  6
Continuous
 62
    90
370
     9
100
AcDbLine
 10
877.4773262790607
 20
268.5219531730549
 30
0.0
 11
900.3773262790608
 21
268.5219531730548
 31
0.0
  0
ARC
  5
1C6
330
1F
100
AcDbEntity
  8
2
  6
Continuous
 62
    90
370
     9
100
AcDbCircle
 10
900.3773262790605
 20
236.8219531730549
 30
0.0
 40
0.3
100
AcDbArc
 50
269.9999999999998
 51
0.0
  0
ARC
  5
1C7
330
1F
100
AcDbEntity
  8
2
  6
Continuous
 62
    90
370
     9
100
AcDbCircle
 10
877.4773262790607
 20
236.821953173055
 30
0.0
 40
0.3
100
AcDbArc
 50
179.9999999999998
 51
269.9999999999998
  0
LINE
  5
1C8
330
1F
100
AcDbEntity
  8
2
  6
Continuous
 62
    90
370
     9
100
AcDbLine
 10
900.3773262790605
 20
236.5219531730549
 30
0.0
 11
877.4773262790607
 21
236.521953173055
 31
0.0
  0
LINE
  5
1C9
330
1F
100
AcDbEntity
  8
2
  6
Continuous
 62
    90
370
     9
100
AcDbLine
 10
900.6773262790607
 20
268.2219531730548
 30
0.0
 11
900.6773262790607
 21
265.7719531730548
 31
0.0
  0
LINE
  5
1CA
330
1F
100
AcDbEntity
  8
2
  6
Continuous
 62
    90
370
     9
100
AcDbLine
 10
900.6773262790605
 20
239.2719531730548
 30
0.0
 11
900.6773262790605
 21
236.8219531730549
 31
0.0
  0
LINE
  5
1CB
330
1F
100
AcDbEntity
  8
2
  6
Continuous
 62
    90
370
     9
100
AcDbLine
 10
877.1773262790607
 20
268.2219531730549
 30
0.0
 11
877.1773262790607
 21
236.821953173055
 31
0.0
  0
LINE
  5
1CC
330
1F
100
AcDbEntity
  8
1
  6
Continuous
 62
    45
370
     9
100
AcDbLine
 10
877.1773262790568
 20
655.3524431810035
 30
0.0
 11
877.1773262790587
 21
687.3524431809993
 31
0.0
  0
LINE
  5
1CD
330
1F
100
AcDbEntity
  8
1
  6
Continuous
 62
    45
370
     9
100
AcDbLine
 10
877.1773265852069
 20
487.4469894728409
 30
0.0
 11
877.1773265852087
 21
519.4469894728367
 31
0.0
  0
LINE
  5
1CE
330
1F
100
AcDbEntity
  8
1
  6
Continuous
 62
    45
370
     9
100
AcDbLine
 10
877.1773265852069
 20
236.5219531730548
 30
0.0
 11
877.1773265852087
 21
268.5219531730506
 31
0.0
  0
DIMENSION
  5
1DA
330
1F
100
AcDbEntity
  8
6
  6
Continuous
 62
     7
370
     9
100
AcDbDimension
  2
Dim10
 10
986.6773262790605
 20
260.5219531730544
 30
0.0
 11
979.6773262790605
 21
252.5219531730544
 31
0.0
 70
   160
  1
<>
 71
     5
 42
-1.0
  3
Standard
100
AcDbAlignedDimension
 13
954.6773262790607
 23
260.5219531730547
 33
0.0
 14
954.6773262790607
 24
244.5219531730547
 34
0.0
 50
89.99999999999991
100
AcDbRotatedDimension
1001
ACAD
1000
DSTYLE
1002
{
1070
   344
1005
3C
1070
   343
1005
3C
1070
   173
1070
     1
1070
   289
1070
     2
1070
   279
1070
     2
1070
   288
1070
     1
1070
    77
1070
     3
1070
   172
1070
     1
1070
   174
1070
     0
1070
    74
1070
     0
1070
    73
1070
     0
1070
   284
1070
     8
1070
    78
1070
     8
1070
   140
1040
3.0
1070
    40
1040
4.0
1070
    42
1040
2.0
1070
    44
1040
1.0
1070
    43
1040
10.0
1070
   271
1070
     2
1070
    41
1040
2.0
1002
}
  0
LINE
  5
1DB
330
1F
100
AcDbEntity
  8
1
  6
HIDDEN
 62
    45
370
     9
100
AcDbLine
 10
893.6773265852187
 20
684.3524431810034
 30
0.0
 11
878.6773265852084
 21
684.3524431810034
 31
0.0
  0
LINE
  5
1DC
330
1F
100
AcDbEntity
  8
1
  6
HIDDEN
 62
    45
370
     9
100
AcDbLine
 10
877.1773262790578
 20
687.3524431809989
 30
0.0
 11
878.6773265852084
 21
684.3524431810034
 31
0.0
  0
LINE
  5
1DD
330
1F
100
AcDbEntity
  8
1
  6
HIDDEN
 62
    45
370
     9
100
AcDbLine
 10
893.6773265852187
 20
658.3524431810034
 30
0.0
 11
878.6773265852084
 21
658.3524431810034
 31
0.0
  0
LINE
  5
1DE
330
1F
100
AcDbEntity
  8
1
  6
HIDDEN
 62
    45
370
     9
100
AcDbLine
 10
877.1773262790578
 20
655.3524431810056
 30
0.0
 11
878.6773265852084
 21
658.3524431810034
 31
0.0
  0
LINE
  5
1DF
330
1F
100
AcDbEntity
  8
1
  6
HIDDEN
 62
    45
370
     9
100
AcDbLine
 10
893.6773265852187
 20
658.3524431810034
 30
0.0
 11
893.6773265852187
 21
684.3524431810034
 31
0.0
  0
LINE
  5
1E0
330
1F
100
AcDbEntity
  8
1
  6
HIDDEN
 62
    45
370
     9
100
AcDbLine
 10
893.6773268913687
 20
516.4469894728408
 30
0.0
 11
878.6773268913582
 21
516.4469894728408
 31
0.0
  0
LINE
  5
1E1
330
1F
100
AcDbEntity
  8
1
  6
HIDDEN
 62
    45
370
     9
100
AcDbLine
 10
877.1773265852078
 20
519.4469894728362
 30
0.0
 11
878.6773268913582
 21
516.4469894728408
 31
0.0
  0
LINE
  5
1E2
330
1F
100
AcDbEntity
  8
1
  6
HIDDEN
 62
    45
370
     9
100
AcDbLine
 10
893.6773268913687
 20
265.5219531730547
 30
0.0
 11
878.6773268913585
 21
265.5219531730547
 31
0.0
  0
LINE
  5
1E3
330
1F
100
AcDbEntity
  8
1
  6
HIDDEN
 62
    45
370
     9
100
AcDbLine
 10
877.1773265852078
 20
268.5219531730501
 30
0.0
 11
878.6773268913585
 21
265.5219531730547
 31
0.0
  0
LINE
  5
1E4
330
1F
100
AcDbEntity
  8
1
  6
HIDDEN
 62
    45
370
     9
100
AcDbLine
 10
893.6773268913687
 20
490.4469894728408
 30
0.0
 11
878.6773268913582
 21
490.4469894728408
 31
0.0
  0
LINE
  5
1E5
330
1F
100
AcDbEntity
  8
1
  6
HIDDEN
 62
    45
370
     9
100
AcDbLine
 10
877.1773265852078
 20
487.4469894728429
 30
0.0
 11
878.6773268913582
 21
490.4469894728408
 31
0.0
  0
LINE
  5
1E6
330
1F
100
AcDbEntity
  8
1
  6
HIDDEN
 62
    45
370
     9
100
AcDbLine
 10
893.6773268913687
 20
239.5219531730547
 30
0.0
 11
878.6773268913585
 21
239.5219531730547
 31
0.0
  0
LINE
  5
1E7
330
1F
100
AcDbEntity
  8
1
  6
HIDDEN
 62
    45
370
     9
100
AcDbLine
 10
877.1773265852078
 20
236.5219531730568
 30
0.0
 11
878.6773268913585
 21
239.5219531730547
 31
0.0
  0
LINE
  5
1E8
330
1F
100
AcDbEntity
  8
1
  6
HIDDEN
 62
    45
370
     9
100
AcDbLine
 10
893.6773268913687
 20
490.4469894728408
 30
0.0
 11
893.6773268913687
 21
516.4469894728408
 31
0.0
  0
LINE
  5
1E9
330
1F
100
AcDbEntity
  8
1
  6
HIDDEN
 62
    45
370
     9
100
AcDbLine
 10
893.6773268913687
 20
239.5219531730547
 30
0.0
 11
893.6773268913687
 21
265.5219531730547
 31
0.0
  0
LINE
  5
1EA
330
1F
100
AcDbEntity
  8
2
  6
Continuous
 62
    90
370
    18
100
AcDbLine
 10
877.1773262790578
 20
236.5219531730592
 30
0.0
 11
841.2948096995306
 21
236.5219531730589
 31
0.0
  0
LINE
  5
1EB
330
1F
100
AcDbEntity
  8
2
  6
Continuous
 62
    90
370
    18
100
AcDbLine
 10
877.1773262790578
 20
268.5219531730501
 30
0.0
 11
841.2948096995306
 21
268.5219531730505
 31
0.0
  0
LINE
  5
1EC
330
1F
100
AcDbEntity
  8
2
  6
Continuous
 62
    90
370
    18
100
AcDbLine
 10
877.1773262790578
 20
487.4469894728453
 30
0.0
 11
841.2948096995306
 21
487.446989472845
 31
0.0
  0
LINE
  5
1ED
330
1F
100
AcDbEntity
  8
2
  6
Continuous
 62
    90
370
    18
100
AcDbLine
 10
877.1773262790578
 20
519.4469894728362
 30
0.0
 11
841.2948096995306
 21
519.4469894728365
 31
0.0
  0
LINE
  5
1EE
330
1F
100
AcDbEntity
  8
2
  6
Continuous
 62
    90
370
    18
100
AcDbLine
 10
877.1773262790578
 20
655.352443181008
 30
0.0
 11
841.2948096995306
 21
655.3524431810076
 31
0.0
  0
LINE
  5
1EF
330
1F
100
AcDbEntity
  8
2
  6
Continuous
 62
    90
370
    18
100
AcDbLine
 10
877.1773262790578
 20
687.3524431809989
 30
0.0
 11
841.2948096995306
 21
687.3524431809992
 31
0.0
  0
LINE
  5
1F0
330
1F
100
AcDbEntity
  8
1
  6
DASHDOT
 62
    45
370
     9
100
AcDbLine
 10
335.6773265852189
 20
275.7080789459002
 30
0.0
 11
335.6773265852191
 21
236.4554391126559
 31
0.0
  0
LINE
  5
1F1
330
1F
100
AcDbEntity
  8
1
  6
Continuous
 62
    45
370
     9
100
AcDbLine
 10
354.177326585219
 20
263.7719531730547
 30
0.0
 11
354.177326585219
 21
241.2719531730547
 31
0.0
  0
LINE
  5
1F2
330
1F
100
AcDbEntity
  8
1
  6
Continuous
 62
    45
370
     9
100
AcDbLine
 10
354.177326585219
 20
241.2719531730547
 30
0.0
 11
352.1773265852191
 21
239.2719531730547
 31
0.0
  0
LINE
  5
1F3
330
1F
100
AcDbEntity
  8
1
  6
Continuous
 62
    45
370
     9
100
AcDbLine
 10
352.1773265852189
 20
265.7719531730547
 30
0.0
 11
354.177326585219
 21
263.7719531730547
 31
0.0
  0
LINE
  5
1F4
330
1F
100
AcDbEntity
  8
1
  6
Continuous
 62
    45
370
     9
100
AcDbLine
 10
318.1773265852189
 20
265.7719531730546
 30
0.0
 11
316.677326585219
 21
263.7719531730546
 31
0.0
  0
LINE
  5
1F5
330
1F
100
AcDbEntity
  8
1
  6
Continuous
 62
    45
370
     9
100
AcDbLine
 10
318.1773265852191
 20
239.2719531730546
 30
0.0
 11
316.677326585219
 21
241.2719531730546
 31
0.0
  0
LINE
  5
1F6
330
1F
100
AcDbEntity
  8
1
  6
Continuous
 62
    45
370
     9
100
AcDbLine
 10
318.1773265852189
 20
265.7719531730546
 30
0.0
 11
370.6773265852189
 21
265.7719531730548
 31
0.0
  0
LINE
  5
1F7
330
1F
100
AcDbEntity
  8
1
  6
Continuous
 62
    45
370
     9
100
AcDbLine
 10
318.1773265852191
 20
239.2719531730546
 30
0.0
 11
370.6773265852191
 21
239.2719531730548
 31
0.0
  0
DIMENSION
  5
203
330
1F
100
AcDbEntity
  8
6
  6
Continuous
 62
     7
370
     9
100
AcDbDimension
  2
Dim11
 10
210.1599071252704
 20
503.4469894728404
 30
0.0
 11
203.1599071252704
 21
478.1502941210859
 31
0.0
 70
   160
  1
<>
 71
     5
 42
-1.0
  3
Standard
100
AcDbAlignedDimension
 13
239.9099071252704
 23
503.4469894728407
 33
0.0
 14
240.1599071252704
 24
447.9469894728408
 34
0.0
 50
89.99999999999977
100
AcDbRotatedDimension
1001
ACAD
1000
DSTYLE
1002
{
1070
   344
1005
3C
1070
   343
1005
3C
1070
   173
1070
     1
1070
   289
1070
     2
1070
   279
1070
     2
1070
   288
1070
     1
1070
    77
1070
     3
1070
   172
1070
     1
1070
   174
1070
     0
1070
    74
1070
     0
1070
    73
1070
     0
1070
   284
1070
     8
1070
    78
1070
     8
1070
   140
1040
3.0
1070
    40
1040
4.0
1070
    42
1040
2.0
1070
    44
1040
1.0
1070
    43
1040
10.0
1070
   271
1070
     2
1070
    41
1040
2.0
1002
}
  0
LINE
  5
204
330
1F
100
AcDbEntity
  8
1
  6
Continuous
 62
    45
370
     9
100
AcDbLine
 10
318.177326585219
 20
268.0219531730546
 30
0.0
 11
318.1773265852192
 21
237.0219531730546
 31
0.0
  0
LINE
  5
205
330
1F
100
AcDbEntity
  8
1
  6
Continuous
 62
    45
370
     9
100
AcDbLine
 10
318.1773265852189
 20
495.4041354928407
 30
0.0
 11
316.6773265852189
 21
495.9845836928407
 31
0.0
  0
LINE
  5
206
330
1F
100
AcDbEntity
  8
1
  6
Continuous
 62
    45
370
     9
100
AcDbLine
 10
318.1773265852189
 20
447.9469894728408
 30
0.0
 11
318.1773265852189
 21
518.9469894728408
 31
0.0
  0
LINE
  5
207
330
1F
100
AcDbEntity
  8
1
  6
Continuous
 62
    45
370
     9
100
AcDbLine
 10
318.1773265852189
 20
495.4041354928407
 30
0.0
 11
370.6773265852189
 21
495.4041354928406
 31
0.0
  0
LINE
  5
208
330
1F
100
AcDbEntity
  8
1
  6
Continuous
 62
    45
370
     9
100
AcDbLine
 10
318.177326279069
 20
686.8524431810033
 30
0.0
 11
318.177326279069
 21
655.8524431810033
 31
0.0
  0
LINE
  5
209
330
1F
100
AcDbEntity
  8
1
  6
Continuous
 62
    45
370
     9
100
AcDbLine
 10
240.1599071252704
 20
495.4041354928407
 30
0.0
 11
242.1599071252704
 21
495.9845836928408
 31
0.0
  0
LINE
  5
20A
330
1F
100
AcDbEntity
  8
1
  6
Continuous
 62
    45
370
     9
100
AcDbLine
 10
266.6599071252704
 20
495.4041354928407
 30
0.0
 11
264.6599071252704
 21
495.9845836928407
 31
0.0
  0
LINE
  5
20B
330
1F
100
AcDbEntity
  8
1
  6
Continuous
 62
    45
370
     9
100
AcDbLine
 10
264.6599071252704
 20
447.9469894728408
 30
0.0
 11
264.6599071252704
 21
495.9845836928407
 31
0.0
  0
ARC
  5
20C
330
1F
100
AcDbEntity
  8
1
  6
Continuous
 62
    45
370
     9
100
AcDbCircle
 10
253.4099071252704
 20
503.4469894728408
 30
0.0
 40
13.5
100
AcDbArc
 50
326.4426902399995
 51
213.5573097599998
  0
LINE
  5
20D
330
1F
100
AcDbEntity
  8
1
  6
Continuous
 62
    45
370
     9
100
AcDbLine
 10
242.1599071252704
 20
447.9469894728408
 30
0.0
 11
242.1599071252704
 21
495.9845836928408
 31
0.0
  0
ARC
  5
20E
330
1F
100
AcDbEntity
  8
1
  6
Continuous
 62
    45
370
     9
100
AcDbCircle
 10
253.4099071252704
 20
503.4469894728408
 30
0.0
 40
16.0
100
AcDbArc
 50
325.9066091899999
 51
214.0933908100002
  0
LINE
  5
20F
330
1F
100
AcDbEntity
  8
1
  6
Continuous
 62
    45
370
     9
100
AcDbLine
 10
354.1773265852189
 20
493.1564844928407
 30
0.0
 11
354.1773265852189
 21
487.9469894728406
 31
0.0
  0
LINE
  5
210
330
1F
100
AcDbEntity
  8
1
  6
Continuous
 62
    45
370
     9
100
AcDbLine
 10
354.1773265852189
 20
493.1564844928407
 30
0.0
 11
352.1773265852189
 21
495.4041354928407
 31
0.0
  0
LINE
  5
211
330
1F
100
AcDbEntity
  8
1
  6
Continuous
 62
    45
370
     9
100
AcDbLine
 10
352.1773265852189
 20
495.4041354928407
 30
0.0
 11
352.1773265852189
 21
447.9469894728406
 31
0.0
  0
LINE
  5
212
330
1F
100
AcDbEntity
  8
2
  6
Continuous
 62
    90
370
     9
100
AcDbLine
 10
370.6773265852189
 20
265.7719531730548
 30
0.0
 11
370.6773265852191
 21
239.2719531730548
 31
0.0
  0
LINE
  5
213
330
1F
100
AcDbEntity
  8
2
  6
Continuous
 62
    90
370
     9
100
AcDbLine
 10
370.677326585219
 20
261.3360041730549
 30
0.0
 11
370.6773265852191
 21
239.2719531730548
 31
0.0
  0
LINE
  5
214
330
1F
100
AcDbEntity
  8
2
  6
Continuous
 62
    90
370
     9
100
AcDbLine
 10
318.1773265852189
 20
268.0219531730546
 30
0.0
 11
370.6773265852189
 21
268.0219531730548
 31
0.0
  0
LINE
  5
215
330
1F
100
AcDbEntity
  8
2
  6
Continuous
 62
    90
370
     9
100
AcDbLine
 10
318.1773265852191
 20
237.0219531730546
 30
0.0
 11
370.6773265852191
 21
237.0219531730548
 31
0.0
  0
LINE
  5
216
330
1F
100
AcDbEntity
  8
2
  6
Continuous
 62
    90
370
     9
100
AcDbLine
 10
316.6773265852189
 20
266.0219531730546
 30
0.0
 11
316.6773265852191
 21
239.0219531730546
 31
0.0
  0
LINE
  5
217
330
1F
100
AcDbEntity
  8
2
  6
Continuous
 62
    90
370
     9
100
AcDbLine
 10
318.1773265852189
 20
268.0219531730546
 30
0.0
 11
316.6773265852189
 21
266.0219531730546
 31
0.0
  0
LINE
  5
218
330
1F
100
AcDbEntity
  8
2
  6
Continuous
 62
    90
370
     9
100
AcDbLine
 10
318.1773265852191
 20
237.0219531730546
 30
0.0
 11
316.6773265852191
 21
239.0219531730546
 31
0.0
  0
LINE
  5
219
330
1F
100
AcDbEntity
  8
2
  6
Continuous
 62
    90
370
     9
100
AcDbLine
 10
370.6773265852189
 20
487.9469894728406
 30
0.0
 11
354.1773265852189
 21
487.9469894728406
 31
0.0
  0
LINE
  5
21A
330
1F
100
AcDbEntity
  8
2
  6
Continuous
 62
    90
370
     9
100
AcDbLine
 10
354.1773265852189
 20
447.9469894728406
 30
0.0
 11
318.6773265852189
 21
447.9469894728408
 31
0.0
  0
LINE
  5
21B
330
1F
100
AcDbEntity
  8
2
  6
Continuous
 62
    90
370
     9
100
AcDbLine
 10
354.1773265852189
 20
487.9469894728406
 30
0.0
 11
354.1773265852189
 21
447.9469894728406
 31
0.0
  0
ARC
  5
21C
330
1F
100
AcDbEntity
  8
2
  6
Continuous
 62
    90
370
     9
100
AcDbCircle
 10
370.9773265852189
 20
487.7469894728406
 30
0.0
 40
0.3
100
AcDbArc
 50
179.9999999999998
 51
269.9999999999998
  0
ARC
  5
21D
330
1F
100
AcDbEntity
  8
2
  6
Continuous
 62
    90
370
     9
100
AcDbCircle
 10
393.8773265852187
 20
487.7469894728406
 30
0.0
 40
0.3
100
AcDbArc
 50
269.9999999999998
 51
0.0
  0
LINE
  5
21E
330
1F
100
AcDbEntity
  8
2
  6
Continuous
 62
    90
370
     9
100
AcDbLine
 10
393.8773265852187
 20
487.4469894728406
 30
0.0
 11
370.9773265852189
 21
487.4469894728406
 31
0.0
  0
ARC
  5
21F
330
1F
100
AcDbEntity
  8
2
  6
Continuous
 62
    90
370
     9
100
AcDbCircle
 10
370.9773265852189
 20
519.1469894728407
 30
0.0
 40
0.3
100
AcDbArc
 50
89.99999999999991
 51
179.9999999999998
  0
ARC
  5
220
330
1F
100
AcDbEntity
  8
2
  6
Continuous
 62
    90
370
     9
100
AcDbCircle
 10
393.877326585219
 20
519.1469894728406
 30
0.0
 40
0.3
100
AcDbArc
 50
0.0
 51
89.99999999999991
  0
LINE
  5
221
330
1F
100
AcDbEntity
  8
2
  6
Continuous
 62
    90
370
     9
100
AcDbLine
 10
370.9773265852189
 20
519.4469894728406
 30
0.0
 11
393.877326585219
 21
519.4469894728406
 31
0.0
  0
LINE
  5
222
330
1F
100
AcDbEntity
  8
2
  6
Continuous
 62
    90
370
     9
100
AcDbLine
 10
394.1773265852189
 20
487.7469894728406
 30
0.0
 11
394.1773265852189
 21
519.1469894728406
 31
0.0
  0
LINE
  5
223
330
1F
100
AcDbEntity
  8
2
  6
Continuous
 62
    90
370
     9
100
AcDbLine
 10
370.6773265852189
 20
487.7469894728406
 30
0.0
 11
370.6773265852189
 21
487.9469894728406
 31
0.0
  0
LINE
  5
224
330
1F
100
AcDbEntity
  8
2
  6
Continuous
 62
    90
370
     9
100
AcDbLine
 10
318.1773265852189
 20
518.9469894728408
 30
0.0
 11
370.6773265852189
 21
518.9469894728406
 31
0.0
  0
LINE
  5
225
330
1F
100
AcDbEntity
  8
2
  6
Continuous
 62
    90
370
     9
100
AcDbLine
 10
316.6773265852189
 20
447.9469894728408
 30
0.0
 11
318.6773265852189
 21
447.9469894728408
 31
0.0
  0
LINE
  5
226
330
1F
100
AcDbEntity
  8
2
  6
Continuous
 62
    90
370
     9
100
AcDbLine
 10
318.1773265852189
 20
518.9469894728408
 30
0.0
 11
316.6773265852189
 21
516.9469894728408
 31
0.0
  0
LINE
  5
227
330
1F
100
AcDbEntity
  8
2
  6
Continuous
 62
    90
370
     9
100
AcDbLine
 10
370.6773265852189
 20
487.9469894728406
 30
0.0
 11
370.6773265852189
 21
518.9469894728406
 31
0.0
  0
ARC
  5
228
330
1F
100
AcDbEntity
  8
2
  6
Continuous
 62
    90
370
     9
100
AcDbCircle
 10
370.977326279069
 20
687.0524431810036
 30
0.0
 40
0.3
100
AcDbArc
 50
89.99999999999991
 51
179.9999999999998
  0
ARC
  5
229
330
1F
100
AcDbEntity
  8
2
  6
Continuous
 62
    90
370
     9
100
AcDbCircle
 10
393.8773262790688
 20
687.0524431810037
 30
0.0
 40
0.3
100
AcDbArc
 50
0.0
 51
89.99999999999991
  0
LINE
  5
22A
330
1F
100
AcDbEntity
  8
2
  6
Continuous
 62
    90
370
     9
100
AcDbLine
 10
393.8773262790688
 20
687.3524431810037
 30
0.0
 11
370.977326279069
 21
687.3524431810035
 31
0.0
  0
LINE
  5
22B
330
1F
100
AcDbEntity
  8
2
  6
Continuous
 62
    90
370
     9
100
AcDbLine
 10
370.677326279069
 20
680.1664941810036
 30
0.0
 11
370.677326279069
 21
655.6524431810036
 31
0.0
  0
ARC
  5
22C
330
1F
100
AcDbEntity
  8
2
  6
Continuous
 62
    90
370
     9
100
AcDbCircle
 10
370.977326279069
 20
655.6524431810036
 30
0.0
 40
0.3
100
AcDbArc
 50
179.9999999999998
 51
269.9999999999998
  0
ARC
  5
22D
330
1F
100
AcDbEntity
  8
2
  6
Continuous
 62
    90
370
     9
100
AcDbCircle
 10
393.8773262790691
 20
655.6524431810037
 30
0.0
 40
0.3
100
AcDbArc
 50
269.9999999999998
 51
0.0
  0
LINE
  5
22E
330
1F
100
AcDbEntity
  8
2
  6
Continuous
 62
    90
370
     9
100
AcDbLine
 10
370.977326279069
 20
655.3524431810035
 30
0.0
 11
393.8773262790691
 21
655.3524431810037
 31
0.0
  0
LINE
  5
22F
330
1F
100
AcDbEntity
  8
2
  6
Continuous
 62
    90
370
     9
100
AcDbLine
 10
394.177326279069
 20
687.0524431810037
 30
0.0
 11
394.177326279069
 21
655.6524431810037
 31
0.0
  0
LINE
  5
230
330
1F
100
AcDbEntity
  8
2
  6
Continuous
 62
    90
370
     9
100
AcDbLine
 10
370.677326279069
 20
687.0524431810036
 30
0.0
 11
370.677326279069
 21
655.6524431810036
 31
0.0
  0
LINE
  5
231
330
1F
100
AcDbEntity
  8
2
  6
Continuous
 62
    90
370
     9
100
AcDbLine
 10
316.677326279069
 20
684.8524431810033
 30
0.0
 11
316.677326279069
 21
657.8524431810033
 31
0.0
  0
LINE
  5
232
330
1F
100
AcDbEntity
  8
2
  6
Continuous
 62
    90
370
     9
100
AcDbLine
 10
370.677326279069
 20
655.8524431810035
 30
0.0
 11
370.677326279069
 21
686.8524431810035
 31
0.0
  0
LINE
  5
233
330
1F
100
AcDbEntity
  8
2
  6
Continuous
 62
    90
370
     9
100
AcDbLine
 10
318.177326279069
 20
686.8524431810033
 30
0.0
 11
370.677326279069
 21
686.8524431810035
 31
0.0
  0
LINE
  5
234
330
1F
100
AcDbEntity
  8
2
  6
Continuous
 62
    90
370
     9
100
AcDbLine
 10
318.177326279069
 20
655.8524431810033
 30
0.0
 11
370.677326279069
 21
655.8524431810035
 31
0.0
  0
LINE
  5
235
330
1F
100
AcDbEntity
  8
2
  6
Continuous
 62
    90
370
     9
100
AcDbLine
 10
316.677326279069
 20
657.8524431810033
 30
0.0
 11
318.177326279069
 21
655.8524431810033
 31
0.0
  0
LINE
  5
236
330
1F
100
AcDbEntity
  8
2
  6
Continuous
 62
    90
370
     9
100
AcDbLine
 10
316.677326279069
 20
684.8524431810033
 30
0.0
 11
318.177326279069
 21
686.8524431810033
 31
0.0
  0
LINE
  5
237
330
1F
100
AcDbEntity
  8
2
  6
Continuous
 62
    90
370
     9
100
AcDbLine
 10
240.1599071252704
 20
447.9469894728408
 30
0.0
 11
240.1599071252704
 21
495.4041354928407
 31
0.0
  0
LINE
  5
238
330
1F
100
AcDbEntity
  8
2
  6
Continuous
 62
    90
370
     9
100
AcDbLine
 10
240.1599071252704
 20
447.9469894728408
 30
0.0
 11
266.6599071252704
 21
447.9469894728408
 31
0.0
  0
LINE
  5
239
330
1F
100
AcDbEntity
  8
2
  6
Continuous
 62
    90
370
     9
100
AcDbLine
 10
266.6599071252704
 20
447.9469894728408
 30
0.0
 11
266.6599071252704
 21
495.4041354928407
 31
0.0
  0
ARC
  5
23A
330
1F
100
AcDbEntity
  8
2
  6
Continuous
 62
    90
370
     9
100
AcDbCircle
 10
253.4099071252704
 20
503.4469894728408
 30
0.0
 40
15.5
100
AcDbArc
 50
328.7419206899994
 51
211.2580793100003
  0
DIMENSION
  5
246
330
1F
100
AcDbEntity
  8
6
  6
Continuous
 62
     7
370
     9
100
AcDbDimension
  2
Dim12
 10
237.4099071252705
 20
549.4469894728408
 30
0.0
 11
253.4099071252705
 21
556.4469894728408
 31
0.0
 70
   160
  1
<>
 71
     5
 42
-1.0
  3
Standard
100
AcDbAlignedDimension
 13
237.4099071252704
 23
502.5225450283966
 33
0.0
 14
269.4099071252704
 24
502.5225450283966
 34
0.0
100
AcDbRotatedDimension
1001
ACAD
1000
DSTYLE
1002
{
1070
   344
1005
3C
1070
   343
1005
3C
1070
   173
1070
     1
1070
   289
1070
     2
1070
   279
1070
     2
1070
   288
1070
     1
1070
    77
1070
     3
1070
   172
1070
     1
1070
   174
1070
     0
1070
    74
1070
     0
1070
    73
1070
     0
1070
   284
1070
     8
1070
    78
1070
     8
1070
   140
1040
3.0
1070
    40
1040
4.0
1070
    42
1040
2.0
1070
    44
1040
1.0
1070
    43
1040
10.0
1070
   271
1070
     2
1070
    41
1040
2.0
1002
}
  0
DIMENSION
  5
252
330
1F
100
AcDbEntity
  8
6
  6
Continuous
 62
     7
370
     9
100
AcDbDimension
  2
Dim13
 10
180.1599071252704
 20
519.4469894728401
 30
0.0
 11
173.1599071252704
 21
484.1996768371351
 31
0.0
 70
   160
  1
<>
 71
     5
 42
-1.0
  3
Standard
100
AcDbAlignedDimension
 13
253.397750200694
 23
519.4469894728408
 33
0.0
 14
240.1599071252704
 24
447.9469894728408
 34
0.0
 50
89.99999999999977
100
AcDbRotatedDimension
1001
ACAD
1000
DSTYLE
1002
{
1070
   344
1005
3C
1070
   343
1005
3C
1070
   173
1070
     1
1070
   289
1070
     2
1070
   279
1070
     2
1070
   288
1070
     1
1070
    77
1070
     3
1070
   172
1070
     1
1070
   174
1070
     0
1070
    74
1070
     0
1070
    73
1070
     0
1070
   284
1070
     8
1070
    78
1070
     8
1070
   140
1040
3.0
1070
    40
1040
4.0
1070
    42
1040
2.0
1070
    44
1040
1.0
1070
    43
1040
10.0
1070
   271
1070
     2
1070
    41
1040
2.0
1002
}
  0
DIMENSION
  5
25E
330
1F
100
AcDbEntity
  8
6
  6
Continuous
 62
     7
370
     9
100
AcDbDimension
  2
Dim14
 10
240.1599071252699
 20
407.9469894728406
 30
0.0
 11
253.4099071252699
 21
414.9469894728406
 31
0.0
 70
   160
  1
<>
 71
     5
 42
-1.0
  3
Standard
100
AcDbAlignedDimension
 13
240.1599071252704
 23
447.9469894728408
 33
0.0
 14
266.6599071252704
 24
447.9469894728408
 34
0.0
100
AcDbRotatedDimension
1001
ACAD
1000
DSTYLE
1002
{
1070
   344
1005
3C
1070
   343
1005
3C
1070
   173
1070
     1
1070
   289
1070
     2
1070
   279
1070
     2
1070
   288
1070
     1
1070
    77
1070
     3
1070
   172
1070
     1
1070
   174
1070
     0
1070
    74
1070
     0
1070
    73
1070
     0
1070
   284
1070
     8
1070
    78
1070
     8
1070
   140
1040
3.0
1070
    40
1040
4.0
1070
    42
1040
2.0
1070
    44
1040
1.0
1070
    43
1040
10.0
1070
   271
1070
     2
1070
    41
1040
2.0
1002
}
  0
LINE
  5
25F
330
1F
100
AcDbEntity
  8
1
  6
DASHDOT
 62
    45
370
     9
100
AcDbLine
 10
253.4099071252704
 20
521.6726535754952
 30
0.0
 11
253.4099071252704
 21
445.5206794728407
 31
0.0
  0
LINE
  5
260
330
1F
100
AcDbEntity
  8
1
  6
DASHDOT
 62
    45
370
     9
100
AcDbLine
 10
273.2099071252703
 20
503.4469894728408
 30
0.0
 11
233.6099071252704
 21
503.4469894728408
 31
0.0
  0
LINE
  5
261
330
1F
100
AcDbEntity
  8
2
  6
Continuous
 62
    90
370
     9
100
AcDbLine
 10
316.6773265852189
 20
447.9469894728408
 30
0.0
 11
316.6773265852189
 21
516.9469894728408
 31
0.0
  0
ARC
  5
262
330
1F
100
AcDbEntity
  8
2
  6
Continuous
 62
    90
370
     9
100
AcDbCircle
 10
370.977326585219
 20
268.2219531730548
 30
0.0
 40
0.3
100
AcDbArc
 50
89.99999999999991
 51
179.9999999999998
  0
ARC
  5
263
330
1F
100
AcDbEntity
  8
2
  6
Continuous
 62
    90
370
     9
100
AcDbCircle
 10
393.877326585219
 20
268.2219531730549
 30
0.0
 40
0.3
100
AcDbArc
 50
0.0
 51
89.99999999999991
  0
LINE
  5
264
330
1F
100
AcDbEntity
  8
2
  6
Continuous
 62
    90
370
     9
100
AcDbLine
 10
393.877326585219
 20
268.5219531730549
 30
0.0
 11
370.977326585219
 21
268.5219531730548
 31
0.0
  0
ARC
  5
265
330
1F
100
AcDbEntity
  8
2
  6
Continuous
 62
    90
370
     9
100
AcDbCircle
 10
370.9773265852191
 20
236.8219531730549
 30
0.0
 40
0.3
100
AcDbArc
 50
179.9999999999998
 51
269.9999999999998
  0
ARC
  5
266
330
1F
100
AcDbEntity
  8
2
  6
Continuous
 62
    90
370
     9
100
AcDbCircle
 10
393.8773265852191
 20
236.821953173055
 30
0.0
 40
0.3
100
AcDbArc
 50
269.9999999999998
 51
0.0
  0
LINE
  5
267
330
1F
100
AcDbEntity
  8
2
  6
Continuous
 62
    90
370
     9
100
AcDbLine
 10
370.9773265852191
 20
236.5219531730549
 30
0.0
 11
393.8773265852191
 21
236.521953173055
 31
0.0
  0
LINE
  5
268
330
1F
100
AcDbEntity
  8
2
  6
Continuous
 62
    90
370
     9
100
AcDbLine
 10
370.6773265852189
 20
268.2219531730548
 30
0.0
 11
370.6773265852189
 21
265.7719531730548
 31
0.0
  0
LINE
  5
269
330
1F
100
AcDbEntity
  8
2
  6
Continuous
 62
    90
370
     9
100
AcDbLine
 10
370.6773265852191
 20
239.2719531730548
 30
0.0
 11
370.6773265852191
 21
236.8219531730549
 31
0.0
  0
LINE
  5
26A
330
1F
100
AcDbEntity
  8
2
  6
Continuous
 62
    90
370
     9
100
AcDbLine
 10
394.1773265852189
 20
268.2223817722952
 30
0.0
 11
394.1773265852189
 21
236.8215245751477
 31
0.0
  0
LINE
  5
26B
330
1F
100
AcDbEntity
  8
1
  6
Continuous
 62
    45
370
     9
100
AcDbLine
 10
394.1773262790587
 20
655.3524431809906
 30
0.0
 11
394.1773262790566
 21
687.3524431809989
 31
0.0
  0
LINE
  5
26C
330
1F
100
AcDbEntity
  8
1
  6
Continuous
 62
    45
370
     9
100
AcDbLine
 10
394.1773265852086
 20
487.4469894728279
 30
0.0
 11
394.1773265852065
 21
519.4469894728362
 31
0.0
  0
LINE
  5
26D
330
1F
100
AcDbEntity
  8
1
  6
Continuous
 62
    45
370
     9
100
AcDbLine
 10
394.1773265852087
 20
236.5219531730418
 30
0.0
 11
394.1773265852066
 21
268.5219531730501
 31
0.0
  0
LINE
  5
26E
330
1F
100
AcDbEntity
  8
1
  6
HIDDEN
 62
    45
370
     9
100
AcDbLine
 10
377.6773259728968
 20
684.3524431810034
 30
0.0
 11
392.6773259729071
 21
684.3524431810034
 31
0.0
  0
LINE
  5
26F
330
1F
100
AcDbEntity
  8
1
  6
HIDDEN
 62
    45
370
     9
100
AcDbLine
 10
394.1773262790577
 20
687.3524431809989
 30
0.0
 11
392.6773259729071
 21
684.3524431810034
 31
0.0
  0
LINE
  5
270
330
1F
100
AcDbEntity
  8
1
  6
HIDDEN
 62
    45
370
     9
100
AcDbLine
 10
377.6773262790467
 20
516.4469894728408
 30
0.0
 11
392.677326279057
 21
516.4469894728408
 31
0.0
  0
LINE
  5
271
330
1F
100
AcDbEntity
  8
1
  6
HIDDEN
 62
    45
370
     9
100
AcDbLine
 10
394.1773265852076
 20
519.4469894728362
 30
0.0
 11
392.677326279057
 21
516.4469894728408
 31
0.0
  0
LINE
  5
272
330
1F
100
AcDbEntity
  8
1
  6
HIDDEN
 62
    45
370
     9
100
AcDbLine
 10
377.6773262790468
 20
265.5219531730547
 30
0.0
 11
392.6773262790571
 21
265.5219531730547
 31
0.0
  0
LINE
  5
273
330
1F
100
AcDbEntity
  8
1
  6
HIDDEN
 62
    45
370
     9
100
AcDbLine
 10
394.1773265852077
 20
268.5219531730501
 30
0.0
 11
392.6773262790571
 21
265.5219531730547
 31
0.0
  0
LINE
  5
274
330
1F
100
AcDbEntity
  8
1
  6
HIDDEN
 62
    45
370
     9
100
AcDbLine
 10
377.6773259728967
 20
658.3524431810034
 30
0.0
 11
392.677325972907
 21
658.3524431810034
 31
0.0
  0
LINE
  5
275
330
1F
100
AcDbEntity
  8
1
  6
HIDDEN
 62
    45
370
     9
100
AcDbLine
 10
394.1773262790576
 20
655.3524431810056
 30
0.0
 11
392.677325972907
 21
658.3524431810034
 31
0.0
  0
LINE
  5
276
330
1F
100
AcDbEntity
  8
1
  6
HIDDEN
 62
    45
370
     9
100
AcDbLine
 10
377.6773262790466
 20
490.4469894728408
 30
0.0
 11
392.6773262790569
 21
490.4469894728408
 31
0.0
  0
LINE
  5
277
330
1F
100
AcDbEntity
  8
1
  6
HIDDEN
 62
    45
370
     9
100
AcDbLine
 10
394.1773265852075
 20
487.4469894728429
 30
0.0
 11
392.6773262790569
 21
490.4469894728408
 31
0.0
  0
LINE
  5
278
330
1F
100
AcDbEntity
  8
1
  6
HIDDEN
 62
    45
370
     9
100
AcDbLine
 10
377.6773262790467
 20
239.5219531730547
 30
0.0
 11
392.677326279057
 21
239.5219531730547
 31
0.0
  0
LINE
  5
279
330
1F
100
AcDbEntity
  8
1
  6
HIDDEN
 62
    45
370
     9
100
AcDbLine
 10
394.1773265852076
 20
236.5219531730568
 30
0.0
 11
392.677326279057
 21
239.5219531730547
 31
0.0
  0
LINE
  5
27A
330
1F
100
AcDbEntity
  8
1
  6
HIDDEN
 62
    45
370
     9
100
AcDbLine
 10
377.6773259728968
 20
684.3524431810034
 30
0.0
 11
377.6773259728967
 21
658.3524431810034
 31
0.0
  0
LINE
  5
27B
330
1F
100
AcDbEntity
  8
1
  6
HIDDEN
 62
    45
370
     9
100
AcDbLine
 10
377.6773262790467
 20
516.4469894728408
 30
0.0
 11
377.6773262790466
 21
490.4469894728408
 31
0.0
  0
LINE
  5
27C
330
1F
100
AcDbEntity
  8
1
  6
HIDDEN
 62
    45
370
     9
100
AcDbLine
 10
377.6773262790468
 20
265.5219531730547
 30
0.0
 11
377.6773262790467
 21
239.5219531730547
 31
0.0
  0
LINE
  5
27D
330
1F
100
AcDbEntity
  8
2
  6
Continuous
 62
    90
370
    18
100
AcDbLine
 10
394.1773265852119
 20
236.5219531730592
 30
0.0
 11
430.0598431647363
 21
236.5219531730589
 31
0.0
  0
LINE
  5
27E
330
1F
100
AcDbEntity
  8
2
  6
Continuous
 62
    90
370
    18
100
AcDbLine
 10
394.1773265852119
 20
268.5219531730501
 30
0.0
 11
430.0598431647363
 21
268.5219531730505
 31
0.0
  0
LINE
  5
27F
330
1F
100
AcDbEntity
  8
2
  6
Continuous
 62
    90
370
    18
100
AcDbLine
 10
394.1773265852119
 20
487.4469894728453
 30
0.0
 11
430.0598431647363
 21
487.446989472845
 31
0.0
  0
LINE
  5
280
330
1F
100
AcDbEntity
  8
2
  6
Continuous
 62
    90
370
    18
100
AcDbLine
 10
394.1773265852119
 20
519.4469894728362
 30
0.0
 11
430.0598431647363
 21
519.4469894728365
 31
0.0
  0
LINE
  5
281
330
1F
100
AcDbEntity
  8
2
  6
Continuous
 62
    90
370
    18
100
AcDbLine
 10
394.1773265852119
 20
655.352443181008
 30
0.0
 11
430.0598431647363
 21
655.3524431810076
 31
0.0
  0
LINE
  5
282
330
1F
100
AcDbEntity
  8
2
  6
Continuous
 62
    90
370
    18
100
AcDbLine
 10
394.1773265852119
 20
687.3524431809989
 30
0.0
 11
430.0598431647363
 21
687.3524431809992
 31
0.0
  0
DIMENSION
  5
28E
330
1F
100
AcDbEntity
  8
6
  6
Continuous
 62
     7
370
     9
100
AcDbDimension
  2
Dim15
 10
935.6773262790603
 20
197.5260869565212
 30
0.0
 11
635.6773262790591
 21
204.5260869565212
 31
0.0
 70
   160
  1
<>
 71
     5
 42
-1.0
  3
Standard
100
AcDbAlignedDimension
 13
935.6773262790607
 23
237.5260869565212
 33
0.0
 14
335.677326585219
 24
237.5260869565212
 34
0.0
100
AcDbRotatedDimension
1001
ACAD
1000
DSTYLE
1002
{
1070
   344
1005
3C
1070
   343
1005
3C
1070
   173
1070
     1
1070
   289
1070
     2
1070
   279
1070
     2
1070
   288
1070
     1
1070
    77
1070
     3
1070
   172
1070
     1
1070
   174
1070
     0
1070
    74
1070
     0
1070
    73
1070
     0
1070
   284
1070
     8
1070
    78
1070
     8
1070
   140
1040
3.0
1070
    40
1040
4.0
1070
    42
1040
2.0
1070
    44
1040
1.0
1070
    43
1040
10.0
1070
   271
1070
     2
1070
    41
1040
2.0
1002
}
  0
DIMENSION
  5
29A
330
1F
100
AcDbEntity
  8
6
  6
Continuous
 62
     7
370
     9
100
AcDbDimension
  2
Dim16
 10
316.6773262790589
 20
579.4469894728408
 30
0.0
 11
635.677326279058
 21
586.4469894728408
 31
0.0
 70
   160
  1
<>
 71
     5
 42
-1.0
  3
Standard
100
AcDbAlignedDimension
 13
316.6773262790587
 23
519.4469894728405
 33
0.0
 14
954.6773265852084
 24
519.4469894728405
 34
0.0
100
AcDbRotatedDimension
1001
ACAD
1000
DSTYLE
1002
{
1070
   344
1005
3C
1070
   343
1005
3C
1070
   173
1070
     1
1070
   289
1070
     2
1070
   279
1070
     2
1070
   288
1070
     1
1070
    77
1070
     3
1070
   172
1070
     1
1070
   174
1070
     0
1070
    74
1070
     0
1070
    73
1070
     0
1070
   284
1070
     8
1070
    78
1070
     8
1070
   140
1040
3.0
1070
    40
1040
4.0
1070
    42
1040
2.0
1070
    44
1040
1.0
1070
    43
1040
10.0
1070
   271
1070
     2
1070
    41
1040
2.0
1002
}
  0
LINE
  5
29B
330
1F
100
AcDbEntity
  8
1
  6
DASHDOT
 62
    45
370
     9
100
AcDbLine
 10
295.9768160449045
 20
671.3524431810034
 30
0.0
 11
972.1462001028754
 21
671.3524431810034
 31
0.0
  0
LINE
  5
29C
330
1F
100
AcDbEntity
  8
1
  6
DASHDOT
 62
    45
370
     9
100
AcDbLine
 10
295.9768160449045
 20
503.4469894728408
 30
0.0
 11
972.1462001028754
 21
503.4469894728408
 31
0.0
  0
DIMENSION
  5
2A8
330
1F
100
AcDbEntity
  8
6
  6
Continuous
 62
     7
370
     9
100
AcDbDimension
  2
Dim17
 10
377.6773262790587
 20
549.4469894728408
 30
0.0
 11
635.6773262790578
 21
556.4469894728408
 31
0.0
 70
   160
  1
<>
 71
     5
 42
-1.0
  3
Standard
100
AcDbAlignedDimension
 13
377.6773262790587
 23
519.4469894728406
 33
0.0
 14
893.6773265852084
 24
519.4469894728405
 34
0.0
100
AcDbRotatedDimension
1001
ACAD
1000
DSTYLE
1002
{
1070
   344
1005
3C
1070
   343
1005
3C
1070
   173
1070
     1
1070
   289
1070
     2
1070
   279
1070
     2
1070
   288
1070
     1
1070
    77
1070
     3
1070
   172
1070
     1
1070
   174
1070
     0
1070
    74
1070
     0
1070
    73
1070
     0
1070
   284
1070
     8
1070
    78
1070
     8
1070
   140
1040
3.0
1070
    40
1040
4.0
1070
    42
1040
2.0
1070
    44
1040
1.0
1070
    43
1040
10.0
1070
   271
1070
     2
1070
    41
1040
2.0
1002
}
  0
LINE
  5
2A9
330
1F
100
AcDbEntity
  8
1
  6
DASHDOT
 62
    45
370
     9
100
AcDbLine
 10
303.3198298202412
 20
252.5219531730547
 30
0.0
 11
965.3977524749728
 21
252.5219531730547
 31
0.0
  0
DIMENSION
  5
2B5
330
1F
100
AcDbEntity
  8
6
  6
Continuous
 62
     7
370
     9
100
AcDbDimension
  2
Dim18
 10
394.1773262790577
 20
719.3524431809992
 30
0.0
 11
413.6773262790576
 21
726.3524431809992
 31
0.0
 70
   160
  1
<>
 71
     5
 42
-1.0
  3
Standard
100
AcDbAlignedDimension
 13
394.1773262790576
 23
687.3524431809992
 33
0.0
 14
433.1773262790576
 24
687.3524431809992
 34
0.0
100
AcDbRotatedDimension
1001
ACAD
1000
DSTYLE
1002
{
1070
   344
1005
3C
1070
   343
1005
3C
1070
   173
1070
     1
1070
   289
1070
     2
1070
   279
1070
     2
1070
   288
1070
     1
1070
    77
1070
     3
1070
   172
1070
     1
1070
   174
1070
     0
1070
    74
1070
     0
1070
    73
1070
     0
1070
   284
1070
     8
1070
    78
1070
     8
1070
   140
1040
3.0
1070
    40
1040
4.0
1070
    42
1040
2.0
1070
    44
1040
1.0
1070
    43
1040
10.0
1070
   271
1070
     2
1070
    41
1040
2.0
1002
}
  0
DIMENSION
  5
2C0
330
1F
100
AcDbEntity
  8
6
  6
Continuous
 62
     7
370
     9
100
AcDbDimension
  2
Dim19
 10
433.1773262790577
 20
719.3524431809992
 30
0.0
 11
455.6773262790577
 21
726.3524431809992
 31
0.0
 70
   160
  1
<>
 71
     5
 42
-1.0
  3
Standard
100
AcDbAlignedDimension
 13
433.1773262790576
 23
687.3524431809992
 33
0.0
 14
478.1773262790577
 24
687.3524431809992
 34
0.0
100
AcDbRotatedDimension
1001
ACAD
1000
DSTYLE
1002
{
1070
   344
1005
3C
1070
   343
1005
3C
1070
   173
1070
     1
1070
   289
1070
     2
1070
   279
1070
     2
1070
   288
1070
     1
1070
    77
1070
     3
1070
   172
1070
     1
1070
   174
1070
     0
1070
    74
1070
     0
1070
    73
1070
     0
1070
   284
1070
     8
1070
    78
1070
     8
1070
   140
1040
3.0
1070
    40
1040
4.0
1070
    42
1040
2.0
1070
    44
1040
1.0
1070
    43
1040
10.0
1070
   271
1070
     2
1070
    41
1040
2.0
1002
}
  0
DIMENSION
  5
2CB
330
1F
100
AcDbEntity
  8
6
  6
Continuous
 62
     7
370
     9
100
AcDbDimension
  2
Dim20
 10
478.1773262790577
 20
719.3524431809992
 30
0.0
 11
500.6773262790577
 21
726.3524431809992
 31
0.0
 70
   160
  1
<>
 71
     5
 42
-1.0
  3
Standard
100
AcDbAlignedDimension
 13
478.1773262790577
 23
687.3524431809992
 33
0.0
 14
523.1773262790578
 24
687.3524431809992
 34
0.0
100
AcDbRotatedDimension
1001
ACAD
1000
DSTYLE
1002
{
1070
   344
1005
3C
1070
   343
1005
3C
1070
   173
1070
     1
1070
   289
1070
     2
1070
   279
1070
     2
1070
   288
1070
     1
1070
    77
1070
     3
1070
   172
1070
     1
1070
   174
1070
     0
1070
    74
1070
     0
1070
    73
1070
     0
1070
   284
1070
     8
1070
    78
1070
     8
1070
   140
1040
3.0
1070
    40
1040
4.0
1070
    42
1040
2.0
1070
    44
1040
1.0
1070
    43
1040
10.0
1070
   271
1070
     2
1070
    41
1040
2.0
1002
}
  0
DIMENSION
  5
2D6
330
1F
100
AcDbEntity
  8
6
  6
Continuous
 62
     7
370
     9
100
AcDbDimension
  2
Dim21
 10
523.1773262790578
 20
719.3524431809992
 30
0.0
 11
545.6773262790578
 21
726.3524431809992
 31
0.0
 70
   160
  1
<>
 71
     5
 42
-1.0
  3
Standard
100
AcDbAlignedDimension
 13
523.1773262790578
 23
687.3524431809992
 33
0.0
 14
568.1773262790578
 24
687.3524431809992
 34
0.0
100
AcDbRotatedDimension
1001
ACAD
1000
DSTYLE
1002
{
1070
   344
1005
3C
1070
   343
1005
3C
1070
   173
1070
     1
1070
   289
1070
     2
1070
   279
1070
     2
1070
   288
1070
     1
1070
    77
1070
     3
1070
   172
1070
     1
1070
   174
1070
     0
1070
    74
1070
     0
1070
    73
1070
     0
1070
   284
1070
     8
1070
    78
1070
     8
1070
   140
1040
3.0
1070
    40
1040
4.0
1070
    42
1040
2.0
1070
    44
1040
1.0
1070
    43
1040
10.0
1070
   271
1070
     2
1070
    41
1040
2.0
1002
}
  0
DIMENSION
  5
2E1
330
1F
100
AcDbEntity
  8
6
  6
Continuous
 62
     7
370
     9
100
AcDbDimension
  2
Dim22
 10
568.1773262790578
 20
719.3524431809992
 30
0.0
 11
590.6773262790578
 21
726.3524431809992
 31
0.0
 70
   160
  1
<>
 71
     5
 42
-1.0
  3
Standard
100
AcDbAlignedDimension
 13
568.1773262790578
 23
687.3524431809992
 33
0.0
 14
613.1773262790578
 24
687.3524431809992
 34
0.0
100
AcDbRotatedDimension
1001
ACAD
1000
DSTYLE
1002
{
1070
   344
1005
3C
1070
   343
1005
3C
1070
   173
1070
     1
1070
   289
1070
     2
1070
   279
1070
     2
1070
   288
1070
     1
1070
    77
1070
     3
1070
   172
1070
     1
1070
   174
1070
     0
1070
    74
1070
     0
1070
    73
1070
     0
1070
   284
1070
     8
1070
    78
1070
     8
1070
   140
1040
3.0
1070
    40
1040
4.0
1070
    42
1040
2.0
1070
    44
1040
1.0
1070
    43
1040
10.0
1070
   271
1070
     2
1070
    41
1040
2.0
1002
}
  0
DIMENSION
  5
2EC
330
1F
100
AcDbEntity
  8
6
  6
Continuous
 62
     7
370
     9
100
AcDbDimension
  2
Dim23
 10
613.1773262790578
 20
719.3524431809992
 30
0.0
 11
635.6773262790578
 21
726.3524431809992
 31
0.0
 70
   160
  1
<>
 71
     5
 42
-1.0
  3
Standard
100
AcDbAlignedDimension
 13
613.1773262790578
 23
687.3524431809992
 33
0.0
 14
658.1773262790578
 24
687.3524431809992
 34
0.0
100
AcDbRotatedDimension
1001
ACAD
1000
DSTYLE
1002
{
1070
   344
1005
3C
1070
   343
1005
3C
1070
   173
1070
     1
1070
   289
1070
     2
1070
   279
1070
     2
1070
   288
1070
     1
1070
    77
1070
     3
1070
   172
1070
     1
1070
   174
1070
     0
1070
    74
1070
     0
1070
    73
1070
     0
1070
   284
1070
     8
1070
    78
1070
     8
1070
   140
1040
3.0
1070
    40
1040
4.0
1070
    42
1040
2.0
1070
    44
1040
1.0
1070
    43
1040
10.0
1070
   271
1070
     2
1070
    41
1040
2.0
1002
}
  0
DIMENSION
  5
2F7
330
1F
100
AcDbEntity
  8
6
  6
Continuous
 62
     7
370
     9
100
AcDbDimension
  2
Dim24
 10
658.1773262790578
 20
719.3524431809992
 30
0.0
 11
680.6773262790578
 21
726.3524431809992
 31
0.0
 70
   160
  1
<>
 71
     5
 42
-1.0
  3
Standard
100
AcDbAlignedDimension
 13
658.1773262790578
 23
687.3524431809992
 33
0.0
 14
703.1773262790578
 24
687.3524431809992
 34
0.0
100
AcDbRotatedDimension
1001
ACAD
1000
DSTYLE
1002
{
1070
   344
1005
3C
1070
   343
1005
3C
1070
   173
1070
     1
1070
   289
1070
     2
1070
   279
1070
     2
1070
   288
1070
     1
1070
    77
1070
     3
1070
   172
1070
     1
1070
   174
1070
     0
1070
    74
1070
     0
1070
    73
1070
     0
1070
   284
1070
     8
1070
    78
1070
     8
1070
   140
1040
3.0
1070
    40
1040
4.0
1070
    42
1040
2.0
1070
    44
1040
1.0
1070
    43
1040
10.0
1070
   271
1070
     2
1070
    41
1040
2.0
1002
}
  0
DIMENSION
  5
302
330
1F
100
AcDbEntity
  8
6
  6
Continuous
 62
     7
370
     9
100
AcDbDimension
  2
Dim25
 10
703.1773262790578
 20
719.3524431809992
 30
0.0
 11
725.6773262790578
 21
726.3524431809992
 31
0.0
 70
   160
  1
<>
 71
     5
 42
-1.0
  3
Standard
100
AcDbAlignedDimension
 13
703.1773262790578
 23
687.3524431809992
 33
0.0
 14
748.1773262790578
 24
687.3524431809992
 34
0.0
100
AcDbRotatedDimension
1001
ACAD
1000
DSTYLE
1002
{
1070
   344
1005
3C
1070
   343
1005
3C
1070
   173
1070
     1
1070
   289
1070
     2
1070
   279
1070
     2
1070
   288
1070
     1
1070
    77
1070
     3
1070
   172
1070
     1
1070
   174
1070
     0
1070
    74
1070
     0
1070
    73
1070
     0
1070
   284
1070
     8
1070
    78
1070
     8
1070
   140
1040
3.0
1070
    40
1040
4.0
1070
    42
1040
2.0
1070
    44
1040
1.0
1070
    43
1040
10.0
1070
   271
1070
     2
1070
    41
1040
2.0
1002
}
  0
DIMENSION
  5
30D
330
1F
100
AcDbEntity
  8
6
  6
Continuous
 62
     7
370
     9
100
AcDbDimension
  2
Dim26
 10
748.1773262790578
 20
719.3524431809992
 30
0.0
 11
770.6773262790578
 21
726.3524431809992
 31
0.0
 70
   160
  1
<>
 71
     5
 42
-1.0
  3
Standard
100
AcDbAlignedDimension
 13
748.1773262790578
 23
687.3524431809992
 33
0.0
 14
793.1773262790578
 24
687.3524431809992
 34
0.0
100
AcDbRotatedDimension
1001
ACAD
1000
DSTYLE
1002
{
1070
   344
1005
3C
1070
   343
1005
3C
1070
   173
1070
     1
1070
   289
1070
     2
1070
   279
1070
     2
1070
   288
1070
     1
1070
    77
1070
     3
1070
   172
1070
     1
1070
   174
1070
     0
1070
    74
1070
     0
1070
    73
1070
     0
1070
   284
1070
     8
1070
    78
1070
     8
1070
   140
1040
3.0
1070
    40
1040
4.0
1070
    42
1040
2.0
1070
    44
1040
1.0
1070
    43
1040
10.0
1070
   271
1070
     2
1070
    41
1040
2.0
1002
}
  0
DIMENSION
  5
318
330
1F
100
AcDbEntity
  8
6
  6
Continuous
 62
     7
370
     9
100
AcDbDimension
  2
Dim27
 10
793.1773262790578
 20
719.3524431809992
 30
0.0
 11
815.6773262790578
 21
726.3524431809992
 31
0.0
 70
   160
  1
<>
 71
     5
 42
-1.0
  3
Standard
100
AcDbAlignedDimension
 13
793.1773262790578
 23
687.3524431809992
 33
0.0
 14
838.1773262790578
 24
687.3524431809992
 34
0.0
100
AcDbRotatedDimension
1001
ACAD
1000
DSTYLE
1002
{
1070
   344
1005
3C
1070
   343
1005
3C
1070
   173
1070
     1
1070
   289
1070
     2
1070
   279
1070
     2
1070
   288
1070
     1
1070
    77
1070
     3
1070
   172
1070
     1
1070
   174
1070
     0
1070
    74
1070
     0
1070
    73
1070
     0
1070
   284
1070
     8
1070
    78
1070
     8
1070
   140
1040
3.0
1070
    40
1040
4.0
1070
    42
1040
2.0
1070
    44
1040
1.0
1070
    43
1040
10.0
1070
   271
1070
     2
1070
    41
1040
2.0
1002
}
  0
DIMENSION
  5
323
330
1F
100
AcDbEntity
  8
6
  6
Continuous
 62
     7
370
     9
100
AcDbDimension
  2
Dim28
 10
838.1773262790578
 20
719.3524431809992
 30
0.0
 11
857.6773262790578
 21
726.3524431809992
 31
0.0
 70
   160
  1
<>
 71
     5
 42
-1.0
  3
Standard
100
AcDbAlignedDimension
 13
838.1773262790578
 23
687.3524431809992
 33
0.0
 14
877.1773262790578
 24
687.3524431809992
 34
0.0
100
AcDbRotatedDimension
1001
ACAD
1000
DSTYLE
1002
{
1070
   344
1005
3C
1070
   343
1005
3C
1070
   173
1070
     1
1070
   289
1070
     2
1070
   279
1070
     2
1070
   288
1070
     1
1070
    77
1070
     3
1070
   172
1070
     1
1070
   174
1070
     0
1070
    74
1070
     0
1070
    73
1070
     0
1070
   284
1070
     8
1070
    78
1070
     8
1070
   140
1040
3.0
1070
    40
1040
4.0
1070
    42
1040
2.0
1070
    44
1040
1.0
1070
    43
1040
10.0
1070
   271
1070
     2
1070
    41
1040
2.0
1002
}
  0
LINE
  5
324
330
1F
100
AcDbEntity
  8
2
  6
Continuous
 62
    90
370
     9
100
AcDbLine
 10
954.6773262790584
 20
447.9469894728408
 30
0.0
 11
954.6773262790584
 21
516.9469894728408
 31
0.0
  0
LINE
  5
325
330
1F
100
AcDbEntity
  8
8
  6
Continuous
 62
   171
370
    18
100
AcDbLine
 10
270.6159722222192
 20
98.37499999999997
 30
0.0
 11
434.6159722222192
 21
98.37499999999997
 31
0.0
  0
TEXT
  5
326
330
1F
100
AcDbEntity
  8
8
  6
Continuous
 62
   171
370
     9
100
AcDbText
 10
282.615972222219
 20
102.375
 30
0.0
 40
12.0
  1
ブラケット
 41
0.6666666666666666
100
AcDbText
  0
TEXT
  5
327
330
1F
100
AcDbEntity
  8
8
  6
Continuous
 62
   171
370
     9
100
AcDbText
 10
374.215972222219
 20
102.375
 30
0.0
 40
12.0
  1
アルミ
 41
0.6666666666666657
100
AcDbText
  0
LINE
  5
328
330
1F
100
AcDbEntity
  8
8
  6
Continuous
 62
   171
370
    18
100
AcDbLine
 10
270.6159722222192
 20
118.375
 30
0.0
 11
434.6159722222192
 21
118.375
 31
0.0
  0
TEXT
  5
329
330
1F
100
AcDbEntity
  8
8
  6
Continuous
 62
   171
370
     9
100
AcDbText
 10
287.415972222219
 20
122.375
 30
0.0
 40
12.0
  1
本　　体
 41
0.6666666666666663
100
AcDbText
  0
TEXT
  5
32A
330
1F
100
AcDbEntity
  8
8
  6
Continuous
 62
   171
370
     9
100
AcDbText
 10
355.0159722222189
 20
122.375
 30
0.0
 40
12.0
  1
ハードメイプル
 41
0.6666666666666671
100
AcDbText
  0
LINE
  5
32B
330
1F
100
AcDbEntity
  8
8
  6
Continuous
 62
   171
370
    18
100
AcDbLine
 10
270.6159722222192
 20
138.375
 30
0.0
 11
434.6159722222192
 21
138.375
 31
0.0
  0
LINE
  5
32C
330
1F
100
AcDbEntity
  8
8
  6
Continuous
 62
   171
370
    18
100
AcDbLine
 10
342.6159722222192
 20
98.37499999999997
 30
0.0
 11
342.6159722222192
 21
158.375
 31
0.0
  0
LINE
  5
32D
330
1F
100
AcDbEntity
  8
8
  6
Continuous
 62
   171
370
    18
100
AcDbLine
 10
270.6159722222192
 20
98.37499999999997
 30
0.0
 11
270.6159722222192
 21
158.375
 31
0.0
  0
LINE
  5
32E
330
1F
100
AcDbEntity
  8
8
  6
Continuous
 62
   171
370
    18
100
AcDbLine
 10
270.6159722222192
 20
158.375
 30
0.0
 11
434.6159722222192
 21
158.375
 31
0.0
  0
LINE
  5
32F
330
1F
100
AcDbEntity
  8
8
  6
Continuous
 62
   171
370
    18
100
AcDbLine
 10
434.6159722222192
 20
98.37499999999997
 30
0.0
 11
434.6159722222192
 21
158.375
 31
0.0
  0
TEXT
  5
330
330
1F
100
AcDbEntity
  8
8
  6
Continuous
 62
   171
370
     9
100
AcDbText
 10
303.6159722222192
 20
162.375
 30
0.0
 40
14.0
  1
材質表
 41
1.944444444444445
100
AcDbText
  0
TEXT
  5
331
330
1F
100
AcDbEntity
  8
8
  6
Continuous
 62
   171
370
     9
100
AcDbText
 10
287.415972222219
 20
142.375
 30
0.0
 40
12.0
  1
名　　称
 41
0.6666666666666683
100
AcDbText
  0
TEXT
  5
332
330
1F
100
AcDbEntity
  8
8
  6
Continuous
 62
   171
370
     9
100
AcDbText
 10
369.4159722222189
 20
142.375
 30
0.0
 40
12.0
  1
材　　質
 41
0.6666666666666683
100
AcDbText
  0
TEXT
  5
333
330
1F
100
AcDbEntity
  8
8
  6
Continuous
 62
   171
370
     9
100
AcDbText
 10
195.0020143489649
 20
122.3750000000001
 30
0.0
 40
12.0
  1
ナチュラル
 41
0.5
100
AcDbText
  0
TEXT
  5
334
330
1F
100
AcDbEntity
  8
8
  6
Continuous
 62
   171
370
     9
100
AcDbText
 10
202.202014348965
 20
102.375
 30
0.0
 40
12.0
  1
ダーク
 41
0.4999999999999979
100
AcDbText
  0
TEXT
  5
335
330
1F
100
AcDbEntity
  8
8
  6
Continuous
 62
   171
370
     9
100
AcDbText
 10
208.202014348965
 20
142.375
 30
0.0
 40
12.0
  1
色
 41
0.6666666666666604
100
AcDbText
  0
LINE
  5
336
330
1F
100
AcDbEntity
  8
8
  6
Continuous
 62
   171
370
    18
100
AcDbLine
 10
83.0020143489649
 20
158.375
 30
0.0
 11
243.0020143489645
 21
158.375
 31
0.0
  0
LINE
  5
337
330
1F
100
AcDbEntity
  8
8
  6
Continuous
 62
   171
370
    18
100
AcDbLine
 10
83.0020143489649
 20
98.37499999999997
 30
0.0
 11
243.0020143489645
 21
98.37499999999997
 31
0.0
  0
LINE
  5
338
330
1F
100
AcDbEntity
  8
8
  6
Continuous
 62
   171
370
    18
100
AcDbLine
 10
83.0020143489649
 20
118.3750000000001
 30
0.0
 11
243.0020143489645
 21
118.3750000000001
 31
0.0
  0
LINE
  5
339
330
1F
100
AcDbEntity
  8
8
  6
Continuous
 62
   171
370
    18
100
AcDbLine
 10
83.0020143489649
 20
138.375
 30
0.0
 11
243.0020143489645
 21
138.375
 31
0.0
  0
TEXT
  5
33A
330
1F
100
AcDbEntity
  8
8
  6
Continuous
 62
   171
370
     9
100
AcDbText
 10
85.7599402748906
 20
122.375
 30
0.0
 40
12.0
  1
ＴＩＷＤ－３２Ｓ６００－Ｎ
 41
0.5000000000000002
100
AcDbText
  0
TEXT
  5
33B
330
1F
100
AcDbEntity
  8
8
  6
Continuous
 62
   171
370
     9
100
AcDbText
 10
85.7599402748906
 20
102.3750000000001
 30
0.0
 40
12.0
  1
ＴＩＷＤ－３２Ｓ６００－Ｄ
 41
0.5000000000000002
100
AcDbText
  0
TEXT
  5
33C
330
1F
100
AcDbEntity
  8
8
  6
Continuous
 62
   171
370
     9
100
AcDbText
 10
112.8289773119276
 20
142.375
 30
0.0
 40
12.0
  1
品　　番
 41
0.6666666666666683
100
AcDbText
  0
TEXT
  5
33D
330
1F
100
AcDbEntity
  8
8
  6
Continuous
 62
   171
370
     9
100
AcDbText
 10
112.3731326345577
 20
162.375
 30
0.0
 40
14.0
  1
品番表
 41
1.944444444444445
100
AcDbText
  0
LINE
  5
33E
330
1F
100
AcDbEntity
  8
8
  6
Continuous
 62
   171
370
    18
100
AcDbLine
 10
83.0020143489649
 20
78.37500000000003
 30
0.0
 11
243.0020143489645
 21
78.37500000000003
 31
0.0
  0
LINE
  5
33F
330
1F
100
AcDbEntity
  8
8
  6
Continuous
 62
   171
370
    18
100
AcDbLine
 10
83.0020143489649
 20
158.375
 30
0.0
 11
83.0020143489649
 21
78.37500000000001
 31
0.0
  0
LINE
  5
340
330
1F
100
AcDbEntity
  8
8
  6
Continuous
 62
   171
370
    18
100
AcDbLine
 10
243.0020143489645
 20
158.375
 30
0.0
 11
243.0020143489645
 21
78.37500000000001
 31
0.0
  0
LINE
  5
341
330
1F
100
AcDbEntity
  8
8
  6
Continuous
 62
   171
370
    18
100
AcDbLine
 10
183.0020143489649
 20
158.375
 30
0.0
 11
183.0020143489649
 21
78.37500000000001
 31
0.0
  0
TEXT
  5
342
330
1F
100
AcDbEntity
  8
8
  6
Continuous
 62
   171
370
     9
100
AcDbText
 10
85.7599402748906
 20
82.37500000000011
 30
0.0
 40
12.0
  1
ＴＩＷＤ－３２Ｓ６００－Ｓ
 41
0.4999999999999999
100
AcDbText
  0
TEXT
  5
343
330
1F
100
AcDbEntity
  8
8
  6
Continuous
 62
   171
370
     9
100
AcDbText
 10
202.202014348965
 20
82.37500000000006
 30
0.0
 40
12.0
  1
スノー
 41
0.4999999999999979
100
AcDbText
  0
ARC
  5
344
330
1F
100
AcDbEntity
  8
2
  6
Continuous
 62
    90
370
    18
100
AcDbCircle
 10
934.9273262790607
 20
252.5219531730547
 30
0.0
 40
4.25
100
AcDbArc
 50
89.99999999999991
 51
269.9999999999998
  0
LINE
  5
345
330
1F
100
AcDbEntity
  8
2
  6
Continuous
 62
    90
370
    18
100
AcDbLine
 10
936.4273262790607
 20
248.2719531730547
 30
0.0
 11
934.9273262790607
 21
248.2719531730547
 31
0.0
  0
LINE
  5
346
330
1F
100
AcDbEntity
  8
2
  6
Continuous
 62
    90
370
    18
100
AcDbLine
 10
936.4273262790607
 20
256.7719531730547
 30
0.0
 11
934.9273262790607
 21
256.7719531730547
 31
0.0
  0
ARC
  5
347
330
1F
100
AcDbEntity
  8
2
  6
Continuous
 62
    90
370
    18
100
AcDbCircle
 10
936.4273262790607
 20
252.5219531730547
 30
0.0
 40
4.25
100
AcDbArc
 50
269.9999999999998
 51
89.99999999999991
  0
CIRCLE
  5
348
330
1F
100
AcDbEntity
  8
2
  6
Continuous
 62
    90
370
    18
100
AcDbCircle
 10
946.9273262790607
 20
252.5219531730546
 30
0.0
 40
2.5
  0
CIRCLE
  5
349
330
1F
100
AcDbEntity
  8
2
  6
Continuous
 62
    90
370
    18
100
AcDbCircle
 10
926.9273262790607
 20
244.5219531730547
 30
0.0
 40
2.5
  0
CIRCLE
  5
34A
330
1F
100
AcDbEntity
  8
2
  6
Continuous
 62
    90
370
    18
100
AcDbCircle
 10
926.9273262790607
 20
260.5219531730547
 30
0.0
 40
2.5
  0
ARC
  5
34B
330
1F
100
AcDbEntity
  8
2
  6
Continuous
 62
    90
370
    18
100
AcDbCircle
 10
336.427326585219
 20
252.5219531730547
 30
0.0
 40
4.25
100
AcDbArc
 50
269.9999999999998
 51
89.99999999999991
  0
LINE
  5
34C
330
1F
100
AcDbEntity
  8
2
  6
Continuous
 62
    90
370
    18
100
AcDbLine
 10
334.927326585219
 20
256.7719531730547
 30
0.0
 11
336.427326585219
 21
256.7719531730547
 31
0.0
  0
LINE
  5
34D
330
1F
100
AcDbEntity
  8
2
  6
Continuous
 62
    90
370
    18
100
AcDbLine
 10
334.927326585219
 20
248.2719531730547
 30
0.0
 11
336.427326585219
 21
248.2719531730547
 31
0.0
  0
ARC
  5
34E
330
1F
100
AcDbEntity
  8
2
  6
Continuous
 62
    90
370
    18
100
AcDbCircle
 10
334.927326585219
 20
252.5219531730547
 30
0.0
 40
4.25
100
AcDbArc
 50
89.99999999999991
 51
269.9999999999998
  0
CIRCLE
  5
34F
330
1F
100
AcDbEntity
  8
2
  6
Continuous
 62
    90
370
    18
100
AcDbCircle
 10
324.427326585219
 20
252.5219531730548
 30
0.0
 40
2.5
  0
CIRCLE
  5
350
330
1F
100
AcDbEntity
  8
2
  6
Continuous
 62
    90
370
    18
100
AcDbCircle
 10
344.427326585219
 20
260.5219531730546
 30
0.0
 40
2.5
  0
CIRCLE
  5
351
330
1F
100
AcDbEntity
  8
2
  6
Continuous
 62
    90
370
    18
100
AcDbCircle
 10
344.427326585219
 20
244.5219531730546
 30
0.0
 40
2.5
  0
VIEWPORT
  5
2A
330
1B
100
AcDbEntity
 67
     1
  8
0
100
AcDbViewport
 10
594.0
 20
420.0
 30
0.0
 40
1188.0
 41
840.0
 68
     1
 69
     1
 12
594.0
 22
420.0
 13
0.0
 23
0.0
 14
0.5
 24
0.5
 15
0.5
 25
0.5
 16
0.0
 26
0.0
 36
1.0
 17
0.0
 27
0.0
 37
0.0
 42
50.0
 43
0.0
 44
0.0
 45
9.0
 50
0.0
 51
0.0
 72
   100
 90
    32800
  1

281
     0
 71
     1
 74
     0
110
0.0
120
0.0
130
0.0
111
1.0
121
0.0
131
0.0
112
0.0
122
1.0
132
0.0
 79
     0
146
0.0
  0
ENDSEC
  0
SECTION
  2
OBJECTS
  0
DICTIONARY
  5
C
330
0
100
AcDbDictionary
281
     1
  3
ACAD_GROUP
350
D
  3
ACAD_LAYOUT
350
1A
  3
ACAD_MLINESTYLE
350
17
  3
ACAD_PLOTSETTINGS
350
19
  3
ACAD_PLOTSTYLENAME
350
E
  3
AcDbVariableDictionary
350
352
  0
DICTIONARY
  5
D
102
{ACAD_REACTORS
330
C
102
}
330
C
100
AcDbDictionary
281
     1
  0
DICTIONARY
  5
1A
102
{ACAD_REACTORS
330
C
102
}
330
C
100
AcDbDictionary
281
     1
  3
Layout1
350
1E
  3
Layout2
350
26
  3
Model
350
22
  0
DICTIONARY
  5
17
102
{ACAD_REACTORS
330
C
102
}
330
C
100
AcDbDictionary
281
     1
  3
Standard
350
18
  0
DICTIONARY
  5
19
102
{ACAD_REACTORS
330
C
102
}
330
C
100
AcDbDictionary
281
     1
  0
ACDBDICTIONARYWDFLT
  5
E
102
{ACAD_REACTORS
330
C
102
}
330
C
100
AcDbDictionary
281
     1
  3
Normal
350
F
100
AcDbDictionaryWithDefault
340
F
  0
DICTIONARY
  5
352
102
{ACAD_REACTORS
330
C
102
}
330
C
100
AcDbDictionary
281
     1
  3
DIMASSOC
350
353
  0
LAYOUT
  5
1E
102
{ACAD_REACTORS
330
1A
102
}
330
1A
100
AcDbPlotSettings
  1

  2

  4

  6

 40
0.0
 41
0.0
 42
0.0
 43
0.0
 44
0.0
 45
0.0
 46
0.0
 47
0.0
 48
0.0
 49
0.0
140
0.0
141
0.0
142
1.0
143
1.0
 70
   688
 72
     0
 73
     0
 74
     5
  7

 75
    16
147
1.0
148
0.0
149
0.0
100
AcDbLayout
  1
Layout1
 70
     1
 71
     1
 10
0.0
 20
0.0
 11
297.0
 21
210.0
 12
0.0
 22
0.0
 32
0.0
 14
0.0
 24
0.0
 34
0.0
 15
297.0
 25
210.0
 35
0.0
146
0.0
 13
0.0
 23
0.0
 33
0.0
 16
1.0
 26
0.0
 36
0.0
 17
0.0
 27
1.0
 37
0.0
 76
     0
330
1B
331
2A
  0
LAYOUT
  5
26
102
{ACAD_REACTORS
330
1A
102
}
330
1A
100
AcDbPlotSettings
  1

  2

  4

  6

 40
0.0
 41
0.0
 42
0.0
 43
0.0
 44
0.0
 45
0.0
 46
0.0
 47
0.0
 48
0.0
 49
0.0
140
0.0
141
0.0
142
1.0
143
1.0
 70
   688
 72
     0
 73
     0
 74
     5
  7

 75
    16
147
1.0
148
0.0
149
0.0
100
AcDbLayout
  1
Layout2
 70
     1
 71
     2
 10
0.0
 20
0.0
 11
0.0
 21
0.0
 12
0.0
 22
0.0
 32
0.0
 14
0.0
 24
0.0
 34
0.0
 15
0.0
 25
0.0
 35
0.0
146
0.0
 13
0.0
 23
0.0
 33
0.0
 16
1.0
 26
0.0
 36
0.0
 17
0.0
 27
1.0
 37
0.0
 76
     0
330
23
  0
LAYOUT
  5
22
102
{ACAD_REACTORS
330
1A
102
}
330
1A
100
AcDbPlotSettings
  1

  2

  4

  6

 40
0.0
 41
0.0
 42
0.0
 43
0.0
 44
0.0
 45
0.0
 46
0.0
 47
0.0
 48
0.0
 49
0.0
140
0.0
141
0.0
142
1.0
143
1.0
 70
  1712
 72
     0
 73
     0
 74
     0
  7

 75
     0
147
1.0
148
0.0
149
0.0
100
AcDbLayout
  1
Model
 70
     1
 71
     0
 10
0.0
 20
0.0
 11
1188.0
 21
840.0
 12
0.0
 22
0.0
 32
0.0
 14
0.0
 24
0.0
 34
0.0
 15
1188.0
 25
840.0
 35
0.0
146
0.0
 13
0.0
 23
0.0
 33
0.0
 16
1.0
 26
0.0
 36
0.0
 17
0.0
 27
1.0
 37
0.0
 76
     0
330
1F
  0
MLINESTYLE
  5
18
102
{ACAD_REACTORS
330
17
102
}
330
17
100
AcDbMlineStyle
  2
Standard
 70
     0
  3

 62
   256
 51
90.0
 52
90.0
 71
     2
 49
0.5
 62
   256
  6
BYLAYER
 49
-0.5
 62
   256
  6
BYLAYER
  0
ACDBPLACEHOLDER
  5
F
102
{ACAD_REACTORS
330
E
102
}
330
E
  0
DICTIONARYVAR
  5
353
102
{ACAD_REACTORS
330
352
102
}
330
352
100
DictionaryVariables
280
     0
  1
1
  0
ENDSEC
  0
EOF
