  0
SECTION
  2
HEADER
  9
$ACADVER
  1
AC1015
  9
$ACADMAINTVER
 70
     6
  9
$DWGCODEPAGE
  3
ANSI_932
  9
$INSBASE
 10
0.0
 20
0.0
 30
0.0
  9
$EXTMIN
 10
0.0
 20
0.0
 30
0.0
  9
$EXTMAX
 10
1188.0
 20
840.0
 30
0.0
  9
$LIMMIN
 10
0.0
 20
0.0
  9
$LIMMAX
 10
1188.0
 20
840.0
  9
$ORTHOMODE
 70
     0
  9
$REGENMODE
 70
     1
  9
$FILLMODE
 70
     1
  9
$QTEXTMODE
 70
     0
  9
$MIRRTEXT
 70
     1
  9
$LTSCALE
 40
1.0
  9
$ATTMODE
 70
     1
  9
$TEXTSIZE
 40
12.0
  9
$TRACEWID
 40
0.05
  9
$TEXTSTYLE
  7
Standard
  9
$CLAYER
  8
0
  9
$CELTYPE
  6
ByLayer
  9
$CECOLOR
 62
   256
  9
$CELTSCALE
 40
1.0
  9
$DISPSILH
 70
     0
  9
$DIMSCALE
 40
4.0
  9
$DIMASZ
 40
2.0
  9
$DIMEXO
 40
2.0
  9
$DIMDLI
 40
10.0
  9
$DIMRND
 40
0.0
  9
$DIMDLE
 40
0.0
  9
$DIMEXE
 40
1.0
  9
$DIMTP
 40
0.0
  9
$DIMTM
 40
0.0
  9
$DIMTXT
 40
3.0
  9
$DIMCEN
 40
0.09
  9
$DIMTSZ
 40
0.0
  9
$DIMTOL
 70
     0
  9
$DIMLIM
 70
     0
  9
$DIMTIH
 70
     0
  9
$DIMTOH
 70
     0
  9
$DIMSE1
 70
     0
  9
$DIMSE2
 70
     0
  9
$DIMTAD
 70
     3
  9
$DIMZIN
 70
     8
  9
$DIMBLK
  1

  9
$DIMASO
 70
     1
  9
$DIMSHO
 70
     1
  9
$DIMPOST
  1

  9
$DIMAPOST
  1

  9
$DIMALT
 70
     0
  9
$DIMALTD
 70
     2
  9
$DIMALTF
 40
25.4
  9
$DIMLFAC
 40
1.0
  9
$DIMTOFL
 70
     1
  9
$DIMTVP
 40
0.7
  9
$DIMTIX
 70
     0
  9
$DIMSOXD
 70
     0
  9
$DIMSAH
 70
     0
  9
$DIMBLK1
  1

  9
$DIMBLK2
  1

  9
$DIMSTYLE
  2
Standard
  9
$DIMCLRD
 70
     0
  9
$DIMCLRE
 70
     0
  9
$DIMCLRT
 70
     0
  9
$DIMTFAC
 40
0.5
  9
$DIMGAP
 40
0.09
  9
$DIMJUST
 70
     0
  9
$DIMSD1
 70
     0
  9
$DIMSD2
 70
     0
  9
$DIMTOLJ
 70
     1
  9
$DIMTZIN
 70
     8
  9
$DIMALTZ
 70
     0
  9
$DIMALTTZ
 70
     0
  9
$DIMUPT
 70
     1
  9
$DIMDEC
 70
     2
  9
$DIMTDEC
 70
     4
  9
$DIMALTU
 70
     2
  9
$DIMALTTD
 70
     2
  9
$DIMTXSTY
  7
Standard
  9
$DIMAUNIT
 70
     0
  9
$DIMADEC
 70
     0
  9
$DIMALTRND
 40
0.0
  9
$DIMAZIN
 70
     0
  9
$DIMDSEP
 70
    46
  9
$DIMATFIT
 70
     2
  9
$DIMFRAC
 70
     0
  9
$DIMLDRBLK
  1

  9
$DIMLUNIT
 70
     2
  9
$DIMLWD
 70
    -2
  9
$DIMLWE
 70
    -2
  9
$DIMTMOVE
 70
     2
  9
$LUNITS
 70
     2
  9
$LUPREC
 70
     4
  9
$SKETCHINC
 40
0.1
  9
$FILLETRAD
 40
0.5
  9
$AUNITS
 70
     0
  9
$AUPREC
 70
     0
  9
$MENU
  1
.
  9
$ELEVATION
 40
0.0
  9
$PELEVATION
 40
0.0
  9
$THICKNESS
 40
0.0
  9
$LIMCHECK
 70
     0
  9
$CHAMFERA
 40
0.5
  9
$CHAMFERB
 40
0.5
  9
$CHAMFERC
 40
1.0
  9
$CHAMFERD
 40
0.0
  9
$SKPOLY
 70
     0
  9
$TDCREATE
 40
2456427.862337963
  9
$TDUCREATE
 40
2456427.487337963
  9
$TDUPDATE
 40
2456427.862337963
  9
$TDUUPDATE
 40
2456427.487337963
  9
$TDINDWG
 40
0.0000000116
  9
$TDUSRTIMER
 40
0.0000000116
  9
$USRTIMER
 70
     1
  9
$ANGBASE
 50
0.0
  9
$ANGDIR
 70
     0
  9
$PDMODE
 70
     0
  9
$PDSIZE
 40
0.0
  9
$PLINEWID
 40
0.0
  9
$SPLFRAME
 70
     0
  9
$SPLINETYPE
 70
     6
  9
$SPLINESEGS
 70
     8
  9
$HANDSEED
  5
244
  9
$SURFTAB1
 70
     6
  9
$SURFTAB2
 70
     6
  9
$SURFTYPE
 70
     6
  9
$SURFU
 70
     6
  9
$SURFV
 70
     6
  9
$UCSBASE
  2

  9
$UCSNAME
  2

  9
$UCSORG
 10
0.0
 20
0.0
 30
0.0
  9
$UCSXDIR
 10
1.0
 20
0.0
 30
0.0
  9
$UCSYDIR
 10
0.0
 20
1.0
 30
0.0
  9
$UCSORTHOREF
  2

  9
$UCSORTHOVIEW
 70
     0
  9
$UCSORGTOP
 10
0.0
 20
0.0
 30
0.0
  9
$UCSORGBOTTOM
 10
0.0
 20
0.0
 30
0.0
  9
$UCSORGLEFT
 10
0.0
 20
0.0
 30
0.0
  9
$UCSORGRIGHT
 10
0.0
 20
0.0
 30
0.0
  9
$UCSORGFRONT
 10
0.0
 20
0.0
 30
0.0
  9
$UCSORGBACK
 10
0.0
 20
0.0
 30
0.0
  9
$PUCSBASE
  2

  9
$PUCSNAME
  2

  9
$PUCSORG
 10
0.0
 20
0.0
 30
0.0
  9
$PUCSXDIR
 10
1.0
 20
0.0
 30
0.0
  9
$PUCSYDIR
 10
0.0
 20
1.0
 30
0.0
  9
$PUCSORTHOREF
  2

  9
$PUCSORTHOVIEW
 70
     0
  9
$PUCSORGTOP
 10
0.0
 20
0.0
 30
0.0
  9
$PUCSORGBOTTOM
 10
0.0
 20
0.0
 30
0.0
  9
$PUCSORGLEFT
 10
0.0
 20
0.0
 30
0.0
  9
$PUCSORGRIGHT
 10
0.0
 20
0.0
 30
0.0
  9
$PUCSORGFRONT
 10
0.0
 20
0.0
 30
0.0
  9
$PUCSORGBACK
 10
0.0
 20
0.0
 30
0.0
  9
$USERI1
 70
     0
  9
$USERI2
 70
     0
  9
$USERI3
 70
     0
  9
$USERI4
 70
     0
  9
$USERI5
 70
     0
  9
$USERR1
 40
0.0
  9
$USERR2
 40
0.0
  9
$USERR3
 40
0.0
  9
$USERR4
 40
0.0
  9
$USERR5
 40
0.0
  9
$WORLDVIEW
 70
     1
  9
$SHADEDGE
 70
     3
  9
$SHADEDIF
 70
    70
  9
$TILEMODE
 70
     1
  9
$MAXACTVP
 70
    64
  9
$PINSBASE
 10
0.0
 20
0.0
 30
0.0
  9
$PLIMCHECK
 70
     0
  9
$PEXTMIN
 10
0.0
 20
0.0
 30
0.0
  9
$PEXTMAX
 10
297.0
 20
210.0
 30
0.0
  9
$PLIMMIN
 10
0.0
 20
0.0
  9
$PLIMMAX
 10
297.0
 20
210.0
  9
$UNITMODE
 70
     0
  9
$VISRETAIN
 70
     1
  9
$PLINEGEN
 70
     0
  9
$PSLTSCALE
 70
     1
  9
$TREEDEPTH
 70
  3020
  9
$CMLSTYLE
  2
Standard
  9
$CMLJUST
 70
     0
  9
$CMLSCALE
 40
1.0
  9
$PROXYGRAPHICS
 70
     1
  9
$MEASUREMENT
 70
     1
  9
$CELWEIGHT
370
    -1
  9
$ENDCAPS
280
     0
  9
$JOINSTYLE
280
     0
  9
$LWDISPLAY
290
     0
  9
$INSUNITS
 70
     4
  9
$HYPERLINKBASE
  1

  9
$STYLESHEET
  1

  9
$XEDIT
290
     1
  9
$CEPSNTYPE
380
     0
  9
$PSTYLEMODE
290
     1
  9
$FINGERPRINTGUID
  2
{FCD308F2-625A-4E80-B400-9F575BB1F698}
  9
$VERSIONGUID
  2
{FAEB1C32-E019-11D5-929B-00C0DF256EC4}
  9
$EXTNAMES
290
     1
  9
$PSVPSCALE
 40
0.0
  9
$OLESTARTUP
290
     0
  0
ENDSEC
  0
SECTION
  2
CLASSES
  0
CLASS
  1
ACDBDICTIONARYWDFLT
  2
AcDbDictionaryWithDefault
  3
ObjectDBX Classes
 90
        0
280
     0
281
     0
  0
CLASS
  1
DICTIONARYVAR
  2
AcDbDictionaryVar
  3
ObjectDBX Classes
 90
        0
280
     0
281
     0
  0
CLASS
  1
ACDBPLACEHOLDER
  2
AcDbPlaceHolder
  3
ObjectDBX Classes
 90
        0
280
     0
281
     0
  0
CLASS
  1
LAYOUT
  2
AcDbLayout
  3
ObjectDBX Classes
 90
        0
280
     0
281
     0
  0
ENDSEC
  0
SECTION
  2
TABLES
  0
TABLE
  2
VPORT
  5
8
330
0
100
AcDbSymbolTable
 70
     1
  0
VPORT
  5
29
330
8
100
AcDbSymbolTableRecord
100
AcDbViewportTableRecord
  2
*Active
 70
     0
 10
0.0
 20
0.0
 11
1.0
 21
1.0
 12
10.42990654205607
 22
4.5
 13
0.0
 23
0.0
 14
0.5
 24
0.5
 15
0.5
 25
0.5
 16
0.0
 26
0.0
 36
1.0
 17
0.0
 27
0.0
 37
0.0
 40
9.0
 41
1.972972972850329
 42
50.0
 43
0.0
 44
0.0
 50
0.0
 51
0.0
 71
     0
 72
   100
 73
     1
 74
     3
 75
     0
 76
     0
 77
     0
 78
     0
281
     0
 65
     1
110
0.0
120
0.0
130
0.0
111
1.0
121
0.0
131
0.0
112
0.0
122
1.0
132
0.0
 79
     0
146
0.0
  0
ENDTAB
  0
TABLE
  2
LTYPE
  5
5
330
0
100
AcDbSymbolTable
 70
     9
  0
LTYPE
  5
14
330
5
100
AcDbSymbolTableRecord
100
AcDbLinetypeTableRecord
  2
ByBlock
 70
     0
  3

 72
    65
 73
     0
 40
0.0
  0
LTYPE
  5
15
330
5
100
AcDbSymbolTableRecord
100
AcDbLinetypeTableRecord
  2
ByLayer
 70
     0
  3

 72
    65
 73
     0
 40
0.0
  0
LTYPE
  5
16
330
5
100
AcDbSymbolTableRecord
100
AcDbLinetypeTableRecord
  2
Continuous
 70
     0
  3
Solid line
 72
    65
 73
     0
 40
0.0
  0
LTYPE
  5
68
330
5
100
AcDbSymbolTableRecord
100
AcDbLinetypeTableRecord
  2
DOT
 70
     0
  3
DOT
 72
    65
 73
     2
 40
4.0
 49
6.0
 74
     0
 49
-2.0
 74
     0
  0
LTYPE
  5
69
330
5
100
AcDbSymbolTableRecord
100
AcDbLinetypeTableRecord
  2
HIDDEN
 70
     0
  3
HIDDEN
 72
    65
 73
     2
 40
4.2
 49
8.4
 74
     0
 49
-4.2
 74
     0
  0
LTYPE
  5
6A
330
5
100
AcDbSymbolTableRecord
100
AcDbLinetypeTableRecord
  2
DASHDOT
 70
     0
  3
DASHDOT
 72
    65
 73
     4
 40
14.5
 49
30.0
 74
     0
 49
-9.0
 74
     0
 49
2.5
 74
     0
 49
-9.0
 74
     0
  0
LTYPE
  5
6B
330
5
100
AcDbSymbolTableRecord
100
AcDbLinetypeTableRecord
  2
PHANTOM
 70
     0
  3
PHANTOM
 72
    65
 73
     6
 40
12.0
 49
30.0
 74
     0
 49
-9.0
 74
     0
 49
2.5
 74
     0
 49
-5.0
 74
     0
 49
2.5
 74
     0
 49
-9.0
 74
     0
  0
LTYPE
  5
6C
330
5
100
AcDbSymbolTableRecord
100
AcDbLinetypeTableRecord
  2
ACAD_ISO14W100
 70
     0
  3
ACAD_ISO14W100
 72
    65
 73
     8
 40
1.5
 49
12.0
 74
     0
 49
-3.0
 74
     0
 49
0.5
 74
     0
 49
-3.0
 74
     0
 49
0.5
 74
     0
 49
-3.0
 74
     0
 49
0.5
 74
     0
 49
-3.0
 74
     0
  0
LTYPE
  5
6D
330
5
100
AcDbSymbolTableRecord
100
AcDbLinetypeTableRecord
  2
ACAD_ISO06W100
 70
     0
  3
ACAD_ISO06W100
 72
    65
 73
     8
 40
13.5
 49
24.0
 74
     0
 49
-3.0
 74
     0
 49
0.5
 74
     0
 49
-3.0
 74
     0
 49
0.5
 74
     0
 49
-3.0
 74
     0
 49
0.5
 74
     0
 49
-3.0
 74
     0
  0
LTYPE
  5
6E
330
5
100
AcDbSymbolTableRecord
100
AcDbLinetypeTableRecord
  2
ACAD_ISO11W100
 70
     0
  3
ACAD_ISO11W100
 72
    65
 73
     6
 40
15.5
 49
12.0
 74
     0
 49
-3.0
 74
     0
 49
12.0
 74
     0
 49
-3.0
 74
     0
 49
0.5
 74
     0
 49
-3.0
 74
     0
  0
LTYPE
  5
6F
330
5
100
AcDbSymbolTableRecord
100
AcDbLinetypeTableRecord
  2
ACAD_ISO13W100
 70
     0
  3
ACAD_ISO13W100
 72
    65
 73
     8
 40
13.0
 49
12.0
 74
     0
 49
-3.0
 74
     0
 49
12.0
 74
     0
 49
-3.0
 74
     0
 49
0.5
 74
     0
 49
-3.0
 74
     0
 49
0.5
 74
     0
 49
-3.0
 74
     0
  0
ENDTAB
  0
TABLE
  2
LAYER
  5
2
330
0
100
AcDbSymbolTable
 70
    32
  0
LAYER
  5
10
330
2
100
AcDbSymbolTableRecord
100
AcDbLayerTableRecord
  2
0
 70
     0
 62
     7
  6
Continuous
370
    -3
390
F
  0
LAYER
  5
70
330
2
100
AcDbSymbolTableRecord
100
AcDbLayerTableRecord
  2
1
 70
     0
 62
    45
  6
Continuous
370
    -3
390
F
  0
LAYER
  5
71
330
2
100
AcDbSymbolTableRecord
100
AcDbLayerTableRecord
  2
2
 70
     0
 62
    90
  6
Continuous
370
    -3
390
F
  0
LAYER
  5
72
330
2
100
AcDbSymbolTableRecord
100
AcDbLayerTableRecord
  2
3
 70
     0
 62
     6
  6
Continuous
370
    -3
390
F
  0
LAYER
  5
73
330
2
100
AcDbSymbolTableRecord
100
AcDbLayerTableRecord
  2
4
 70
     0
 62
    30
  6
Continuous
370
    -3
390
F
  0
LAYER
  5
74
330
2
100
AcDbSymbolTableRecord
100
AcDbLayerTableRecord
  2
5
 70
     0
 62
     2
  6
Continuous
370
    -3
390
F
  0
LAYER
  5
75
330
2
100
AcDbSymbolTableRecord
100
AcDbLayerTableRecord
  2
6
 70
     0
 62
     7
  6
Continuous
370
    -3
390
F
  0
LAYER
  5
76
330
2
100
AcDbSymbolTableRecord
100
AcDbLayerTableRecord
  2
7
 70
     0
 62
   132
  6
Continuous
370
    -3
390
F
  0
LAYER
  5
77
330
2
100
AcDbSymbolTableRecord
100
AcDbLayerTableRecord
  2
8
 70
     0
 62
   171
  6
Continuous
370
    -3
390
F
  0
LAYER
  5
78
330
2
100
AcDbSymbolTableRecord
100
AcDbLayerTableRecord
  2
9
 70
     0
 62
     5
  6
Continuous
370
    -3
390
F
  0
LAYER
  5
79
330
2
100
AcDbSymbolTableRecord
100
AcDbLayerTableRecord
  2
10
 70
     0
 62
   172
  6
Continuous
370
    -3
390
F
  0
LAYER
  5
7A
330
2
100
AcDbSymbolTableRecord
100
AcDbLayerTableRecord
  2
11
 70
     0
 62
    16
  6
Continuous
370
    -3
390
F
  0
LAYER
  5
7B
330
2
100
AcDbSymbolTableRecord
100
AcDbLayerTableRecord
  2
12
 70
     0
 62
   136
  6
Continuous
370
    -3
390
F
  0
LAYER
  5
7C
330
2
100
AcDbSymbolTableRecord
100
AcDbLayerTableRecord
  2
13
 70
     0
 62
   216
  6
Continuous
370
    -3
390
F
  0
LAYER
  5
7D
330
2
100
AcDbSymbolTableRecord
100
AcDbLayerTableRecord
  2
14
 70
     0
 62
     7
  6
Continuous
370
    -3
390
F
  0
LAYER
  5
7E
330
2
100
AcDbSymbolTableRecord
100
AcDbLayerTableRecord
  2
15
 70
     0
 62
    14
  6
Continuous
370
    -3
390
F
  0
LAYER
  5
7F
330
2
100
AcDbSymbolTableRecord
100
AcDbLayerTableRecord
  2
16
 70
     0
 62
    94
  6
Continuous
370
    -3
390
F
  0
LAYER
  5
80
330
2
100
AcDbSymbolTableRecord
100
AcDbLayerTableRecord
  2
17
 70
     0
 62
   230
  6
Continuous
370
    -3
390
F
  0
LAYER
  5
81
330
2
100
AcDbSymbolTableRecord
100
AcDbLayerTableRecord
  2
18
 70
     0
 62
     7
  6
Continuous
370
    -3
390
F
  0
LAYER
  5
82
330
2
100
AcDbSymbolTableRecord
100
AcDbLayerTableRecord
  2
19
 70
     0
 62
    52
  6
Continuous
370
    -3
390
F
  0
LAYER
  5
83
330
2
100
AcDbSymbolTableRecord
100
AcDbLayerTableRecord
  2
20
 70
     0
 62
   134
  6
Continuous
370
    -3
390
F
  0
LAYER
  5
84
330
2
100
AcDbSymbolTableRecord
100
AcDbLayerTableRecord
  2
21
 70
     0
 62
   214
  6
Continuous
370
    -3
390
F
  0
LAYER
  5
85
330
2
100
AcDbSymbolTableRecord
100
AcDbLayerTableRecord
  2
22
 70
     0
 62
     7
  6
Continuous
370
    -3
390
F
  0
LAYER
  5
86
330
2
100
AcDbSymbolTableRecord
100
AcDbLayerTableRecord
  2
128
 70
     0
 62
     7
  6
Continuous
370
    -3
390
F
  0
LAYER
  5
87
330
2
100
AcDbSymbolTableRecord
100
AcDbLayerTableRecord
  2
129
 70
     0
 62
     7
  6
Continuous
370
    -3
390
F
  0
LAYER
  5
88
330
2
100
AcDbSymbolTableRecord
100
AcDbLayerTableRecord
  2
130
 70
     0
 62
     7
  6
Continuous
370
    -3
390
F
  0
LAYER
  5
89
330
2
100
AcDbSymbolTableRecord
100
AcDbLayerTableRecord
  2
131
 70
     0
 62
     3
  6
Continuous
370
    -3
390
F
  0
LAYER
  5
8A
330
2
100
AcDbSymbolTableRecord
100
AcDbLayerTableRecord
  2
132
 70
     0
 62
     7
  6
Continuous
370
    -3
390
F
  0
LAYER
  5
8B
330
2
100
AcDbSymbolTableRecord
100
AcDbLayerTableRecord
  2
133
 70
     0
 62
     7
  6
Continuous
370
    -3
390
F
  0
LAYER
  5
8C
330
2
100
AcDbSymbolTableRecord
100
AcDbLayerTableRecord
  2
134
 70
     0
 62
     1
  6
Continuous
370
    -3
390
F
  0
LAYER
  5
8D
330
2
100
AcDbSymbolTableRecord
100
AcDbLayerTableRecord
  2
135
 70
     0
 62
     4
  6
Continuous
370
    -3
390
F
  0
LAYER
  5
8E
330
2
100
AcDbSymbolTableRecord
100
AcDbLayerTableRecord
  2
136
 70
     0
 62
     7
  6
Continuous
370
    -3
390
F
  0
ENDTAB
  0
TABLE
  2
STYLE
  5
3
330
0
100
AcDbSymbolTable
 70
     2
  0
STYLE
  5
11
330
3
100
AcDbSymbolTableRecord
100
AcDbTextStyleTableRecord
  2
Standard
 70
     0
 40
0.0
 41
1.0
 50
0.0
 71
     0
 42
0.2
  3
txt
  4
bigfont
  0
STYLE
  5
2C
330
3
100
AcDbSymbolTableRecord
100
AcDbTextStyleTableRecord
  2
T_STANDARD
 70
     4
 40
10.0
 41
1.0
 50
0.0
 71
     0
 42
10.0
  3
txt
  4
bigfont
  0
ENDTAB
  0
TABLE
  2
VIEW
  5
6
330
0
100
AcDbSymbolTable
 70
     0
  0
ENDTAB
  0
TABLE
  2
UCS
  5
7
330
0
100
AcDbSymbolTable
 70
     0
  0
ENDTAB
  0
TABLE
  2
APPID
  5
9
330
0
100
AcDbSymbolTable
 70
     2
  0
APPID
  5
12
330
9
100
AcDbSymbolTableRecord
100
AcDbRegAppTableRecord
  2
ACAD
 70
     0
  0
APPID
  5
2B
330
9
100
AcDbSymbolTableRecord
100
AcDbRegAppTableRecord
  2
ODA
 70
     0
  0
ENDTAB
  0
TABLE
  2
DIMSTYLE
  5
A
330
0
100
AcDbSymbolTable
 70
     1
100
AcDbDimStyleTable
  0
DIMSTYLE
105
27
102
{ACAD_REACTORS
330
DD
330
120
330
12C
330
138
330
14E
330
15A
330
166
330
172
330
17E
330
1BA
330
1D9
330
1E8
330
1FC
102
}
330
A
100
AcDbSymbolTableRecord
100
AcDbDimStyleTableRecord
  2
Standard
 70
     0
340
11
  0
ENDTAB
  0
TABLE
  2
BLOCK_RECORD
  5
1
330
0
100
AcDbSymbolTable
 70
    26
  0
BLOCK_RECORD
  5
1F
330
1
100
AcDbSymbolTableRecord
100
AcDbBlockTableRecord
  2
*Model_Space
340
22
  0
BLOCK_RECORD
  5
1B
330
1
100
AcDbSymbolTableRecord
100
AcDbBlockTableRecord
  2
*Paper_Space
340
1E
  0
BLOCK_RECORD
  5
23
330
1
100
AcDbSymbolTableRecord
100
AcDbBlockTableRecord
  2
*Paper_Space0
340
26
  0
BLOCK_RECORD
  5
2D
330
1
100
AcDbSymbolTableRecord
100
AcDbBlockTableRecord
  2
_ORIGIN
340
0
  0
BLOCK_RECORD
  5
32
330
1
100
AcDbSymbolTableRecord
100
AcDbBlockTableRecord
  2
_DOTBLANK
340
0
  0
BLOCK_RECORD
  5
37
330
1
100
AcDbSymbolTableRecord
100
AcDbBlockTableRecord
  2
_DOT
340
0
  0
BLOCK_RECORD
  5
3C
330
1
100
AcDbSymbolTableRecord
100
AcDbBlockTableRecord
  2
_OPEN
340
0
  0
BLOCK_RECORD
  5
42
330
1
100
AcDbSymbolTableRecord
100
AcDbBlockTableRecord
  2
_CLOSED
340
0
  0
BLOCK_RECORD
  5
49
330
1
100
AcDbSymbolTableRecord
100
AcDbBlockTableRecord
  2
_CLOSEDBLANK
340
0
  0
BLOCK_RECORD
  5
4F
330
1
100
AcDbSymbolTableRecord
100
AcDbBlockTableRecord
  2
_BOXBLANK
340
0
  0
BLOCK_RECORD
  5
57
330
1
100
AcDbSymbolTableRecord
100
AcDbBlockTableRecord
  2
_BOXFILLED
340
0
  0
BLOCK_RECORD
  5
5C
330
1
100
AcDbSymbolTableRecord
100
AcDbBlockTableRecord
  2
_INTEGRAL
340
0
  0
BLOCK_RECORD
  5
61
330
1
100
AcDbSymbolTableRecord
100
AcDbBlockTableRecord
  2
_OBLIQUE
340
0
  0
BLOCK_RECORD
  5
65
330
1
100
AcDbSymbolTableRecord
100
AcDbBlockTableRecord
  2
_NONE
340
0
  0
BLOCK_RECORD
  5
8F
330
1
100
AcDbSymbolTableRecord
100
AcDbBlockTableRecord
  2
*G12
340
0
102
{BLKREFS
331
96
102
}
  0
BLOCK_RECORD
  5
D2
330
1
100
AcDbSymbolTableRecord
100
AcDbBlockTableRecord
  2
Dim1
340
0
  0
BLOCK_RECORD
  5
115
330
1
100
AcDbSymbolTableRecord
100
AcDbBlockTableRecord
  2
Dim2
340
0
  0
BLOCK_RECORD
  5
121
330
1
100
AcDbSymbolTableRecord
100
AcDbBlockTableRecord
  2
Dim3
340
0
  0
BLOCK_RECORD
  5
12D
330
1
100
AcDbSymbolTableRecord
100
AcDbBlockTableRecord
  2
Dim4
340
0
  0
BLOCK_RECORD
  5
143
330
1
100
AcDbSymbolTableRecord
100
AcDbBlockTableRecord
  2
Dim5
340
0
  0
BLOCK_RECORD
  5
14F
330
1
100
AcDbSymbolTableRecord
100
AcDbBlockTableRecord
  2
Dim6
340
0
  0
BLOCK_RECORD
  5
15B
330
1
100
AcDbSymbolTableRecord
100
AcDbBlockTableRecord
  2
Dim7
340
0
  0
BLOCK_RECORD
  5
167
330
1
100
AcDbSymbolTableRecord
100
AcDbBlockTableRecord
  2
Dim8
340
0
  0
BLOCK_RECORD
  5
173
330
1
100
AcDbSymbolTableRecord
100
AcDbBlockTableRecord
  2
Dim9
340
0
  0
BLOCK_RECORD
  5
1AF
330
1
100
AcDbSymbolTableRecord
100
AcDbBlockTableRecord
  2
Dim10
340
0
  0
BLOCK_RECORD
  5
1CE
330
1
100
AcDbSymbolTableRecord
100
AcDbBlockTableRecord
  2
Dim11
340
0
  0
BLOCK_RECORD
  5
1DF
330
1
100
AcDbSymbolTableRecord
100
AcDbBlockTableRecord
  2
Dim12
340
0
  0
BLOCK_RECORD
  5
1F1
330
1
100
AcDbSymbolTableRecord
100
AcDbBlockTableRecord
  2
Dim13
340
0
  0
ENDTAB
  0
ENDSEC
  0
SECTION
  2
BLOCKS
  0
BLOCK
  5
20
330
1F
100
AcDbEntity
  8
0
100
AcDbBlockBegin
  2
*Model_Space
 70
     0
 71
     0
 10
0.0
 20
0.0
 30
0.0
  3
*Model_Space
  1

  0
ENDBLK
  5
21
330
1F
100
AcDbEntity
  8
0
100
AcDbBlockEnd
  0
BLOCK
  5
1C
330
1B
100
AcDbEntity
 67
     1
  8
0
100
AcDbBlockBegin
  2
*Paper_Space
 70
     0
 71
     0
 10
0.0
 20
0.0
 30
0.0
  3
*Paper_Space
  1

  0
ENDBLK
  5
1D
330
1B
100
AcDbEntity
 67
     1
  8
0
100
AcDbBlockEnd
  0
BLOCK
  5
24
330
23
100
AcDbEntity
  8
0
100
AcDbBlockBegin
  2
*Paper_Space0
 70
     0
 71
     0
 10
0.0
 20
0.0
 30
0.0
  3
*Paper_Space0
  1

  0
ENDBLK
  5
25
330
23
100
AcDbEntity
  8
0
100
AcDbBlockEnd
  0
BLOCK
  5
30
330
2D
100
AcDbEntity
  8
0
100
AcDbBlockBegin
  2
_ORIGIN
 70
     0
 71
     0
 10
0.0
 20
0.0
 30
0.0
  3
_ORIGIN
  1

  0
CIRCLE
  5
2E
330
2D
100
AcDbEntity
  8
0
100
AcDbCircle
 10
0.0
 20
0.0
 30
0.0
 40
0.5
  0
LINE
  5
2F
330
2D
100
AcDbEntity
  8
0
100
AcDbLine
 10
0.0
 20
0.0
 30
0.0
 11
-1.0
 21
0.0
 31
0.0
  0
ENDBLK
  5
31
330
2D
100
AcDbEntity
  8
0
100
AcDbBlockEnd
  0
BLOCK
  5
35
330
32
100
AcDbEntity
  8
0
100
AcDbBlockBegin
  2
_DOTBLANK
 70
     0
 71
     0
 10
0.0
 20
0.0
 30
0.0
  3
_DOTBLANK
  1

  0
CIRCLE
  5
33
330
32
100
AcDbEntity
  8
0
100
AcDbCircle
 10
0.0
 20
0.0
 30
0.0
 40
0.5
  0
LINE
  5
34
330
32
100
AcDbEntity
  8
0
100
AcDbLine
 10
-0.5
 20
0.0
 30
0.0
 11
-1.0
 21
0.0
 31
0.0
  0
ENDBLK
  5
36
330
32
100
AcDbEntity
  8
0
100
AcDbBlockEnd
  0
BLOCK
  5
3A
330
37
100
AcDbEntity
  8
0
100
AcDbBlockBegin
  2
_DOT
 70
     0
 71
     0
 10
0.0
 20
0.0
 30
0.0
  3
_DOT
  1

  0
LWPOLYLINE
  5
38
330
37
100
AcDbEntity
  8
0
100
AcDbPolyline
 90
        2
 70
     1
 43
0.5
 10
-0.25
 20
0.0
 42
1.0
 10
0.25
 20
0.0
 42
1.0
  0
LINE
  5
39
330
37
100
AcDbEntity
  8
0
100
AcDbLine
 10
-0.5
 20
0.0
 30
0.0
 11
-1.0
 21
0.0
 31
0.0
  0
ENDBLK
  5
3B
330
37
100
AcDbEntity
  8
0
100
AcDbBlockEnd
  0
BLOCK
  5
40
330
3C
100
AcDbEntity
  8
0
100
AcDbBlockBegin
  2
_OPEN
 70
     0
 71
     0
 10
0.0
 20
0.0
 30
0.0
  3
_OPEN
  1

  0
LINE
  5
3D
330
3C
100
AcDbEntity
  8
0
100
AcDbLine
 10
-1.0
 20
0.1666666666666667
 30
0.0
 11
0.0
 21
0.0
 31
0.0
  0
LINE
  5
3E
330
3C
100
AcDbEntity
  8
0
100
AcDbLine
 10
-1.0
 20
-0.1666666666666667
 30
0.0
 11
0.0
 21
0.0
 31
0.0
  0
LINE
  5
3F
330
3C
100
AcDbEntity
  8
0
100
AcDbLine
 10
0.0
 20
0.0
 30
0.0
 11
-1.0
 21
0.0
 31
0.0
  0
ENDBLK
  5
41
330
3C
100
AcDbEntity
  8
0
100
AcDbBlockEnd
  0
BLOCK
  5
47
330
42
100
AcDbEntity
  8
0
100
AcDbBlockBegin
  2
_CLOSED
 70
     0
 71
     0
 10
0.0
 20
0.0
 30
0.0
  3
_CLOSED
  1

  0
LINE
  5
43
330
42
100
AcDbEntity
  8
0
100
AcDbLine
 10
-1.0
 20
0.1666666666666667
 30
0.0
 11
0.0
 21
0.0
 31
0.0
  0
LINE
  5
44
330
42
100
AcDbEntity
  8
0
100
AcDbLine
 10
0.0
 20
0.0
 30
0.0
 11
-1.0
 21
-0.1666666666666667
 31
0.0
  0
LINE
  5
45
330
42
100
AcDbEntity
  8
0
100
AcDbLine
 10
-1.0
 20
0.1666666666666667
 30
0.0
 11
-1.0
 21
-0.1666666666666667
 31
0.0
  0
LINE
  5
46
330
42
100
AcDbEntity
  8
0
100
AcDbLine
 10
0.0
 20
0.0
 30
0.0
 11
-1.0
 21
0.0
 31
0.0
  0
ENDBLK
  5
48
330
42
100
AcDbEntity
  8
0
100
AcDbBlockEnd
  0
BLOCK
  5
4D
330
49
100
AcDbEntity
  8
0
100
AcDbBlockBegin
  2
_CLOSEDBLANK
 70
     0
 71
     0
 10
0.0
 20
0.0
 30
0.0
  3
_CLOSEDBLANK
  1

  0
LINE
  5
4A
330
49
100
AcDbEntity
  8
0
100
AcDbLine
 10
-1.0
 20
0.1666666666666667
 30
0.0
 11
0.0
 21
0.0
 31
0.0
  0
LINE
  5
4B
330
49
100
AcDbEntity
  8
0
100
AcDbLine
 10
0.0
 20
0.0
 30
0.0
 11
-1.0
 21
-0.1666666666666667
 31
0.0
  0
LINE
  5
4C
330
49
100
AcDbEntity
  8
0
100
AcDbLine
 10
-1.0
 20
0.1666666666666667
 30
0.0
 11
-1.0
 21
-0.1666666666666667
 31
0.0
  0
ENDBLK
  5
4E
330
49
100
AcDbEntity
  8
0
100
AcDbBlockEnd
  0
BLOCK
  5
55
330
4F
100
AcDbEntity
  8
0
100
AcDbBlockBegin
  2
_BOXBLANK
 70
     0
 71
     0
 10
0.0
 20
0.0
 30
0.0
  3
_BOXBLANK
  1

  0
LINE
  5
50
330
4F
100
AcDbEntity
  8
0
100
AcDbLine
 10
-0.5
 20
-0.5
 30
0.0
 11
0.5
 21
-0.5
 31
0.0
  0
LINE
  5
51
330
4F
100
AcDbEntity
  8
0
100
AcDbLine
 10
0.5
 20
-0.5
 30
0.0
 11
0.5
 21
0.5
 31
0.0
  0
LINE
  5
52
330
4F
100
AcDbEntity
  8
0
100
AcDbLine
 10
0.5
 20
0.5
 30
0.0
 11
-0.5
 21
0.5
 31
0.0
  0
LINE
  5
53
330
4F
100
AcDbEntity
  8
0
100
AcDbLine
 10
-0.5
 20
0.5
 30
0.0
 11
-0.5
 21
-0.5
 31
0.0
  0
LINE
  5
54
330
4F
100
AcDbEntity
  8
0
100
AcDbLine
 10
-0.5
 20
0.0
 30
0.0
 11
-1.0
 21
0.0
 31
0.0
  0
ENDBLK
  5
56
330
4F
100
AcDbEntity
  8
0
100
AcDbBlockEnd
  0
BLOCK
  5
5A
330
57
100
AcDbEntity
  8
0
100
AcDbBlockBegin
  2
_BOXFILLED
 70
     0
 71
     0
 10
0.0
 20
0.0
 30
0.0
  3
_BOXFILLED
  1

  0
SOLID
  5
58
330
57
100
AcDbEntity
  8
0
100
AcDbTrace
 10
-0.5
 20
0.5
 30
0.0
 11
0.5
 21
0.5
 31
0.0
 12
-0.5
 22
-0.5
 32
0.0
 13
0.5
 23
-0.5
 33
0.0
  0
LINE
  5
59
330
57
100
AcDbEntity
  8
0
100
AcDbLine
 10
-0.5
 20
0.0
 30
0.0
 11
-1.0
 21
0.0
 31
0.0
  0
ENDBLK
  5
5B
330
57
100
AcDbEntity
  8
0
100
AcDbBlockEnd
  0
BLOCK
  5
5F
330
5C
100
AcDbEntity
  8
0
100
AcDbBlockBegin
  2
_INTEGRAL
 70
     0
 71
     0
 10
0.0
 20
0.0
 30
0.0
  3
_INTEGRAL
  1

  0
ARC
  5
5D
330
5C
100
AcDbEntity
  8
0
100
AcDbCircle
 10
0.444888
 20
-0.0913346
 30
0.0
 40
0.4541666
100
AcDbArc
 50
5844.169510334396
 51
9625.69095819783
  0
ARC
  5
5E
330
5C
100
AcDbEntity
  8
0
100
AcDbCircle
 10
-0.444888
 20
0.0913346
 30
0.0
 40
0.4541666
100
AcDbArc
 50
16157.40982268921
 51
19938.93127055265
  0
ENDBLK
  5
60
330
5C
100
AcDbEntity
  8
0
100
AcDbBlockEnd
  0
BLOCK
  5
63
330
61
100
AcDbEntity
  8
0
100
AcDbBlockBegin
  2
_OBLIQUE
 70
     0
 71
     0
 10
0.0
 20
0.0
 30
0.0
  3
_OBLIQUE
  1

  0
LINE
  5
62
330
61
100
AcDbEntity
  8
0
100
AcDbLine
 10
-0.5
 20
-0.5
 30
0.0
 11
0.5
 21
0.5
 31
0.0
  0
ENDBLK
  5
64
330
61
100
AcDbEntity
  8
0
100
AcDbBlockEnd
  0
BLOCK
  5
66
330
65
100
AcDbEntity
  8
0
100
AcDbBlockBegin
  2
_NONE
 70
     0
 71
     0
 10
0.0
 20
0.0
 30
0.0
  3
_NONE
  1

  0
ENDBLK
  5
67
330
65
100
AcDbEntity
  8
0
100
AcDbBlockEnd
  0
BLOCK
  5
90
330
8F
100
AcDbEntity
  8
0
100
AcDbBlockBegin
  2
*G12
 70
     1
 71
     0
 10
0.0
 20
0.0
 30
0.0
  3
*G12
  1

  0
LINE
  5
92
330
8F
100
AcDbEntity
  8
9
  6
Continuous
 62
     5
370
    30
100
AcDbLine
 10
48.0
 20
48.0
 30
0.0
 11
48.0
 21
768.0
 31
0.0
  0
LINE
  5
93
330
8F
100
AcDbEntity
  8
9
  6
Continuous
 62
     5
370
    30
100
AcDbLine
 10
48.0
 20
768.0
 30
0.0
 11
1140.0
 21
768.0
 31
0.0
  0
LINE
  5
94
330
8F
100
AcDbEntity
  8
9
  6
Continuous
 62
     5
370
    30
100
AcDbLine
 10
1140.0
 20
768.0
 30
0.0
 11
1140.0
 21
48.0
 31
0.0
  0
LINE
  5
95
330
8F
100
AcDbEntity
  8
9
  6
Continuous
 62
     5
370
    30
100
AcDbLine
 10
1140.0
 20
48.0
 30
0.0
 11
48.0
 21
48.0
 31
0.0
  0
ENDBLK
  5
91
330
8F
100
AcDbEntity
  8
0
100
AcDbBlockEnd
  0
BLOCK
  5
D3
330
D2
100
AcDbEntity
  8
0
100
AcDbBlockBegin
  2
Dim1
 70
     0
 71
     0
 10
0.0
 20
0.0
 30
0.0
  3
Dim1
  1

  0
LINE
  5
D5
330
D2
100
AcDbEntity
  8
6
  6
Continuous
 62
     7
370
     9
100
AcDbLine
 10
210.1599071252704
 20
503.4469894728402
 30
0.0
 11
210.1599071252704
 21
447.9469894728403
 31
0.0
  0
LINE
  5
D6
330
D2
100
AcDbEntity
  8
6
  6
Continuous
 62
     7
370
     9
100
AcDbLine
 10
206.1599071252704
 20
503.4469894728402
 30
0.0
 11
231.9099071252704
 21
503.4469894728405
 31
0.0
  0
LINE
  5
D7
330
D2
100
AcDbEntity
  8
6
  6
Continuous
 62
     7
370
     9
100
AcDbLine
 10
206.1599071252704
 20
447.9469894728402
 30
0.0
 11
232.1599071252704
 21
447.9469894728405
 31
0.0
  0
LINE
  5
D8
330
D2
100
AcDbEntity
  8
6
  6
Continuous
 62
     7
370
     9
100
AcDbLine
 10
210.1599071252704
 20
503.4469894728402
 30
0.0
 11
212.2304594860905
 21
495.7195828625277
 31
0.0
  0
LINE
  5
D9
330
D2
100
AcDbEntity
  8
6
  6
Continuous
 62
     7
370
     9
100
AcDbLine
 10
210.1599071252704
 20
503.4469894728402
 30
0.0
 11
208.0893547644502
 21
495.7195828625277
 31
0.0
  0
LINE
  5
DA
330
D2
100
AcDbEntity
  8
6
  6
Continuous
 62
     7
370
     9
100
AcDbLine
 10
210.1599071252704
 20
447.9469894728403
 30
0.0
 11
208.0893547644502
 21
455.6743960831528
 31
0.0
  0
LINE
  5
DB
330
D2
100
AcDbEntity
  8
6
  6
Continuous
 62
     7
370
     9
100
AcDbLine
 10
210.1599071252704
 20
447.9469894728403
 30
0.0
 11
212.2304594860906
 21
455.6743960831528
 31
0.0
  0
MTEXT
  5
DC
330
D2
100
AcDbEntity
  8
6
  6
Continuous
 62
     7
370
     9
100
AcDbMText
 10
203.1599071252704
 20
478.1502941210858
 30
0.0
 40
14.0
 41
0.0
 71
     8
 72
     1
  1
55.5
 11
4.058035228607931E-15
 21
1.0
 31
0.0
 73
     1
 44
1.0
  0
ENDBLK
  5
D4
330
D2
100
AcDbEntity
  8
0
100
AcDbBlockEnd
  0
BLOCK
  5
116
330
115
100
AcDbEntity
  8
0
100
AcDbBlockBegin
  2
Dim2
 70
     0
 71
     0
 10
0.0
 20
0.0
 30
0.0
  3
Dim2
  1

  0
LINE
  5
118
330
115
100
AcDbEntity
  8
6
  6
Continuous
 62
     7
370
     9
100
AcDbLine
 10
237.4099071252705
 20
549.4469894728405
 30
0.0
 11
269.4099071252705
 21
549.4469894728405
 31
0.0
  0
LINE
  5
119
330
115
100
AcDbEntity
  8
6
  6
Continuous
 62
     7
370
     9
100
AcDbLine
 10
237.4099071252705
 20
553.4469894728405
 30
0.0
 11
237.4099071252704
 21
510.5225450283964
 31
0.0
  0
LINE
  5
11A
330
115
100
AcDbEntity
  8
6
  6
Continuous
 62
     7
370
     9
100
AcDbLine
 10
269.4099071252705
 20
553.4469894728405
 30
0.0
 11
269.4099071252704
 21
510.5225450283964
 31
0.0
  0
LINE
  5
11B
330
115
100
AcDbEntity
  8
6
  6
Continuous
 62
     7
370
     9
100
AcDbLine
 10
237.4099071252705
 20
549.4469894728405
 30
0.0
 11
245.137313735583
 21
551.5175418336607
 31
0.0
  0
LINE
  5
11C
330
115
100
AcDbEntity
  8
6
  6
Continuous
 62
     7
370
     9
100
AcDbLine
 10
237.4099071252705
 20
549.4469894728405
 30
0.0
 11
245.137313735583
 21
547.3764371120203
 31
0.0
  0
LINE
  5
11D
330
115
100
AcDbEntity
  8
6
  6
Continuous
 62
     7
370
     9
100
AcDbLine
 10
269.4099071252705
 20
549.4469894728405
 30
0.0
 11
261.682500514958
 21
547.3764371120204
 31
0.0
  0
LINE
  5
11E
330
115
100
AcDbEntity
  8
6
  6
Continuous
 62
     7
370
     9
100
AcDbLine
 10
269.4099071252705
 20
549.4469894728405
 30
0.0
 11
261.682500514958
 21
551.5175418336607
 31
0.0
  0
MTEXT
  5
11F
330
115
100
AcDbEntity
  8
6
  6
Continuous
 62
     7
370
     9
100
AcDbMText
 10
253.4099071252705
 20
556.4469894728405
 30
0.0
 40
14.0
 41
0.0
 71
     8
 72
     1
  1
32
 73
     1
 44
1.0
  0
ENDBLK
  5
117
330
115
100
AcDbEntity
  8
0
100
AcDbBlockEnd
  0
BLOCK
  5
122
330
121
100
AcDbEntity
  8
0
100
AcDbBlockBegin
  2
Dim3
 70
     0
 71
     0
 10
0.0
 20
0.0
 30
0.0
  3
Dim3
  1

  0
LINE
  5
124
330
121
100
AcDbEntity
  8
6
  6
Continuous
 62
     7
370
     9
100
AcDbLine
 10
180.1599071252704
 20
519.4469894728398
 30
0.0
 11
180.1599071252704
 21
447.94698947284
 31
0.0
  0
LINE
  5
125
330
121
100
AcDbEntity
  8
6
  6
Continuous
 62
     7
370
     9
100
AcDbLine
 10
176.1599071252704
 20
519.4469894728398
 30
0.0
 11
245.397750200694
 21
519.4469894728404
 31
0.0
  0
LINE
  5
126
330
121
100
AcDbEntity
  8
6
  6
Continuous
 62
     7
370
     9
100
AcDbLine
 10
176.1599071252704
 20
447.94698947284
 30
0.0
 11
232.1599071252704
 21
447.9469894728405
 31
0.0
  0
LINE
  5
127
330
121
100
AcDbEntity
  8
6
  6
Continuous
 62
     7
370
     9
100
AcDbLine
 10
180.1599071252704
 20
519.4469894728398
 30
0.0
 11
182.2304594860905
 21
511.7195828625273
 31
0.0
  0
LINE
  5
128
330
121
100
AcDbEntity
  8
6
  6
Continuous
 62
     7
370
     9
100
AcDbLine
 10
180.1599071252704
 20
519.4469894728398
 30
0.0
 11
178.0893547644502
 21
511.7195828625273
 31
0.0
  0
LINE
  5
129
330
121
100
AcDbEntity
  8
6
  6
Continuous
 62
     7
370
     9
100
AcDbLine
 10
180.1599071252704
 20
447.94698947284
 30
0.0
 11
178.0893547644502
 21
455.6743960831525
 31
0.0
  0
LINE
  5
12A
330
121
100
AcDbEntity
  8
6
  6
Continuous
 62
     7
370
     9
100
AcDbLine
 10
180.1599071252704
 20
447.94698947284
 30
0.0
 11
182.2304594860906
 21
455.6743960831525
 31
0.0
  0
MTEXT
  5
12B
330
121
100
AcDbEntity
  8
6
  6
Continuous
 62
     7
370
     9
100
AcDbMText
 10
173.1599071252704
 20
484.199676837135
 30
0.0
 40
14.0
 41
0.0
 71
     8
 72
     1
  1
71.5
 11
4.058035228607931E-15
 21
1.0
 31
0.0
 73
     1
 44
1.0
  0
ENDBLK
  5
123
330
121
100
AcDbEntity
  8
0
100
AcDbBlockEnd
  0
BLOCK
  5
12E
330
12D
100
AcDbEntity
  8
0
100
AcDbBlockBegin
  2
Dim4
 70
     0
 71
     0
 10
0.0
 20
0.0
 30
0.0
  3
Dim4
  1

  0
LINE
  5
130
330
12D
100
AcDbEntity
  8
6
  6
Continuous
 62
     7
370
     9
100
AcDbLine
 10
240.1599071252699
 20
407.9469894728405
 30
0.0
 11
266.6599071252699
 21
407.9469894728405
 31
0.0
  0
LINE
  5
131
330
12D
100
AcDbEntity
  8
6
  6
Continuous
 62
     7
370
     9
100
AcDbLine
 10
240.1599071252699
 20
403.9469894728405
 30
0.0
 11
240.1599071252703
 21
439.9469894728406
 31
0.0
  0
LINE
  5
132
330
12D
100
AcDbEntity
  8
6
  6
Continuous
 62
     7
370
     9
100
AcDbLine
 10
266.6599071252699
 20
403.9469894728405
 30
0.0
 11
266.6599071252703
 21
439.9469894728406
 31
0.0
  0
LINE
  5
133
330
12D
100
AcDbEntity
  8
6
  6
Continuous
 62
     7
370
     9
100
AcDbLine
 10
240.1599071252699
 20
407.9469894728405
 30
0.0
 11
247.8873137355825
 21
410.0175418336606
 31
0.0
  0
LINE
  5
134
330
12D
100
AcDbEntity
  8
6
  6
Continuous
 62
     7
370
     9
100
AcDbLine
 10
240.1599071252699
 20
407.9469894728405
 30
0.0
 11
247.8873137355825
 21
405.8764371120203
 31
0.0
  0
LINE
  5
135
330
12D
100
AcDbEntity
  8
6
  6
Continuous
 62
     7
370
     9
100
AcDbLine
 10
266.6599071252699
 20
407.9469894728405
 30
0.0
 11
258.9325005149574
 21
405.8764371120203
 31
0.0
  0
LINE
  5
136
330
12D
100
AcDbEntity
  8
6
  6
Continuous
 62
     7
370
     9
100
AcDbLine
 10
266.6599071252699
 20
407.9469894728405
 30
0.0
 11
258.9325005149574
 21
410.0175418336607
 31
0.0
  0
MTEXT
  5
137
330
12D
100
AcDbEntity
  8
6
  6
Continuous
 62
     7
370
     9
100
AcDbMText
 10
253.4099071252699
 20
414.9469894728405
 30
0.0
 40
14.0
 41
0.0
 71
     8
 72
     1
  1
26.5
 73
     1
 44
1.0
  0
ENDBLK
  5
12F
330
12D
100
AcDbEntity
  8
0
100
AcDbBlockEnd
  0
BLOCK
  5
144
330
143
100
AcDbEntity
  8
0
100
AcDbBlockBegin
  2
Dim5
 70
     0
 71
     0
 10
0.0
 20
0.0
 30
0.0
  3
Dim5
  1

  0
LINE
  5
146
330
143
100
AcDbEntity
  8
6
  6
Continuous
 62
     7
370
     9
100
AcDbLine
 10
935.6773265852187
 20
197.5260869565215
 30
0.0
 11
335.6773265852187
 21
197.526086956521
 31
0.0
  0
LINE
  5
147
330
143
100
AcDbEntity
  8
6
  6
Continuous
 62
     7
370
     9
100
AcDbLine
 10
935.6773265852187
 20
193.5260869565215
 30
0.0
 11
935.6773265852189
 21
229.5260869565214
 31
0.0
  0
LINE
  5
148
330
143
100
AcDbEntity
  8
6
  6
Continuous
 62
     7
370
     9
100
AcDbLine
 10
335.6773265852186
 20
193.526086956521
 30
0.0
 11
335.677326585219
 21
229.526086956521
 31
0.0
  0
LINE
  5
149
330
143
100
AcDbEntity
  8
6
  6
Continuous
 62
     7
370
     9
100
AcDbLine
 10
935.6773265852187
 20
197.5260869565215
 30
0.0
 11
927.9499199749062
 21
195.4555345957013
 31
0.0
  0
LINE
  5
14A
330
143
100
AcDbEntity
  8
6
  6
Continuous
 62
     7
370
     9
100
AcDbLine
 10
935.6773265852187
 20
197.5260869565215
 30
0.0
 11
927.9499199749062
 21
199.5966393173416
 31
0.0
  0
LINE
  5
14B
330
143
100
AcDbEntity
  8
6
  6
Continuous
 62
     7
370
     9
100
AcDbLine
 10
335.6773265852187
 20
197.526086956521
 30
0.0
 11
343.4047331955312
 21
199.5966393173412
 31
0.0
  0
LINE
  5
14C
330
143
100
AcDbEntity
  8
6
  6
Continuous
 62
     7
370
     9
100
AcDbLine
 10
335.6773265852187
 20
197.526086956521
 30
0.0
 11
343.4047331955312
 21
195.4555345957008
 31
0.0
  0
MTEXT
  5
14D
330
143
100
AcDbEntity
  8
6
  6
Continuous
 62
     7
370
     9
100
AcDbMText
 10
635.6773264321383
 20
204.5260869565212
 30
0.0
 40
14.0
 41
0.0
 71
     8
 72
     1
  1
600
 73
     1
 44
1.0
  0
ENDBLK
  5
145
330
143
100
AcDbEntity
  8
0
100
AcDbBlockEnd
  0
BLOCK
  5
150
330
14F
100
AcDbEntity
  8
0
100
AcDbBlockBegin
  2
Dim6
 70
     0
 71
     0
 10
0.0
 20
0.0
 30
0.0
  3
Dim6
  1

  0
LINE
  5
152
330
14F
100
AcDbEntity
  8
6
  6
Continuous
 62
     7
370
     9
100
AcDbLine
 10
926.927326585219
 20
298.5160263088377
 30
0.0
 11
946.9273265852194
 21
298.5160263088377
 31
0.0
  0
LINE
  5
153
330
14F
100
AcDbEntity
  8
6
  6
Continuous
 62
     7
370
     9
100
AcDbLine
 10
926.927326585219
 20
302.5160263088377
 30
0.0
 11
926.9273265852189
 21
276.5160263088377
 31
0.0
  0
LINE
  5
154
330
14F
100
AcDbEntity
  8
6
  6
Continuous
 62
     7
370
     9
100
AcDbLine
 10
946.9273265852194
 20
302.5160263088377
 30
0.0
 11
946.9273265852192
 21
276.5160263088377
 31
0.0
  0
LINE
  5
155
330
14F
100
AcDbEntity
  8
6
  6
Continuous
 62
     7
370
     9
100
AcDbLine
 10
926.927326585219
 20
298.5160263088377
 30
0.0
 11
934.6547331955315
 21
300.5865786696579
 31
0.0
  0
LINE
  5
156
330
14F
100
AcDbEntity
  8
6
  6
Continuous
 62
     7
370
     9
100
AcDbLine
 10
926.927326585219
 20
298.5160263088377
 30
0.0
 11
934.6547331955315
 21
296.4454739480175
 31
0.0
  0
LINE
  5
157
330
14F
100
AcDbEntity
  8
6
  6
Continuous
 62
     7
370
     9
100
AcDbLine
 10
946.9273265852194
 20
298.5160263088377
 30
0.0
 11
939.1999199749068
 21
296.4454739480175
 31
0.0
  0
LINE
  5
158
330
14F
100
AcDbEntity
  8
6
  6
Continuous
 62
     7
370
     9
100
AcDbLine
 10
946.9273265852194
 20
298.5160263088377
 30
0.0
 11
939.1999199749068
 21
300.5865786696579
 31
0.0
  0
MTEXT
  5
159
330
14F
100
AcDbEntity
  8
6
  6
Continuous
 62
     7
370
     9
100
AcDbMText
 10
937.2734126843534
 20
305.5160263088377
 30
0.0
 40
14.0
 41
0.0
 71
     8
 72
     1
  1
20
 73
     1
 44
1.0
  0
ENDBLK
  5
151
330
14F
100
AcDbEntity
  8
0
100
AcDbBlockEnd
  0
BLOCK
  5
15C
330
15B
100
AcDbEntity
  8
0
100
AcDbBlockBegin
  2
Dim7
 70
     0
 71
     0
 10
0.0
 20
0.0
 30
0.0
  3
Dim7
  1

  0
LINE
  5
15E
330
15B
100
AcDbEntity
  8
6
  6
Continuous
 62
     7
370
     9
100
AcDbLine
 10
954.6773268913663
 20
377.9469894728408
 30
0.0
 11
877.1773265852187
 21
377.9469894728408
 31
0.0
  0
LINE
  5
15F
330
15B
100
AcDbEntity
  8
6
  6
Continuous
 62
     7
370
     9
100
AcDbLine
 10
954.6773268913663
 20
373.9469894728408
 30
0.0
 11
954.6773268913668
 21
439.9469894728407
 31
0.0
  0
LINE
  5
160
330
15B
100
AcDbEntity
  8
6
  6
Continuous
 62
     7
370
     9
100
AcDbLine
 10
877.1773265852187
 20
373.9469894728408
 30
0.0
 11
877.1773265852191
 21
439.9469894728408
 31
0.0
  0
LINE
  5
161
330
15B
100
AcDbEntity
  8
6
  6
Continuous
 62
     7
370
     9
100
AcDbLine
 10
954.6773268913663
 20
377.9469894728408
 30
0.0
 11
946.9499202810538
 21
375.8764371120207
 31
0.0
  0
LINE
  5
162
330
15B
100
AcDbEntity
  8
6
  6
Continuous
 62
     7
370
     9
100
AcDbLine
 10
954.6773268913663
 20
377.9469894728408
 30
0.0
 11
946.9499202810538
 21
380.017541833661
 31
0.0
  0
LINE
  5
163
330
15B
100
AcDbEntity
  8
6
  6
Continuous
 62
     7
370
     9
100
AcDbLine
 10
877.1773265852187
 20
377.9469894728408
 30
0.0
 11
884.9047331955312
 21
380.017541833661
 31
0.0
  0
LINE
  5
164
330
15B
100
AcDbEntity
  8
6
  6
Continuous
 62
     7
370
     9
100
AcDbLine
 10
877.1773265852187
 20
377.9469894728408
 30
0.0
 11
884.9047331955312
 21
375.8764371120207
 31
0.0
  0
MTEXT
  5
165
330
15B
100
AcDbEntity
  8
6
  6
Continuous
 62
     7
370
     9
100
AcDbMText
 10
914.3021721535808
 20
384.9469894728408
 30
0.0
 40
14.0
 41
0.0
 71
     8
 72
     1
  1
77.5
 73
     1
 44
1.0
  0
ENDBLK
  5
15D
330
15B
100
AcDbEntity
  8
0
100
AcDbBlockEnd
  0
BLOCK
  5
168
330
167
100
AcDbEntity
  8
0
100
AcDbBlockBegin
  2
Dim8
 70
     0
 71
     0
 10
0.0
 20
0.0
 30
0.0
  3
Dim8
  1

  0
LINE
  5
16A
330
167
100
AcDbEntity
  8
6
  6
Continuous
 62
     7
370
     9
100
AcDbLine
 10
984.6773268913666
 20
518.9469894728409
 30
0.0
 11
984.6773268913666
 21
447.9469894728404
 31
0.0
  0
LINE
  5
16B
330
167
100
AcDbEntity
  8
6
  6
Continuous
 62
     7
370
     9
100
AcDbLine
 10
988.6773268913666
 20
518.9469894728409
 30
0.0
 11
962.6773268913668
 21
518.9469894728409
 31
0.0
  0
LINE
  5
16C
330
167
100
AcDbEntity
  8
6
  6
Continuous
 62
     7
370
     9
100
AcDbLine
 10
988.6773268913666
 20
447.9469894728403
 30
0.0
 11
962.6773265852169
 21
447.9469894728407
 31
0.0
  0
LINE
  5
16D
330
167
100
AcDbEntity
  8
6
  6
Continuous
 62
     7
370
     9
100
AcDbLine
 10
984.6773268913666
 20
518.9469894728409
 30
0.0
 11
986.7478792521869
 21
511.2195828625283
 31
0.0
  0
LINE
  5
16E
330
167
100
AcDbEntity
  8
6
  6
Continuous
 62
     7
370
     9
100
AcDbLine
 10
984.6773268913666
 20
518.9469894728409
 30
0.0
 11
982.6067745305465
 21
511.2195828625283
 31
0.0
  0
LINE
  5
16F
330
167
100
AcDbEntity
  8
6
  6
Continuous
 62
     7
370
     9
100
AcDbLine
 10
984.6773268913666
 20
447.9469894728404
 30
0.0
 11
982.6067745305465
 21
455.6743960831529
 31
0.0
  0
LINE
  5
170
330
167
100
AcDbEntity
  8
6
  6
Continuous
 62
     7
370
     9
100
AcDbLine
 10
984.6773268913666
 20
447.9469894728404
 30
0.0
 11
986.7478792521869
 21
455.6743960831529
 31
0.0
  0
MTEXT
  5
171
330
167
100
AcDbEntity
  8
6
  6
Continuous
 62
     7
370
     9
100
AcDbMText
 10
977.6773268913666
 20
482.8608826282753
 30
0.0
 40
14.0
 41
0.0
 71
     8
 72
     1
  1
71
 11
1.615544574432587E-15
 21
1.0
 31
0.0
 73
     1
 44
1.0
  0
ENDBLK
  5
169
330
167
100
AcDbEntity
  8
0
100
AcDbBlockEnd
  0
BLOCK
  5
174
330
173
100
AcDbEntity
  8
0
100
AcDbBlockBegin
  2
Dim9
 70
     0
 71
     0
 10
0.0
 20
0.0
 30
0.0
  3
Dim9
  1

  0
LINE
  5
176
330
173
100
AcDbEntity
  8
6
  6
Continuous
 62
     7
370
     9
100
AcDbLine
 10
917.1773265852165
 20
407.9469894728408
 30
0.0
 11
954.6773268913664
 21
407.9469894728408
 31
0.0
  0
LINE
  5
177
330
173
100
AcDbEntity
  8
6
  6
Continuous
 62
     7
370
     9
100
AcDbLine
 10
917.1773265852165
 20
403.9469894728408
 30
0.0
 11
917.1773265852167
 21
439.9469894728408
 31
0.0
  0
LINE
  5
178
330
173
100
AcDbEntity
  8
6
  6
Continuous
 62
     7
370
     9
100
AcDbLine
 10
954.6773268913664
 20
403.9469894728408
 30
0.0
 11
954.6773268913666
 21
439.9469894728407
 31
0.0
  0
LINE
  5
179
330
173
100
AcDbEntity
  8
6
  6
Continuous
 62
     7
370
     9
100
AcDbLine
 10
917.1773265852165
 20
407.9469894728408
 30
0.0
 11
924.904733195529
 21
410.017541833661
 31
0.0
  0
LINE
  5
17A
330
173
100
AcDbEntity
  8
6
  6
Continuous
 62
     7
370
     9
100
AcDbLine
 10
917.1773265852165
 20
407.9469894728408
 30
0.0
 11
924.904733195529
 21
405.8764371120207
 31
0.0
  0
LINE
  5
17B
330
173
100
AcDbEntity
  8
6
  6
Continuous
 62
     7
370
     9
100
AcDbLine
 10
954.6773268913664
 20
407.9469894728408
 30
0.0
 11
946.9499202810539
 21
405.8764371120207
 31
0.0
  0
LINE
  5
17C
330
173
100
AcDbEntity
  8
6
  6
Continuous
 62
     7
370
     9
100
AcDbLine
 10
954.6773268913664
 20
407.9469894728408
 30
0.0
 11
946.9499202810539
 21
410.017541833661
 31
0.0
  0
MTEXT
  5
17D
330
173
100
AcDbEntity
  8
6
  6
Continuous
 62
     7
370
     9
100
AcDbMText
 10
936.7368639627867
 20
414.9469894728408
 30
0.0
 40
14.0
 41
0.0
 71
     8
 72
     1
  1
37.5
 73
     1
 44
1.0
  0
ENDBLK
  5
175
330
173
100
AcDbEntity
  8
0
100
AcDbBlockEnd
  0
BLOCK
  5
1B0
330
1AF
100
AcDbEntity
  8
0
100
AcDbBlockBegin
  2
Dim10
 70
     0
 71
     0
 10
0.0
 20
0.0
 30
0.0
  3
Dim10
  1

  0
LINE
  5
1B2
330
1AF
100
AcDbEntity
  8
6
  6
Continuous
 62
     7
370
     9
100
AcDbLine
 10
316.6773262790589
 20
579.4469894728405
 30
0.0
 11
954.6773268913669
 21
579.446989472841
 31
0.0
  0
LINE
  5
1B3
330
1AF
100
AcDbEntity
  8
6
  6
Continuous
 62
     7
370
     9
100
AcDbLine
 10
316.6773262790589
 20
583.4469894728405
 30
0.0
 11
316.6773262790587
 21
527.4469894728403
 31
0.0
  0
LINE
  5
1B4
330
1AF
100
AcDbEntity
  8
6
  6
Continuous
 62
     7
370
     9
100
AcDbLine
 10
954.6773268913669
 20
583.446989472841
 30
0.0
 11
954.6773268913668
 21
527.4469894728408
 31
0.0
  0
LINE
  5
1B5
330
1AF
100
AcDbEntity
  8
6
  6
Continuous
 62
     7
370
     9
100
AcDbLine
 10
316.6773262790589
 20
579.4469894728405
 30
0.0
 11
324.4047328893714
 21
581.5175418336607
 31
0.0
  0
LINE
  5
1B6
330
1AF
100
AcDbEntity
  8
6
  6
Continuous
 62
     7
370
     9
100
AcDbLine
 10
316.6773262790589
 20
579.4469894728405
 30
0.0
 11
324.4047328893714
 21
577.3764371120203
 31
0.0
  0
LINE
  5
1B7
330
1AF
100
AcDbEntity
  8
6
  6
Continuous
 62
     7
370
     9
100
AcDbLine
 10
954.6773268913669
 20
579.446989472841
 30
0.0
 11
946.9499202810543
 21
577.3764371120209
 31
0.0
  0
LINE
  5
1B8
330
1AF
100
AcDbEntity
  8
6
  6
Continuous
 62
     7
370
     9
100
AcDbLine
 10
954.6773268913669
 20
579.446989472841
 30
0.0
 11
946.9499202810543
 21
581.5175418336612
 31
0.0
  0
MTEXT
  5
1B9
330
1AF
100
AcDbEntity
  8
6
  6
Continuous
 62
     7
370
     9
100
AcDbMText
 10
635.6773264321371
 20
586.4469894728408
 30
0.0
 40
14.0
 41
0.0
 71
     8
 72
     1
  1
638
 73
     1
 44
1.0
  0
ENDBLK
  5
1B1
330
1AF
100
AcDbEntity
  8
0
100
AcDbBlockEnd
  0
BLOCK
  5
1CF
330
1CE
100
AcDbEntity
  8
0
100
AcDbBlockBegin
  2
Dim11
 70
     0
 71
     0
 10
0.0
 20
0.0
 30
0.0
  3
Dim11
  1

  0
LINE
  5
1D1
330
1CE
100
AcDbEntity
  8
6
  6
Continuous
 62
     7
370
     9
100
AcDbLine
 10
377.6773262790587
 20
549.4469894728404
 30
0.0
 11
893.6773268913668
 21
549.4469894728411
 31
0.0
  0
LINE
  5
1D2
330
1CE
100
AcDbEntity
  8
6
  6
Continuous
 62
     7
370
     9
100
AcDbLine
 10
377.6773262790587
 20
553.4469894728404
 30
0.0
 11
377.6773262790587
 21
527.4469894728404
 31
0.0
  0
LINE
  5
1D3
330
1CE
100
AcDbEntity
  8
6
  6
Continuous
 62
     7
370
     9
100
AcDbLine
 10
893.6773268913668
 20
553.4469894728411
 30
0.0
 11
893.6773268913668
 21
527.4469894728408
 31
0.0
  0
LINE
  5
1D4
330
1CE
100
AcDbEntity
  8
6
  6
Continuous
 62
     7
370
     9
100
AcDbLine
 10
377.6773262790587
 20
549.4469894728404
 30
0.0
 11
385.4047328893712
 21
551.5175418336606
 31
0.0
  0
LINE
  5
1D5
330
1CE
100
AcDbEntity
  8
6
  6
Continuous
 62
     7
370
     9
100
AcDbLine
 10
377.6773262790587
 20
549.4469894728404
 30
0.0
 11
385.4047328893712
 21
547.3764371120202
 31
0.0
  0
LINE
  5
1D6
330
1CE
100
AcDbEntity
  8
6
  6
Continuous
 62
     7
370
     9
100
AcDbLine
 10
893.6773268913668
 20
549.4469894728411
 30
0.0
 11
885.9499202810542
 21
547.376437112021
 31
0.0
  0
LINE
  5
1D7
330
1CE
100
AcDbEntity
  8
6
  6
Continuous
 62
     7
370
     9
100
AcDbLine
 10
893.6773268913668
 20
549.4469894728411
 30
0.0
 11
885.9499202810542
 21
551.5175418336613
 31
0.0
  0
MTEXT
  5
1D8
330
1CE
100
AcDbEntity
  8
6
  6
Continuous
 62
     7
370
     9
100
AcDbMText
 10
635.6773264321371
 20
556.4469894728408
 30
0.0
 40
14.0
 41
0.0
 71
     8
 72
     1
  1
516
 73
     1
 44
1.0
  0
ENDBLK
  5
1D0
330
1CE
100
AcDbEntity
  8
0
100
AcDbBlockEnd
  0
BLOCK
  5
1E0
330
1DF
100
AcDbEntity
  8
0
100
AcDbBlockBegin
  2
Dim12
 70
     0
 71
     0
 10
0.0
 20
0.0
 30
0.0
  3
Dim12
  1

  0
LINE
  5
1E2
330
1DF
100
AcDbEntity
  8
6
  6
Continuous
 62
     7
370
     9
100
AcDbLine
 10
677.1773262790582
 20
635.3524431810032
 30
0.0
 11
677.1773262790582
 21
720.0106446304687
 31
0.0
  0
LINE
  5
1E3
330
1DF
100
AcDbEntity
  8
6
  6
Continuous
 62
     7
370
     9
100
AcDbLine
 10
677.1773262790582
 20
655.3524431810032
 30
0.0
 11
679.2478786398783
 21
647.6250365706907
 31
0.0
  0
LINE
  5
1E4
330
1DF
100
AcDbEntity
  8
6
  6
Continuous
 62
     7
370
     9
100
AcDbLine
 10
677.1773262790582
 20
655.3524431810032
 30
0.0
 11
675.106773918238
 21
647.6250365706907
 31
0.0
  0
LINE
  5
1E5
330
1DF
100
AcDbEntity
  8
6
  6
Continuous
 62
     7
370
     9
100
AcDbLine
 10
677.1773262790582
 20
687.3524431810008
 30
0.0
 11
675.1067739182381
 21
695.0798497913133
 31
0.0
  0
LINE
  5
1E6
330
1DF
100
AcDbEntity
  8
6
  6
Continuous
 62
     7
370
     9
100
AcDbLine
 10
677.1773262790582
 20
687.3524431810008
 30
0.0
 11
679.2478786398784
 21
695.0798497913133
 31
0.0
  0
MTEXT
  5
1E7
330
1DF
100
AcDbEntity
  8
6
  6
Continuous
 62
     7
370
     9
100
AcDbMText
 10
669.1773262790582
 20
704.0106446304687
 30
0.0
 40
16.0
 41
0.0
 71
     8
 72
     1
  1
φ32
 11
1.615544574432587E-15
 21
1.0
 31
0.0
 73
     1
 44
1.0
  0
ENDBLK
  5
1E1
330
1DF
100
AcDbEntity
  8
0
100
AcDbBlockEnd
  0
BLOCK
  5
1F2
330
1F1
100
AcDbEntity
  8
0
100
AcDbBlockBegin
  2
Dim13
 70
     0
 71
     0
 10
0.0
 20
0.0
 30
0.0
  3
Dim13
  1

  0
LINE
  5
1F4
330
1F1
100
AcDbEntity
  8
6
  6
Continuous
 62
     7
370
     9
100
AcDbLine
 10
986.6773265852189
 20
260.5219531730546
 30
0.0
 11
986.6773265852189
 21
244.5219531730546
 31
0.0
  0
LINE
  5
1F5
330
1F1
100
AcDbEntity
  8
6
  6
Continuous
 62
     7
370
     9
100
AcDbLine
 10
990.6773265852189
 20
260.5219531730545
 30
0.0
 11
962.677326585219
 21
260.5219531730548
 31
0.0
  0
LINE
  5
1F6
330
1F1
100
AcDbEntity
  8
6
  6
Continuous
 62
     7
370
     9
100
AcDbLine
 10
990.6773265852189
 20
244.5219531730546
 30
0.0
 11
962.677326585219
 21
244.5219531730548
 31
0.0
  0
LINE
  5
1F7
330
1F1
100
AcDbEntity
  8
6
  6
Continuous
 62
     7
370
     9
100
AcDbLine
 10
986.6773265852189
 20
260.5219531730546
 30
0.0
 11
988.7478789460391
 21
252.794546562742
 31
0.0
  0
LINE
  5
1F8
330
1F1
100
AcDbEntity
  8
6
  6
Continuous
 62
     7
370
     9
100
AcDbLine
 10
986.6773265852189
 20
260.5219531730546
 30
0.0
 11
984.6067742243988
 21
252.794546562742
 31
0.0
  0
LINE
  5
1F9
330
1F1
100
AcDbEntity
  8
6
  6
Continuous
 62
     7
370
     9
100
AcDbLine
 10
986.6773265852189
 20
244.5219531730546
 30
0.0
 11
984.6067742243988
 21
252.2493597833672
 31
0.0
  0
LINE
  5
1FA
330
1F1
100
AcDbEntity
  8
6
  6
Continuous
 62
     7
370
     9
100
AcDbLine
 10
986.6773265852189
 20
244.5219531730546
 30
0.0
 11
988.7478789460391
 21
252.2493597833672
 31
0.0
  0
MTEXT
  5
1FB
330
1F1
100
AcDbEntity
  8
6
  6
Continuous
 62
     7
370
     9
100
AcDbMText
 10
979.6773265852189
 20
252.5219531730546
 30
0.0
 40
14.0
 41
0.0
 71
     8
 72
     1
  1
16
 11
1.615544574432587E-15
 21
1.0
 31
0.0
 73
     1
 44
1.0
  0
ENDBLK
  5
1F3
330
1F1
100
AcDbEntity
  8
0
100
AcDbBlockEnd
  0
ENDSEC
  0
SECTION
  2
ENTITIES
  0
INSERT
  5
96
330
1F
100
AcDbEntity
  8
0
100
AcDbBlockReference
  2
*G12
 10
0.0
 20
0.0
 30
0.0
  0
LINE
  5
97
330
1F
100
AcDbEntity
  8
8
  6
Continuous
 62
   171
370
    18
100
AcDbLine
 10
948.0
 20
144.0
 30
0.0
 11
948.0
 21
80.0
 31
0.0
  0
TEXT
  5
98
330
1F
100
AcDbEntity
  8
8
  6
Continuous
 62
   171
370
     9
100
AcDbText
 10
750.0
 20
78.0
 30
0.0
 40
11.66666666666667
  1
備考
 50
-0.0000000000000891
 41
0.9999999999999994
  7
T_STANDARD
100
AcDbText
  0
TEXT
  5
99
330
1F
100
AcDbEntity
  8
8
  6
Continuous
 62
   171
370
     9
100
AcDbText
 10
750.0
 20
110.0
 30
0.0
 40
11.66666666666667
  1
品番
 50
-0.0000000000000891
  7
T_STANDARD
100
AcDbText
  0
TEXT
  5
9A
330
1F
100
AcDbEntity
  8
8
  6
Continuous
 62
   171
370
     9
100
AcDbText
 10
750.0
 20
142.0
 30
0.0
 40
11.66666666666667
  1
品名
 50
-0.0000000000000891
  7
T_STANDARD
100
AcDbText
  0
LINE
  5
9B
330
1F
100
AcDbEntity
  8
8
  6
Continuous
 62
   171
370
    18
100
AcDbLine
 10
948.0
 20
112.0
 30
0.0
 11
740.0
 21
112.0
 31
0.0
  0
LINE
  5
9C
330
1F
100
AcDbEntity
  8
8
  6
Continuous
 62
   171
370
    18
100
AcDbLine
 10
760.0
 20
144.0
 30
0.0
 11
760.0
 21
48.0
 31
0.0
  0
LINE
  5
9D
330
1F
100
AcDbEntity
  8
9
  6
Continuous
 62
     5
370
    30
100
AcDbLine
 10
1140.0
 20
144.0
 30
0.0
 11
740.0
 21
144.0
 31
0.0
  0
LINE
  5
9E
330
1F
100
AcDbEntity
  8
9
  6
Continuous
 62
     5
370
    30
100
AcDbLine
 10
740.0
 20
144.0
 30
0.0
 11
740.0
 21
48.0
 31
0.0
  0
LINE
  5
9F
330
1F
100
AcDbEntity
  8
8
  6
Continuous
 62
   171
370
    18
100
AcDbLine
 10
996.0
 20
144.0
 30
0.0
 11
996.0
 21
48.0
 31
0.0
  0
TEXT
  5
A0
330
1F
100
AcDbEntity
  8
8
  6
Continuous
 62
   171
370
     9
100
AcDbText
 10
954.0
 20
128.0
 30
0.0
 40
12.0
  1
縮　尺
 41
0.8333333333333335
100
AcDbText
  0
LINE
  5
A1
330
1F
100
AcDbEntity
  8
8
  6
Continuous
 62
   171
370
    18
100
AcDbLine
 10
948.0
 20
124.0
 30
0.0
 11
996.0
 21
124.0
 31
0.0
  0
LINE
  5
A2
330
1F
100
AcDbEntity
  8
8
  6
Continuous
 62
   171
370
    18
100
AcDbLine
 10
996.0
 20
80.0
 30
0.0
 11
740.0
 21
80.0
 31
0.0
  0
LINE
  5
A3
330
1F
100
AcDbEntity
  8
8
  6
Continuous
 62
   171
370
    18
100
AcDbLine
 10
1140.0
 20
72.0
 30
0.0
 11
996.0
 21
72.0
 31
0.0
  0
LINE
  5
A4
330
1F
100
AcDbEntity
  8
8
  6
Continuous
 62
   171
370
    18
100
AcDbLine
 10
996.0
 20
96.0
 30
0.0
 11
1140.0
 21
96.0
 31
0.0
  0
LINE
  5
A5
330
1F
100
AcDbEntity
  8
8
  6
Continuous
 62
   171
370
    18
100
AcDbLine
 10
1140.0
 20
112.0
 30
0.0
 11
996.0
 21
112.0
 31
0.0
  0
TEXT
  5
A6
330
1F
100
AcDbEntity
  8
8
  6
Continuous
 62
   171
370
     9
100
AcDbText
 10
1004.0
 20
118.0
 30
0.0
 40
20.0
  1
株式会社シマブン
 41
0.6666666666666679
100
AcDbText
  0
TEXT
  5
A7
330
1F
100
AcDbEntity
  8
8
  6
Continuous
 62
   171
370
     9
100
AcDbText
 10
1002.0
 20
47.99999999999998
 30
0.0
 40
12.0
  1
年月日
 41
0.8333333333333335
100
AcDbText
  0
TEXT
  5
A8
330
1F
100
AcDbEntity
  8
8
  6
Continuous
 62
   171
370
     9
100
AcDbText
 10
1002.0
 20
60.0
 30
0.0
 40
12.0
  1
作　成
 41
0.8333333333333335
100
AcDbText
  0
TEXT
  5
A9
330
1F
100
AcDbEntity
  8
8
  6
Continuous
 62
   171
370
     9
100
AcDbText
 10
1005.0
 20
98.0
 30
0.0
 40
12.0
  1
承 認
 41
0.8333333333333334
100
AcDbText
  0
LINE
  5
AA
330
1F
100
AcDbEntity
  8
8
  6
Continuous
 62
   171
370
    18
100
AcDbLine
 10
1044.0
 20
112.0
 30
0.0
 11
1044.0
 21
48.0
 31
0.0
  0
TEXT
  5
AB
330
1F
100
AcDbEntity
  8
8
  6
Continuous
 62
   171
370
     9
100
AcDbText
 10
1053.0
 20
98.0
 30
0.0
 40
12.0
  1
検 図
 41
0.8333333333333334
100
AcDbText
  0
LINE
  5
AC
330
1F
100
AcDbEntity
  8
8
  6
Continuous
 62
   171
370
    18
100
AcDbLine
 10
1092.0
 20
112.0
 30
0.0
 11
1092.0
 21
72.0
 31
0.0
  0
TEXT
  5
AD
330
1F
100
AcDbEntity
  8
8
  6
Continuous
 62
   171
370
     9
100
AcDbText
 10
1100.0
 20
76.00000000000003
 30
0.0
 40
16.0
  1
藤戸
 41
0.8333333333333334
100
AcDbText
  0
TEXT
  5
AE
330
1F
100
AcDbEntity
  8
8
  6
Continuous
 62
   171
370
     9
100
AcDbText
 10
1101.0
 20
98.0
 30
0.0
 40
12.0
  1
設 計
 41
0.8333333333333334
100
AcDbText
  0
TEXT
  5
AF
330
1F
100
AcDbEntity
  8
8
  6
Continuous
 62
   171
370
     9
100
AcDbText
 10
955.1999999999998
 20
94.0
 30
0.0
 40
16.0
  1
１：４
 41
0.5833333333333397
100
AcDbText
  0
LINE
  5
B0
330
1F
100
AcDbEntity
  8
8
  6
Continuous
 62
   171
370
    18
100
AcDbLine
 10
1020.0
 20
754.0
 30
0.0
 11
1020.0
 21
767.9999999999995
 31
0.0
  0
LINE
  5
B1
330
1F
100
AcDbEntity
  8
8
  6
Continuous
 62
   171
370
    18
100
AcDbLine
 10
940.0
 20
754.0
 30
0.0
 11
940.0
 21
767.9999999999995
 31
0.0
  0
LINE
  5
B2
330
1F
100
AcDbEntity
  8
8
  6
Continuous
 62
   171
370
    18
100
AcDbLine
 10
740.0
 20
754.0
 30
0.0
 11
740.0
 21
767.9999999999995
 31
0.0
  0
LINE
  5
B3
330
1F
100
AcDbEntity
  8
8
  6
Continuous
 62
   171
370
    18
100
AcDbLine
 10
712.0
 20
754.0
 30
0.0
 11
712.0
 21
767.9999999999995
 31
0.0
  0
LINE
  5
B4
330
1F
100
AcDbEntity
  8
8
  6
Continuous
 62
   171
370
    18
100
AcDbLine
 10
1140.0
 20
754.0
 30
0.0
 11
712.0
 21
754.0
 31
0.0
  0
TEXT
  5
B5
330
1F
100
AcDbEntity
  8
8
  6
Continuous
 62
   171
370
     9
100
AcDbText
 10
716.0
 20
755.9999999999999
 30
0.0
 40
10.0
  1
記号
 41
0.8333333333333334
100
AcDbText
  0
TEXT
  5
B6
330
1F
100
AcDbEntity
  8
8
  6
Continuous
 62
   171
370
     9
100
AcDbText
 10
797.5
 20
756.0
 30
0.0
 40
10.0
  1
訂　 正　 記　 事
 41
0.8333333333333334
100
AcDbText
  0
TEXT
  5
B7
330
1F
100
AcDbEntity
  8
8
  6
Continuous
 62
   171
370
     9
100
AcDbText
 10
945.0
 20
756.0
 30
0.0
 40
10.0
  1
訂 正 年 月 日
 41
0.8333333333333334
100
AcDbText
  0
TEXT
  5
B8
330
1F
100
AcDbEntity
  8
8
  6
Continuous
 62
   171
370
     9
100
AcDbText
 10
1045.0
 20
756.0
 30
0.0
 40
10.0
  1
備　　　　　考
 41
0.8333333333333333
100
AcDbText
  0
TEXT
  5
B9
330
1F
100
AcDbEntity
  8
8
  6
Continuous
 62
   171
370
     9
100
AcDbText
 10
772.4000000000001
 20
128.0
 30
0.0
 40
16.0
  1
木製高級インテリアバー
 41
0.6250000000000001
100
AcDbText
  0
TEXT
  5
BA
330
1F
100
AcDbEntity
  8
8
  6
Continuous
 62
   171
370
     9
100
AcDbText
 10
772.4000000000001
 20
112.0
 30
0.0
 40
16.0
  1
天然木高級スマートタイプ
 41
0.6250000000000001
100
AcDbText
  0
TEXT
  5
BB
330
1F
100
AcDbEntity
  8
8
  6
Continuous
 62
   171
370
     9
100
AcDbText
 10
772.3999999999999
 20
56.0
 30
0.0
 40
16.0
  1
色については品番表参照のこと
 41
0.5000000000000004
100
AcDbText
  0
LINE
  5
BC
330
1F
100
AcDbEntity
  8
8
  6
Continuous
 62
   171
370
    18
100
AcDbLine
 10
270.6159722222192
 20
78.37499999999997
 30
0.0
 11
434.6159722222192
 21
78.37499999999997
 31
0.0
  0
TEXT
  5
BD
330
1F
100
AcDbEntity
  8
8
  6
Continuous
 62
   171
370
     9
100
AcDbText
 10
282.615972222219
 20
82.37499999999997
 30
0.0
 40
12.0
  1
ブラケット
 41
0.6666666666666666
100
AcDbText
  0
TEXT
  5
BE
330
1F
100
AcDbEntity
  8
8
  6
Continuous
 62
   171
370
     9
100
AcDbText
 10
374.215972222219
 20
82.37499999999997
 30
0.0
 40
12.0
  1
アルミ
 41
0.6666666666666657
100
AcDbText
  0
LINE
  5
BF
330
1F
100
AcDbEntity
  8
8
  6
Continuous
 62
   171
370
    18
100
AcDbLine
 10
270.6159722222192
 20
98.37499999999997
 30
0.0
 11
434.6159722222192
 21
98.37499999999997
 31
0.0
  0
TEXT
  5
C0
330
1F
100
AcDbEntity
  8
8
  6
Continuous
 62
   171
370
     9
100
AcDbText
 10
287.415972222219
 20
102.375
 30
0.0
 40
12.0
  1
本　　体
 41
0.6666666666666663
100
AcDbText
  0
TEXT
  5
C1
330
1F
100
AcDbEntity
  8
8
  6
Continuous
 62
   171
370
     9
100
AcDbText
 10
355.0159722222189
 20
102.375
 30
0.0
 40
12.0
  1
ハードメイプル
 41
0.6666666666666671
100
AcDbText
  0
LINE
  5
C2
330
1F
100
AcDbEntity
  8
8
  6
Continuous
 62
   171
370
    18
100
AcDbLine
 10
270.6159722222192
 20
118.375
 30
0.0
 11
434.6159722222192
 21
118.375
 31
0.0
  0
LINE
  5
C3
330
1F
100
AcDbEntity
  8
8
  6
Continuous
 62
   171
370
    18
100
AcDbLine
 10
342.6159722222192
 20
78.37499999999997
 30
0.0
 11
342.6159722222192
 21
138.375
 31
0.0
  0
LINE
  5
C4
330
1F
100
AcDbEntity
  8
8
  6
Continuous
 62
   171
370
    18
100
AcDbLine
 10
270.6159722222192
 20
78.37499999999997
 30
0.0
 11
270.6159722222192
 21
138.375
 31
0.0
  0
LINE
  5
C5
330
1F
100
AcDbEntity
  8
8
  6
Continuous
 62
   171
370
    18
100
AcDbLine
 10
270.6159722222192
 20
138.375
 30
0.0
 11
434.6159722222192
 21
138.375
 31
0.0
  0
LINE
  5
C6
330
1F
100
AcDbEntity
  8
8
  6
Continuous
 62
   171
370
    18
100
AcDbLine
 10
434.6159722222192
 20
78.37499999999997
 30
0.0
 11
434.6159722222192
 21
138.375
 31
0.0
  0
TEXT
  5
C7
330
1F
100
AcDbEntity
  8
8
  6
Continuous
 62
   171
370
     9
100
AcDbText
 10
303.6159722222192
 20
142.375
 30
0.0
 40
14.0
  1
材質表
 41
1.944444444444445
100
AcDbText
  0
TEXT
  5
C8
330
1F
100
AcDbEntity
  8
8
  6
Continuous
 62
   171
370
     9
100
AcDbText
 10
287.415972222219
 20
122.375
 30
0.0
 40
12.0
  1
名　　称
 41
0.6666666666666683
100
AcDbText
  0
TEXT
  5
C9
330
1F
100
AcDbEntity
  8
8
  6
Continuous
 62
   171
370
     9
100
AcDbText
 10
369.4159722222189
 20
122.375
 30
0.0
 40
12.0
  1
材　　質
 41
0.6666666666666683
100
AcDbText
  0
LINE
  5
CA
330
1F
100
AcDbEntity
  8
1
  6
DASHDOT
 62
    45
370
     9
100
AcDbLine
 10
335.6773265852189
 20
275.7080789459001
 30
0.0
 11
335.6773265852191
 21
236.4554391126557
 31
0.0
  0
LINE
  5
CB
330
1F
100
AcDbEntity
  8
1
  6
Continuous
 62
    45
370
     9
100
AcDbLine
 10
354.177326585219
 20
263.7719531730546
 30
0.0
 11
354.177326585219
 21
241.2719531730545
 31
0.0
  0
LINE
  5
CC
330
1F
100
AcDbEntity
  8
1
  6
Continuous
 62
    45
370
     9
100
AcDbLine
 10
354.177326585219
 20
241.2719531730545
 30
0.0
 11
352.1773265852191
 21
239.2719531730545
 31
0.0
  0
LINE
  5
CD
330
1F
100
AcDbEntity
  8
1
  6
Continuous
 62
    45
370
     9
100
AcDbLine
 10
352.1773265852189
 20
265.7719531730546
 30
0.0
 11
354.177326585219
 21
263.7719531730546
 31
0.0
  0
LINE
  5
CE
330
1F
100
AcDbEntity
  8
1
  6
Continuous
 62
    45
370
     9
100
AcDbLine
 10
318.1773265852189
 20
265.7719531730544
 30
0.0
 11
316.677326585219
 21
263.7719531730544
 31
0.0
  0
LINE
  5
CF
330
1F
100
AcDbEntity
  8
1
  6
Continuous
 62
    45
370
     9
100
AcDbLine
 10
318.1773265852191
 20
239.2719531730544
 30
0.0
 11
316.677326585219
 21
241.2719531730544
 31
0.0
  0
LINE
  5
D0
330
1F
100
AcDbEntity
  8
1
  6
Continuous
 62
    45
370
     9
100
AcDbLine
 10
318.1773265852189
 20
265.7719531730544
 30
0.0
 11
370.6773265852189
 21
265.7719531730547
 31
0.0
  0
LINE
  5
D1
330
1F
100
AcDbEntity
  8
1
  6
Continuous
 62
    45
370
     9
100
AcDbLine
 10
318.1773265852191
 20
239.2719531730544
 30
0.0
 11
370.6773265852191
 21
239.2719531730546
 31
0.0
  0
DIMENSION
  5
DD
330
1F
100
AcDbEntity
  8
6
  6
Continuous
 62
     7
370
     9
100
AcDbDimension
  2
Dim1
 10
210.1599071252704
 20
503.4469894728402
 30
0.0
 11
203.1599071252704
 21
478.1502941210858
 31
0.0
 70
   160
  1
<>
 71
     5
 42
-1.0
  3
Standard
100
AcDbAlignedDimension
 13
239.9099071252704
 23
503.4469894728405
 33
0.0
 14
240.1599071252704
 24
447.9469894728406
 34
0.0
 50
89.99999999999977
100
AcDbRotatedDimension
1001
ACAD
1000
DSTYLE
1002
{
1070
   344
1005
3C
1070
   343
1005
3C
1070
   173
1070
     1
1070
   289
1070
     2
1070
   279
1070
     2
1070
   288
1070
     1
1070
    77
1070
     3
1070
   172
1070
     1
1070
   174
1070
     0
1070
    74
1070
     0
1070
    73
1070
     0
1070
   284
1070
     8
1070
    78
1070
     8
1070
   140
1040
3.0
1070
    40
1040
4.0
1070
    42
1040
2.0
1070
    44
1040
1.0
1070
    43
1040
10.0
1070
   271
1070
     2
1070
    41
1040
2.0
1002
}
  0
LINE
  5
DE
330
1F
100
AcDbEntity
  8
1
  6
Continuous
 62
    45
370
     9
100
AcDbLine
 10
318.177326585219
 20
268.0219531730544
 30
0.0
 11
318.1773265852192
 21
237.0219531730544
 31
0.0
  0
LINE
  5
DF
330
1F
100
AcDbEntity
  8
1
  6
Continuous
 62
    45
370
     9
100
AcDbLine
 10
318.1773265852189
 20
495.4041354928406
 30
0.0
 11
316.6773265852189
 21
495.9845836928405
 31
0.0
  0
LINE
  5
E0
330
1F
100
AcDbEntity
  8
1
  6
Continuous
 62
    45
370
     9
100
AcDbLine
 10
318.1773265852189
 20
447.9469894728406
 30
0.0
 11
318.1773265852189
 21
518.9469894728405
 31
0.0
  0
LINE
  5
E1
330
1F
100
AcDbEntity
  8
1
  6
Continuous
 62
    45
370
     9
100
AcDbLine
 10
318.1773265852189
 20
495.4041354928406
 30
0.0
 11
370.6773265852189
 21
495.4041354928405
 31
0.0
  0
LINE
  5
E2
330
1F
100
AcDbEntity
  8
1
  6
Continuous
 62
    45
370
     9
100
AcDbLine
 10
318.177326279069
 20
686.8524431810031
 30
0.0
 11
318.177326279069
 21
655.8524431810031
 31
0.0
  0
LINE
  5
E3
330
1F
100
AcDbEntity
  8
1
  6
Continuous
 62
    45
370
     9
100
AcDbLine
 10
240.1599071252704
 20
495.4041354928406
 30
0.0
 11
242.1599071252704
 21
495.9845836928407
 31
0.0
  0
LINE
  5
E4
330
1F
100
AcDbEntity
  8
1
  6
Continuous
 62
    45
370
     9
100
AcDbLine
 10
266.6599071252704
 20
495.4041354928406
 30
0.0
 11
264.6599071252704
 21
495.9845836928405
 31
0.0
  0
LINE
  5
E5
330
1F
100
AcDbEntity
  8
1
  6
Continuous
 62
    45
370
     9
100
AcDbLine
 10
264.6599071252704
 20
447.9469894728406
 30
0.0
 11
264.6599071252704
 21
495.9845836928405
 31
0.0
  0
ARC
  5
E6
330
1F
100
AcDbEntity
  8
1
  6
Continuous
 62
    45
370
     9
100
AcDbCircle
 10
253.4099071252704
 20
503.4469894728406
 30
0.0
 40
13.5
100
AcDbArc
 50
326.4426902399995
 51
213.5573097599998
  0
LINE
  5
E7
330
1F
100
AcDbEntity
  8
1
  6
Continuous
 62
    45
370
     9
100
AcDbLine
 10
242.1599071252704
 20
447.9469894728406
 30
0.0
 11
242.1599071252704
 21
495.9845836928407
 31
0.0
  0
ARC
  5
E8
330
1F
100
AcDbEntity
  8
1
  6
Continuous
 62
    45
370
     9
100
AcDbCircle
 10
253.4099071252704
 20
503.4469894728406
 30
0.0
 40
16.0
100
AcDbArc
 50
325.9066091899999
 51
214.0933908100002
  0
LINE
  5
E9
330
1F
100
AcDbEntity
  8
1
  6
Continuous
 62
    45
370
     9
100
AcDbLine
 10
354.1773265852189
 20
493.1564844928405
 30
0.0
 11
354.1773265852189
 21
487.9469894728405
 31
0.0
  0
LINE
  5
EA
330
1F
100
AcDbEntity
  8
1
  6
Continuous
 62
    45
370
     9
100
AcDbLine
 10
354.1773265852189
 20
493.1564844928405
 30
0.0
 11
352.1773265852189
 21
495.4041354928406
 31
0.0
  0
LINE
  5
EB
330
1F
100
AcDbEntity
  8
1
  6
Continuous
 62
    45
370
     9
100
AcDbLine
 10
352.1773265852189
 20
495.4041354928406
 30
0.0
 11
352.1773265852189
 21
447.9469894728405
 31
0.0
  0
LINE
  5
EC
330
1F
100
AcDbEntity
  8
2
  6
Continuous
 62
    90
370
     9
100
AcDbLine
 10
370.6773265852189
 20
265.7719531730547
 30
0.0
 11
370.6773265852191
 21
239.2719531730546
 31
0.0
  0
LINE
  5
ED
330
1F
100
AcDbEntity
  8
2
  6
Continuous
 62
    90
370
     9
100
AcDbLine
 10
370.677326585219
 20
261.3360041730547
 30
0.0
 11
370.6773265852191
 21
239.2719531730546
 31
0.0
  0
LINE
  5
EE
330
1F
100
AcDbEntity
  8
2
  6
Continuous
 62
    90
370
     9
100
AcDbLine
 10
318.1773265852189
 20
268.0219531730544
 30
0.0
 11
370.6773265852189
 21
268.0219531730547
 31
0.0
  0
LINE
  5
EF
330
1F
100
AcDbEntity
  8
2
  6
Continuous
 62
    90
370
     9
100
AcDbLine
 10
318.1773265852191
 20
237.0219531730544
 30
0.0
 11
370.6773265852191
 21
237.0219531730546
 31
0.0
  0
LINE
  5
F0
330
1F
100
AcDbEntity
  8
2
  6
Continuous
 62
    90
370
     9
100
AcDbLine
 10
316.6773265852189
 20
266.0219531730544
 30
0.0
 11
316.6773265852191
 21
239.0219531730544
 31
0.0
  0
LINE
  5
F1
330
1F
100
AcDbEntity
  8
2
  6
Continuous
 62
    90
370
     9
100
AcDbLine
 10
318.1773265852189
 20
268.0219531730544
 30
0.0
 11
316.6773265852189
 21
266.0219531730544
 31
0.0
  0
LINE
  5
F2
330
1F
100
AcDbEntity
  8
2
  6
Continuous
 62
    90
370
     9
100
AcDbLine
 10
318.1773265852191
 20
237.0219531730544
 30
0.0
 11
316.6773265852191
 21
239.0219531730544
 31
0.0
  0
LINE
  5
F3
330
1F
100
AcDbEntity
  8
2
  6
Continuous
 62
    90
370
     9
100
AcDbLine
 10
370.6773265852189
 20
487.9469894728405
 30
0.0
 11
354.1773265852189
 21
487.9469894728405
 31
0.0
  0
LINE
  5
F4
330
1F
100
AcDbEntity
  8
2
  6
Continuous
 62
    90
370
     9
100
AcDbLine
 10
354.1773265852189
 20
447.9469894728405
 30
0.0
 11
318.6773265852189
 21
447.9469894728406
 31
0.0
  0
LINE
  5
F5
330
1F
100
AcDbEntity
  8
2
  6
Continuous
 62
    90
370
     9
100
AcDbLine
 10
354.1773265852189
 20
487.9469894728405
 30
0.0
 11
354.1773265852189
 21
447.9469894728405
 31
0.0
  0
ARC
  5
F6
330
1F
100
AcDbEntity
  8
2
  6
Continuous
 62
    90
370
     9
100
AcDbCircle
 10
370.9773265852189
 20
487.7469894728404
 30
0.0
 40
0.3
100
AcDbArc
 50
179.9999999999998
 51
269.9999999999998
  0
ARC
  5
F7
330
1F
100
AcDbEntity
  8
2
  6
Continuous
 62
    90
370
     9
100
AcDbCircle
 10
393.8773265852187
 20
487.7469894728404
 30
0.0
 40
0.3
100
AcDbArc
 50
269.9999999999998
 51
0.0
  0
LINE
  5
F8
330
1F
100
AcDbEntity
  8
2
  6
Continuous
 62
    90
370
     9
100
AcDbLine
 10
393.8773265852187
 20
487.4469894728405
 30
0.0
 11
370.9773265852189
 21
487.4469894728405
 31
0.0
  0
ARC
  5
F9
330
1F
100
AcDbEntity
  8
2
  6
Continuous
 62
    90
370
     9
100
AcDbCircle
 10
370.9773265852189
 20
519.1469894728405
 30
0.0
 40
0.3
100
AcDbArc
 50
89.99999999999991
 51
179.9999999999998
  0
ARC
  5
FA
330
1F
100
AcDbEntity
  8
2
  6
Continuous
 62
    90
370
     9
100
AcDbCircle
 10
393.877326585219
 20
519.1469894728403
 30
0.0
 40
0.3
100
AcDbArc
 50
0.0
 51
89.99999999999991
  0
LINE
  5
FB
330
1F
100
AcDbEntity
  8
2
  6
Continuous
 62
    90
370
     9
100
AcDbLine
 10
370.9773265852189
 20
519.4469894728404
 30
0.0
 11
393.877326585219
 21
519.4469894728404
 31
0.0
  0
LINE
  5
FC
330
1F
100
AcDbEntity
  8
2
  6
Continuous
 62
    90
370
     9
100
AcDbLine
 10
394.1773265852189
 20
487.7469894728404
 30
0.0
 11
394.1773265852189
 21
519.1469894728403
 31
0.0
  0
LINE
  5
FD
330
1F
100
AcDbEntity
  8
2
  6
Continuous
 62
    90
370
     9
100
AcDbLine
 10
370.6773265852189
 20
487.7469894728404
 30
0.0
 11
370.6773265852189
 21
487.9469894728405
 31
0.0
  0
LINE
  5
FE
330
1F
100
AcDbEntity
  8
2
  6
Continuous
 62
    90
370
     9
100
AcDbLine
 10
318.1773265852189
 20
518.9469894728405
 30
0.0
 11
370.6773265852189
 21
518.9469894728404
 31
0.0
  0
LINE
  5
FF
330
1F
100
AcDbEntity
  8
2
  6
Continuous
 62
    90
370
     9
100
AcDbLine
 10
316.6773265852189
 20
447.9469894728406
 30
0.0
 11
318.6773265852189
 21
447.9469894728406
 31
0.0
  0
LINE
  5
100
330
1F
100
AcDbEntity
  8
2
  6
Continuous
 62
    90
370
     9
100
AcDbLine
 10
318.1773265852189
 20
518.9469894728405
 30
0.0
 11
316.6773265852189
 21
516.9469894728405
 31
0.0
  0
LINE
  5
101
330
1F
100
AcDbEntity
  8
2
  6
Continuous
 62
    90
370
     9
100
AcDbLine
 10
370.6773265852189
 20
487.9469894728405
 30
0.0
 11
370.6773265852189
 21
518.9469894728404
 31
0.0
  0
ARC
  5
102
330
1F
100
AcDbEntity
  8
2
  6
Continuous
 62
    90
370
     9
100
AcDbCircle
 10
370.977326279069
 20
687.0524431810034
 30
0.0
 40
0.3
100
AcDbArc
 50
89.99999999999991
 51
179.9999999999998
  0
ARC
  5
103
330
1F
100
AcDbEntity
  8
2
  6
Continuous
 62
    90
370
     9
100
AcDbCircle
 10
393.8773262790688
 20
687.0524431810035
 30
0.0
 40
0.3
100
AcDbArc
 50
0.0
 51
89.99999999999991
  0
LINE
  5
104
330
1F
100
AcDbEntity
  8
2
  6
Continuous
 62
    90
370
     9
100
AcDbLine
 10
393.8773262790688
 20
687.3524431810034
 30
0.0
 11
370.977326279069
 21
687.3524431810033
 31
0.0
  0
LINE
  5
105
330
1F
100
AcDbEntity
  8
2
  6
Continuous
 62
    90
370
     9
100
AcDbLine
 10
370.677326279069
 20
680.1664941810034
 30
0.0
 11
370.677326279069
 21
655.6524431810034
 31
0.0
  0
ARC
  5
106
330
1F
100
AcDbEntity
  8
2
  6
Continuous
 62
    90
370
     9
100
AcDbCircle
 10
370.977326279069
 20
655.6524431810034
 30
0.0
 40
0.3
100
AcDbArc
 50
179.9999999999998
 51
269.9999999999998
  0
ARC
  5
107
330
1F
100
AcDbEntity
  8
2
  6
Continuous
 62
    90
370
     9
100
AcDbCircle
 10
393.8773262790691
 20
655.6524431810035
 30
0.0
 40
0.3
100
AcDbArc
 50
269.9999999999998
 51
0.0
  0
LINE
  5
108
330
1F
100
AcDbEntity
  8
2
  6
Continuous
 62
    90
370
     9
100
AcDbLine
 10
370.977326279069
 20
655.3524431810033
 30
0.0
 11
393.8773262790691
 21
655.3524431810034
 31
0.0
  0
LINE
  5
109
330
1F
100
AcDbEntity
  8
2
  6
Continuous
 62
    90
370
     9
100
AcDbLine
 10
394.177326279069
 20
687.0524431810035
 30
0.0
 11
394.177326279069
 21
655.6524431810035
 31
0.0
  0
LINE
  5
10A
330
1F
100
AcDbEntity
  8
2
  6
Continuous
 62
    90
370
     9
100
AcDbLine
 10
370.677326279069
 20
687.0524431810034
 30
0.0
 11
370.677326279069
 21
655.6524431810034
 31
0.0
  0
LINE
  5
10B
330
1F
100
AcDbEntity
  8
2
  6
Continuous
 62
    90
370
     9
100
AcDbLine
 10
316.677326279069
 20
684.8524431810031
 30
0.0
 11
316.677326279069
 21
657.8524431810031
 31
0.0
  0
LINE
  5
10C
330
1F
100
AcDbEntity
  8
2
  6
Continuous
 62
    90
370
     9
100
AcDbLine
 10
370.677326279069
 20
655.8524431810033
 30
0.0
 11
370.677326279069
 21
686.8524431810033
 31
0.0
  0
LINE
  5
10D
330
1F
100
AcDbEntity
  8
2
  6
Continuous
 62
    90
370
     9
100
AcDbLine
 10
318.177326279069
 20
686.8524431810031
 30
0.0
 11
370.677326279069
 21
686.8524431810033
 31
0.0
  0
LINE
  5
10E
330
1F
100
AcDbEntity
  8
2
  6
Continuous
 62
    90
370
     9
100
AcDbLine
 10
318.177326279069
 20
655.8524431810031
 30
0.0
 11
370.677326279069
 21
655.8524431810033
 31
0.0
  0
LINE
  5
10F
330
1F
100
AcDbEntity
  8
2
  6
Continuous
 62
    90
370
     9
100
AcDbLine
 10
316.677326279069
 20
657.8524431810031
 30
0.0
 11
318.177326279069
 21
655.8524431810031
 31
0.0
  0
LINE
  5
110
330
1F
100
AcDbEntity
  8
2
  6
Continuous
 62
    90
370
     9
100
AcDbLine
 10
316.677326279069
 20
684.8524431810031
 30
0.0
 11
318.177326279069
 21
686.8524431810031
 31
0.0
  0
LINE
  5
111
330
1F
100
AcDbEntity
  8
2
  6
Continuous
 62
    90
370
     9
100
AcDbLine
 10
240.1599071252704
 20
447.9469894728406
 30
0.0
 11
240.1599071252704
 21
495.4041354928406
 31
0.0
  0
LINE
  5
112
330
1F
100
AcDbEntity
  8
2
  6
Continuous
 62
    90
370
     9
100
AcDbLine
 10
240.1599071252704
 20
447.9469894728406
 30
0.0
 11
266.6599071252704
 21
447.9469894728406
 31
0.0
  0
LINE
  5
113
330
1F
100
AcDbEntity
  8
2
  6
Continuous
 62
    90
370
     9
100
AcDbLine
 10
266.6599071252704
 20
447.9469894728406
 30
0.0
 11
266.6599071252704
 21
495.4041354928406
 31
0.0
  0
ARC
  5
114
330
1F
100
AcDbEntity
  8
2
  6
Continuous
 62
    90
370
     9
100
AcDbCircle
 10
253.4099071252704
 20
503.4469894728406
 30
0.0
 40
15.5
100
AcDbArc
 50
328.7419206899994
 51
211.2580793100003
  0
DIMENSION
  5
120
330
1F
100
AcDbEntity
  8
6
  6
Continuous
 62
     7
370
     9
100
AcDbDimension
  2
Dim2
 10
237.4099071252705
 20
549.4469894728405
 30
0.0
 11
253.4099071252705
 21
556.4469894728405
 31
0.0
 70
   160
  1
<>
 71
     5
 42
-1.0
  3
Standard
100
AcDbAlignedDimension
 13
237.4099071252704
 23
502.5225450283964
 33
0.0
 14
269.4099071252704
 24
502.5225450283964
 34
0.0
100
AcDbRotatedDimension
1001
ACAD
1000
DSTYLE
1002
{
1070
   344
1005
3C
1070
   343
1005
3C
1070
   173
1070
     1
1070
   289
1070
     2
1070
   279
1070
     2
1070
   288
1070
     1
1070
    77
1070
     3
1070
   172
1070
     1
1070
   174
1070
     0
1070
    74
1070
     0
1070
    73
1070
     0
1070
   284
1070
     8
1070
    78
1070
     8
1070
   140
1040
3.0
1070
    40
1040
4.0
1070
    42
1040
2.0
1070
    44
1040
1.0
1070
    43
1040
10.0
1070
   271
1070
     2
1070
    41
1040
2.0
1002
}
  0
DIMENSION
  5
12C
330
1F
100
AcDbEntity
  8
6
  6
Continuous
 62
     7
370
     9
100
AcDbDimension
  2
Dim3
 10
180.1599071252704
 20
519.4469894728398
 30
0.0
 11
173.1599071252704
 21
484.199676837135
 31
0.0
 70
   160
  1
<>
 71
     5
 42
-1.0
  3
Standard
100
AcDbAlignedDimension
 13
253.397750200694
 23
519.4469894728405
 33
0.0
 14
240.1599071252704
 24
447.9469894728406
 34
0.0
 50
89.99999999999977
100
AcDbRotatedDimension
1001
ACAD
1000
DSTYLE
1002
{
1070
   344
1005
3C
1070
   343
1005
3C
1070
   173
1070
     1
1070
   289
1070
     2
1070
   279
1070
     2
1070
   288
1070
     1
1070
    77
1070
     3
1070
   172
1070
     1
1070
   174
1070
     0
1070
    74
1070
     0
1070
    73
1070
     0
1070
   284
1070
     8
1070
    78
1070
     8
1070
   140
1040
3.0
1070
    40
1040
4.0
1070
    42
1040
2.0
1070
    44
1040
1.0
1070
    43
1040
10.0
1070
   271
1070
     2
1070
    41
1040
2.0
1002
}
  0
DIMENSION
  5
138
330
1F
100
AcDbEntity
  8
6
  6
Continuous
 62
     7
370
     9
100
AcDbDimension
  2
Dim4
 10
240.1599071252699
 20
407.9469894728405
 30
0.0
 11
253.4099071252699
 21
414.9469894728405
 31
0.0
 70
   160
  1
<>
 71
     5
 42
-1.0
  3
Standard
100
AcDbAlignedDimension
 13
240.1599071252704
 23
447.9469894728406
 33
0.0
 14
266.6599071252704
 24
447.9469894728406
 34
0.0
100
AcDbRotatedDimension
1001
ACAD
1000
DSTYLE
1002
{
1070
   344
1005
3C
1070
   343
1005
3C
1070
   173
1070
     1
1070
   289
1070
     2
1070
   279
1070
     2
1070
   288
1070
     1
1070
    77
1070
     3
1070
   172
1070
     1
1070
   174
1070
     0
1070
    74
1070
     0
1070
    73
1070
     0
1070
   284
1070
     8
1070
    78
1070
     8
1070
   140
1040
3.0
1070
    40
1040
4.0
1070
    42
1040
2.0
1070
    44
1040
1.0
1070
    43
1040
10.0
1070
   271
1070
     2
1070
    41
1040
2.0
1002
}
  0
LINE
  5
139
330
1F
100
AcDbEntity
  8
1
  6
DASHDOT
 62
    45
370
     9
100
AcDbLine
 10
253.4099071252704
 20
521.672653575495
 30
0.0
 11
253.4099071252704
 21
445.5206794728405
 31
0.0
  0
LINE
  5
13A
330
1F
100
AcDbEntity
  8
1
  6
DASHDOT
 62
    45
370
     9
100
AcDbLine
 10
273.2099071252703
 20
503.4469894728406
 30
0.0
 11
233.6099071252704
 21
503.4469894728406
 31
0.0
  0
LINE
  5
13B
330
1F
100
AcDbEntity
  8
2
  6
Continuous
 62
    90
370
     9
100
AcDbLine
 10
316.6773265852189
 20
447.9469894728406
 30
0.0
 11
316.6773265852189
 21
516.9469894728405
 31
0.0
  0
LINE
  5
13C
330
1F
100
AcDbEntity
  8
1
  6
Continuous
 62
    45
370
     9
100
AcDbLine
 10
917.177326585219
 20
263.7719531730549
 30
0.0
 11
917.177326585219
 21
241.2719531730549
 31
0.0
  0
LINE
  5
13D
330
1F
100
AcDbEntity
  8
1
  6
Continuous
 62
    45
370
     9
100
AcDbLine
 10
917.177326585219
 20
241.2719531730549
 30
0.0
 11
919.1773265852189
 21
239.2719531730549
 31
0.0
  0
LINE
  5
13E
330
1F
100
AcDbEntity
  8
1
  6
Continuous
 62
    45
370
     9
100
AcDbLine
 10
919.1773265852191
 20
265.7719531730549
 30
0.0
 11
917.177326585219
 21
263.7719531730549
 31
0.0
  0
LINE
  5
13F
330
1F
100
AcDbEntity
  8
1
  6
Continuous
 62
    45
370
     9
100
AcDbLine
 10
953.1773265852191
 20
265.7719531730548
 30
0.0
 11
954.677326585219
 21
263.7719531730547
 31
0.0
  0
LINE
  5
140
330
1F
100
AcDbEntity
  8
1
  6
Continuous
 62
    45
370
     9
100
AcDbLine
 10
953.1773265852189
 20
239.2719531730548
 30
0.0
 11
954.677326585219
 21
241.2719531730548
 31
0.0
  0
LINE
  5
141
330
1F
100
AcDbEntity
  8
1
  6
Continuous
 62
    45
370
     9
100
AcDbLine
 10
953.1773265852191
 20
265.7719531730548
 30
0.0
 11
900.6773265852191
 21
265.771953173055
 31
0.0
  0
LINE
  5
142
330
1F
100
AcDbEntity
  8
1
  6
Continuous
 62
    45
370
     9
100
AcDbLine
 10
953.1773265852189
 20
239.2719531730548
 30
0.0
 11
900.6773265852189
 21
239.271953173055
 31
0.0
  0
DIMENSION
  5
14E
330
1F
100
AcDbEntity
  8
6
  6
Continuous
 62
     7
370
     9
100
AcDbDimension
  2
Dim5
 10
935.6773265852187
 20
197.5260869565215
 30
0.0
 11
635.6773264321383
 21
204.5260869565212
 31
0.0
 70
   160
  1
<>
 71
     5
 42
-1.0
  3
Standard
100
AcDbAlignedDimension
 13
935.677326585219
 23
237.5260869565214
 33
0.0
 14
335.677326585219
 24
237.526086956521
 34
0.0
100
AcDbRotatedDimension
1001
ACAD
1000
DSTYLE
1002
{
1070
   344
1005
3C
1070
   343
1005
3C
1070
   173
1070
     1
1070
   289
1070
     2
1070
   279
1070
     2
1070
   288
1070
     1
1070
    77
1070
     3
1070
   172
1070
     1
1070
   174
1070
     0
1070
    74
1070
     0
1070
    73
1070
     0
1070
   284
1070
     8
1070
    78
1070
     8
1070
   140
1040
3.0
1070
    40
1040
4.0
1070
    42
1040
2.0
1070
    44
1040
1.0
1070
    43
1040
10.0
1070
   271
1070
     2
1070
    41
1040
2.0
1002
}
  0
DIMENSION
  5
15A
330
1F
100
AcDbEntity
  8
6
  6
Continuous
 62
     7
370
     9
100
AcDbDimension
  2
Dim6
 10
926.927326585219
 20
298.5160263088377
 30
0.0
 11
937.2734126843534
 21
305.5160263088377
 31
0.0
 70
   160
  1
<>
 71
     5
 42
-1.0
  3
Standard
100
AcDbAlignedDimension
 13
926.9273265852189
 23
268.5160263088377
 33
0.0
 14
946.9273265852192
 24
268.5160263088377
 34
0.0
100
AcDbRotatedDimension
1001
ACAD
1000
DSTYLE
1002
{
1070
   344
1005
3C
1070
   343
1005
3C
1070
   173
1070
     1
1070
   289
1070
     2
1070
   279
1070
     2
1070
   288
1070
     1
1070
    77
1070
     3
1070
   172
1070
     1
1070
   174
1070
     0
1070
    74
1070
     0
1070
    73
1070
     0
1070
   284
1070
     8
1070
    78
1070
     8
1070
   140
1040
3.0
1070
    40
1040
4.0
1070
    42
1040
2.0
1070
    44
1040
1.0
1070
    43
1040
10.0
1070
   271
1070
     2
1070
    41
1040
2.0
1002
}
  0
DIMENSION
  5
166
330
1F
100
AcDbEntity
  8
6
  6
Continuous
 62
     7
370
     9
100
AcDbDimension
  2
Dim7
 10
954.6773268913663
 20
377.9469894728408
 30
0.0
 11
914.3021721535808
 21
384.9469894728408
 31
0.0
 70
   160
  1
<>
 71
     5
 42
-1.0
  3
Standard
100
AcDbAlignedDimension
 13
954.6773268913668
 23
447.9469894728407
 33
0.0
 14
877.1773265852191
 24
447.9469894728408
 34
0.0
100
AcDbRotatedDimension
1001
ACAD
1000
DSTYLE
1002
{
1070
   344
1005
3C
1070
   343
1005
3C
1070
   173
1070
     1
1070
   289
1070
     2
1070
   279
1070
     2
1070
   288
1070
     1
1070
    77
1070
     3
1070
   172
1070
     1
1070
   174
1070
     0
1070
    74
1070
     0
1070
    73
1070
     0
1070
   284
1070
     8
1070
    78
1070
     8
1070
   140
1040
3.0
1070
    40
1040
4.0
1070
    42
1040
2.0
1070
    44
1040
1.0
1070
    43
1040
10.0
1070
   271
1070
     2
1070
    41
1040
2.0
1002
}
  0
DIMENSION
  5
172
330
1F
100
AcDbEntity
  8
6
  6
Continuous
 62
     7
370
     9
100
AcDbDimension
  2
Dim8
 10
984.6773268913666
 20
518.9469894728409
 30
0.0
 11
977.6773268913666
 21
482.8608826282753
 31
0.0
 70
   160
  1
<>
 71
     5
 42
-1.0
  3
Standard
100
AcDbAlignedDimension
 13
954.6773268913668
 23
518.9469894728409
 33
0.0
 14
954.6773265852169
 24
447.9469894728408
 34
0.0
 50
89.99999999999991
100
AcDbRotatedDimension
1001
ACAD
1000
DSTYLE
1002
{
1070
   344
1005
3C
1070
   343
1005
3C
1070
   173
1070
     1
1070
   289
1070
     2
1070
   279
1070
     2
1070
   288
1070
     1
1070
    77
1070
     3
1070
   172
1070
     1
1070
   174
1070
     0
1070
    74
1070
     0
1070
    73
1070
     0
1070
   284
1070
     8
1070
    78
1070
     8
1070
   140
1040
3.0
1070
    40
1040
4.0
1070
    42
1040
2.0
1070
    44
1040
1.0
1070
    43
1040
10.0
1070
   271
1070
     2
1070
    41
1040
2.0
1002
}
  0
DIMENSION
  5
17E
330
1F
100
AcDbEntity
  8
6
  6
Continuous
 62
     7
370
     9
100
AcDbDimension
  2
Dim9
 10
917.1773265852165
 20
407.9469894728408
 30
0.0
 11
936.7368639627867
 21
414.9469894728408
 31
0.0
 70
   160
  1
<>
 71
     5
 42
-1.0
  3
Standard
100
AcDbAlignedDimension
 13
917.1773265852169
 23
447.9469894728408
 33
0.0
 14
954.6773268913668
 24
447.9469894728407
 34
0.0
100
AcDbRotatedDimension
1001
ACAD
1000
DSTYLE
1002
{
1070
   344
1005
3C
1070
   343
1005
3C
1070
   173
1070
     1
1070
   289
1070
     2
1070
   279
1070
     2
1070
   288
1070
     1
1070
    77
1070
     3
1070
   172
1070
     1
1070
   174
1070
     0
1070
    74
1070
     0
1070
    73
1070
     0
1070
   284
1070
     8
1070
    78
1070
     8
1070
   140
1040
3.0
1070
    40
1040
4.0
1070
    42
1040
2.0
1070
    44
1040
1.0
1070
    43
1040
10.0
1070
   271
1070
     2
1070
    41
1040
2.0
1002
}
  0
LINE
  5
17F
330
1F
100
AcDbEntity
  8
1
  6
Continuous
 62
    45
370
     9
100
AcDbLine
 10
953.1773265852192
 20
268.0219531730548
 30
0.0
 11
953.177326585219
 21
237.0219531730548
 31
0.0
  0
LINE
  5
180
330
1F
100
AcDbEntity
  8
1
  6
Continuous
 62
    45
370
     9
100
AcDbLine
 10
953.1773265852169
 20
495.4041354928409
 30
0.0
 11
954.6773265852169
 21
495.9845836928409
 31
0.0
  0
LINE
  5
181
330
1F
100
AcDbEntity
  8
1
  6
Continuous
 62
    45
370
     9
100
AcDbLine
 10
953.1773265852169
 20
447.9469894728409
 30
0.0
 11
953.1773265852169
 21
518.946989472841
 31
0.0
  0
LINE
  5
182
330
1F
100
AcDbEntity
  8
1
  6
Continuous
 62
    45
370
     9
100
AcDbLine
 10
953.1773265852169
 20
495.4041354928409
 30
0.0
 11
900.6773265852169
 21
495.4041354928408
 31
0.0
  0
LINE
  5
183
330
1F
100
AcDbEntity
  8
1
  6
Continuous
 62
    45
370
     9
100
AcDbLine
 10
953.1773268913668
 20
686.8524431810035
 30
0.0
 11
953.1773268913668
 21
655.8524431810035
 31
0.0
  0
LINE
  5
184
330
1F
100
AcDbEntity
  8
1
  6
Continuous
 62
    45
370
     9
100
AcDbLine
 10
917.1773265852169
 20
493.1564844928409
 30
0.0
 11
917.1773265852169
 21
487.9469894728408
 31
0.0
  0
LINE
  5
185
330
1F
100
AcDbEntity
  8
1
  6
Continuous
 62
    45
370
     9
100
AcDbLine
 10
917.1773265852169
 20
493.1564844928409
 30
0.0
 11
919.1773265852169
 21
495.4041354928409
 31
0.0
  0
LINE
  5
186
330
1F
100
AcDbEntity
  8
1
  6
Continuous
 62
    45
370
     9
100
AcDbLine
 10
919.1773265852169
 20
495.4041354928409
 30
0.0
 11
919.1773265852169
 21
447.9469894728408
 31
0.0
  0
LINE
  5
187
330
1F
100
AcDbEntity
  8
2
  6
Continuous
 62
    90
370
     9
100
AcDbLine
 10
900.6773265852191
 20
265.771953173055
 30
0.0
 11
900.6773265852189
 21
239.271953173055
 31
0.0
  0
LINE
  5
188
330
1F
100
AcDbEntity
  8
2
  6
Continuous
 62
    90
370
     9
100
AcDbLine
 10
900.677326585219
 20
261.3360041730551
 30
0.0
 11
900.6773265852189
 21
239.271953173055
 31
0.0
  0
LINE
  5
189
330
1F
100
AcDbEntity
  8
2
  6
Continuous
 62
    90
370
     9
100
AcDbLine
 10
953.1773265852191
 20
268.0219531730548
 30
0.0
 11
900.6773265852191
 21
268.021953173055
 31
0.0
  0
LINE
  5
18A
330
1F
100
AcDbEntity
  8
2
  6
Continuous
 62
    90
370
     9
100
AcDbLine
 10
953.1773265852189
 20
237.0219531730548
 30
0.0
 11
900.6773265852189
 21
237.021953173055
 31
0.0
  0
LINE
  5
18B
330
1F
100
AcDbEntity
  8
2
  6
Continuous
 62
    90
370
     9
100
AcDbLine
 10
954.6773265852191
 20
266.0219531730547
 30
0.0
 11
954.6773265852189
 21
239.0219531730548
 31
0.0
  0
LINE
  5
18C
330
1F
100
AcDbEntity
  8
2
  6
Continuous
 62
    90
370
     9
100
AcDbLine
 10
953.1773265852191
 20
268.0219531730548
 30
0.0
 11
954.6773265852191
 21
266.0219531730547
 31
0.0
  0
LINE
  5
18D
330
1F
100
AcDbEntity
  8
2
  6
Continuous
 62
    90
370
     9
100
AcDbLine
 10
953.1773265852189
 20
237.0219531730548
 30
0.0
 11
954.6773265852189
 21
239.0219531730548
 31
0.0
  0
LINE
  5
18E
330
1F
100
AcDbEntity
  8
2
  6
Continuous
 62
    90
370
     9
100
AcDbLine
 10
900.6773265852169
 20
487.9469894728408
 30
0.0
 11
917.1773265852169
 21
487.9469894728408
 31
0.0
  0
LINE
  5
18F
330
1F
100
AcDbEntity
  8
2
  6
Continuous
 62
    90
370
     9
100
AcDbLine
 10
917.1773265852169
 20
447.9469894728408
 30
0.0
 11
952.6773265852169
 21
447.9469894728409
 31
0.0
  0
LINE
  5
190
330
1F
100
AcDbEntity
  8
2
  6
Continuous
 62
    90
370
     9
100
AcDbLine
 10
917.1773265852169
 20
487.9469894728408
 30
0.0
 11
917.1773265852169
 21
447.9469894728408
 31
0.0
  0
ARC
  5
191
330
1F
100
AcDbEntity
  8
2
  6
Continuous
 62
    90
370
     9
100
AcDbCircle
 10
900.3773265852169
 20
487.7469894728408
 30
0.0
 40
0.3
100
AcDbArc
 50
269.9999999999998
 51
0.0
  0
ARC
  5
192
330
1F
100
AcDbEntity
  8
2
  6
Continuous
 62
    90
370
     9
100
AcDbCircle
 10
877.477326585217
 20
487.7469894728408
 30
0.0
 40
0.3
100
AcDbArc
 50
179.9999999999998
 51
269.9999999999998
  0
LINE
  5
193
330
1F
100
AcDbEntity
  8
2
  6
Continuous
 62
    90
370
     9
100
AcDbLine
 10
877.477326585217
 20
487.4469894728408
 30
0.0
 11
900.3773265852169
 21
487.4469894728408
 31
0.0
  0
ARC
  5
194
330
1F
100
AcDbEntity
  8
2
  6
Continuous
 62
    90
370
     9
100
AcDbCircle
 10
900.3773265852169
 20
519.1469894728409
 30
0.0
 40
0.3
100
AcDbArc
 50
0.0
 51
89.99999999999991
  0
ARC
  5
195
330
1F
100
AcDbEntity
  8
2
  6
Continuous
 62
    90
370
     9
100
AcDbCircle
 10
877.4773265852168
 20
519.1469894728408
 30
0.0
 40
0.3
100
AcDbArc
 50
89.99999999999991
 51
179.9999999999998
  0
LINE
  5
196
330
1F
100
AcDbEntity
  8
2
  6
Continuous
 62
    90
370
     9
100
AcDbLine
 10
900.3773265852169
 20
519.4469894728409
 30
0.0
 11
877.4773265852168
 21
519.4469894728409
 31
0.0
  0
LINE
  5
197
330
1F
100
AcDbEntity
  8
2
  6
Continuous
 62
    90
370
     9
100
AcDbLine
 10
877.1773265852169
 20
487.7469894728408
 30
0.0
 11
877.1773265852169
 21
519.1469894728408
 31
0.0
  0
LINE
  5
198
330
1F
100
AcDbEntity
  8
2
  6
Continuous
 62
    90
370
     9
100
AcDbLine
 10
900.6773265852169
 20
487.7469894728408
 30
0.0
 11
900.6773265852169
 21
487.9469894728408
 31
0.0
  0
LINE
  5
199
330
1F
100
AcDbEntity
  8
2
  6
Continuous
 62
    90
370
     9
100
AcDbLine
 10
953.1773265852169
 20
518.946989472841
 30
0.0
 11
900.6773265852169
 21
518.9469894728409
 31
0.0
  0
LINE
  5
19A
330
1F
100
AcDbEntity
  8
2
  6
Continuous
 62
    90
370
     9
100
AcDbLine
 10
954.6773265852169
 20
489.9469894728409
 30
0.0
 11
954.6773265852169
 21
516.946989472841
 31
0.0
  0
LINE
  5
19B
330
1F
100
AcDbEntity
  8
2
  6
Continuous
 62
    90
370
     9
100
AcDbLine
 10
954.6773265852169
 20
447.9469894728409
 30
0.0
 11
952.6773265852169
 21
447.9469894728409
 31
0.0
  0
LINE
  5
19C
330
1F
100
AcDbEntity
  8
2
  6
Continuous
 62
    90
370
     9
100
AcDbLine
 10
954.6773265852169
 20
447.9469894728409
 30
0.0
 11
954.6773265852169
 21
490.0305814728409
 31
0.0
  0
LINE
  5
19D
330
1F
100
AcDbEntity
  8
2
  6
Continuous
 62
    90
370
     9
100
AcDbLine
 10
953.1773265852169
 20
518.946989472841
 30
0.0
 11
954.6773265852169
 21
516.946989472841
 31
0.0
  0
LINE
  5
19E
330
1F
100
AcDbEntity
  8
2
  6
Continuous
 62
    90
370
     9
100
AcDbLine
 10
900.6773265852169
 20
487.9469894728408
 30
0.0
 11
900.6773265852169
 21
518.9469894728409
 31
0.0
  0
ARC
  5
19F
330
1F
100
AcDbEntity
  8
2
  6
Continuous
 62
    90
370
     9
100
AcDbCircle
 10
900.3773268913668
 20
687.0524431810038
 30
0.0
 40
0.3
100
AcDbArc
 50
0.0
 51
89.99999999999991
  0
ARC
  5
1A0
330
1F
100
AcDbEntity
  8
2
  6
Continuous
 62
    90
370
     9
100
AcDbCircle
 10
877.4773268913669
 20
687.0524431810039
 30
0.0
 40
0.3
100
AcDbArc
 50
89.99999999999991
 51
179.9999999999998
  0
LINE
  5
1A1
330
1F
100
AcDbEntity
  8
2
  6
Continuous
 62
    90
370
     9
100
AcDbLine
 10
877.4773268913669
 20
687.3524431810039
 30
0.0
 11
900.3773268913668
 21
687.3524431810038
 31
0.0
  0
LINE
  5
1A2
330
1F
100
AcDbEntity
  8
2
  6
Continuous
 62
    90
370
     9
100
AcDbLine
 10
900.6773268913668
 20
680.1664941810038
 30
0.0
 11
900.6773268913668
 21
655.6524431810038
 31
0.0
  0
ARC
  5
1A3
330
1F
100
AcDbEntity
  8
2
  6
Continuous
 62
    90
370
     9
100
AcDbCircle
 10
900.3773268913668
 20
655.6524431810038
 30
0.0
 40
0.3
100
AcDbArc
 50
269.9999999999998
 51
0.0
  0
ARC
  5
1A4
330
1F
100
AcDbEntity
  8
2
  6
Continuous
 62
    90
370
     9
100
AcDbCircle
 10
877.4773268913667
 20
655.652443181004
 30
0.0
 40
0.3
100
AcDbArc
 50
179.9999999999998
 51
269.9999999999998
  0
LINE
  5
1A5
330
1F
100
AcDbEntity
  8
2
  6
Continuous
 62
    90
370
     9
100
AcDbLine
 10
900.3773268913668
 20
655.3524431810038
 30
0.0
 11
877.4773268913667
 21
655.3524431810039
 31
0.0
  0
LINE
  5
1A6
330
1F
100
AcDbEntity
  8
2
  6
Continuous
 62
    90
370
     9
100
AcDbLine
 10
877.1773268913668
 20
687.0524431810039
 30
0.0
 11
877.1773268913668
 21
655.652443181004
 31
0.0
  0
LINE
  5
1A7
330
1F
100
AcDbEntity
  8
2
  6
Continuous
 62
    90
370
     9
100
AcDbLine
 10
900.6773268913668
 20
687.0524431810038
 30
0.0
 11
900.6773268913668
 21
655.6524431810038
 31
0.0
  0
LINE
  5
1A8
330
1F
100
AcDbEntity
  8
2
  6
Continuous
 62
    90
370
     9
100
AcDbLine
 10
954.6773268913668
 20
684.8524431810035
 30
0.0
 11
954.6773268913668
 21
657.8524431810035
 31
0.0
  0
LINE
  5
1A9
330
1F
100
AcDbEntity
  8
2
  6
Continuous
 62
    90
370
     9
100
AcDbLine
 10
900.6773268913668
 20
655.8524431810038
 30
0.0
 11
900.6773268913668
 21
686.8524431810038
 31
0.0
  0
LINE
  5
1AA
330
1F
100
AcDbEntity
  8
2
  6
Continuous
 62
    90
370
     9
100
AcDbLine
 10
953.1773268913668
 20
686.8524431810035
 30
0.0
 11
900.6773268913668
 21
686.8524431810038
 31
0.0
  0
LINE
  5
1AB
330
1F
100
AcDbEntity
  8
2
  6
Continuous
 62
    90
370
     9
100
AcDbLine
 10
953.1773268913668
 20
655.8524431810035
 30
0.0
 11
900.6773268913668
 21
655.8524431810038
 31
0.0
  0
LINE
  5
1AC
330
1F
100
AcDbEntity
  8
2
  6
Continuous
 62
    90
370
     9
100
AcDbLine
 10
954.6773268913668
 20
657.8524431810035
 30
0.0
 11
953.1773268913668
 21
655.8524431810035
 31
0.0
  0
LINE
  5
1AD
330
1F
100
AcDbEntity
  8
2
  6
Continuous
 62
    90
370
     9
100
AcDbLine
 10
954.6773268913668
 20
684.8524431810035
 30
0.0
 11
953.1773268913668
 21
686.8524431810035
 31
0.0
  0
LINE
  5
1AE
330
1F
100
AcDbEntity
  8
1
  6
DASHDOT
 62
    45
370
     9
100
AcDbLine
 10
935.6773265852191
 20
275.7080789459004
 30
0.0
 11
935.6773265852191
 21
233.8948384110395
 31
0.0
  0
DIMENSION
  5
1BA
330
1F
100
AcDbEntity
  8
6
  6
Continuous
 62
     7
370
     9
100
AcDbDimension
  2
Dim10
 10
316.6773262790589
 20
579.4469894728405
 30
0.0
 11
635.6773264321371
 21
586.4469894728408
 31
0.0
 70
   160
  1
<>
 71
     5
 42
-1.0
  3
Standard
100
AcDbAlignedDimension
 13
316.6773262790587
 23
519.4469894728403
 33
0.0
 14
954.6773268913668
 24
519.4469894728408
 34
0.0
 50
0.0000000000000408
100
AcDbRotatedDimension
1001
ACAD
1000
DSTYLE
1002
{
1070
   344
1005
3C
1070
   343
1005
3C
1070
   173
1070
     1
1070
   289
1070
     2
1070
   279
1070
     2
1070
   288
1070
     1
1070
    77
1070
     3
1070
   172
1070
     1
1070
   174
1070
     0
1070
    74
1070
     0
1070
    73
1070
     0
1070
   284
1070
     8
1070
    78
1070
     8
1070
   140
1040
3.0
1070
    40
1040
4.0
1070
    42
1040
2.0
1070
    44
1040
1.0
1070
    43
1040
10.0
1070
   271
1070
     2
1070
    41
1040
2.0
1002
}
  0
LINE
  5
1BB
330
1F
100
AcDbEntity
  8
1
  6
DASHDOT
 62
    45
370
     9
100
AcDbLine
 10
295.9768160449045
 20
671.3524431810032
 30
0.0
 11
972.1462004090338
 21
671.3524431810037
 31
0.0
  0
LINE
  5
1BC
330
1F
100
AcDbEntity
  8
1
  6
DASHDOT
 62
    45
370
     9
100
AcDbLine
 10
295.9768160449045
 20
503.4469894728406
 30
0.0
 11
972.1462004090338
 21
503.4469894728409
 31
0.0
  0
ARC
  5
1BD
330
1F
100
AcDbEntity
  8
2
  6
Continuous
 62
    90
370
     9
100
AcDbCircle
 10
370.977326585219
 20
268.2219531730547
 30
0.0
 40
0.3
100
AcDbArc
 50
89.99999999999991
 51
179.9999999999998
  0
ARC
  5
1BE
330
1F
100
AcDbEntity
  8
2
  6
Continuous
 62
    90
370
     9
100
AcDbCircle
 10
393.877326585219
 20
268.2219531730548
 30
0.0
 40
0.3
100
AcDbArc
 50
0.0
 51
89.99999999999991
  0
LINE
  5
1BF
330
1F
100
AcDbEntity
  8
2
  6
Continuous
 62
    90
370
     9
100
AcDbLine
 10
393.877326585219
 20
268.5219531730547
 30
0.0
 11
370.977326585219
 21
268.5219531730546
 31
0.0
  0
ARC
  5
1C0
330
1F
100
AcDbEntity
  8
2
  6
Continuous
 62
    90
370
     9
100
AcDbCircle
 10
900.3773265852191
 20
268.221953173055
 30
0.0
 40
0.3
100
AcDbArc
 50
0.0
 51
89.99999999999991
  0
ARC
  5
1C1
330
1F
100
AcDbEntity
  8
2
  6
Continuous
 62
    90
370
     9
100
AcDbCircle
 10
877.4773265852191
 20
268.2219531730551
 30
0.0
 40
0.3
100
AcDbArc
 50
89.99999999999991
 51
179.9999999999998
  0
LINE
  5
1C2
330
1F
100
AcDbEntity
  8
2
  6
Continuous
 62
    90
370
     9
100
AcDbLine
 10
877.4773265852191
 20
268.5219531730551
 30
0.0
 11
900.3773265852191
 21
268.521953173055
 31
0.0
  0
ARC
  5
1C3
330
1F
100
AcDbEntity
  8
2
  6
Continuous
 62
    90
370
     9
100
AcDbCircle
 10
370.9773265852191
 20
236.8219531730547
 30
0.0
 40
0.3
100
AcDbArc
 50
179.9999999999998
 51
269.9999999999998
  0
ARC
  5
1C4
330
1F
100
AcDbEntity
  8
2
  6
Continuous
 62
    90
370
     9
100
AcDbCircle
 10
393.8773265852191
 20
236.8219531730548
 30
0.0
 40
0.3
100
AcDbArc
 50
269.9999999999998
 51
0.0
  0
LINE
  5
1C5
330
1F
100
AcDbEntity
  8
2
  6
Continuous
 62
    90
370
     9
100
AcDbLine
 10
370.9773265852191
 20
236.5219531730547
 30
0.0
 11
393.8773265852191
 21
236.5219531730548
 31
0.0
  0
ARC
  5
1C6
330
1F
100
AcDbEntity
  8
2
  6
Continuous
 62
    90
370
     9
100
AcDbCircle
 10
900.377326585219
 20
236.8219531730551
 30
0.0
 40
0.3
100
AcDbArc
 50
269.9999999999998
 51
0.0
  0
ARC
  5
1C7
330
1F
100
AcDbEntity
  8
2
  6
Continuous
 62
    90
370
     9
100
AcDbCircle
 10
877.477326585219
 20
236.8219531730552
 30
0.0
 40
0.3
100
AcDbArc
 50
179.9999999999998
 51
269.9999999999998
  0
LINE
  5
1C8
330
1F
100
AcDbEntity
  8
2
  6
Continuous
 62
    90
370
     9
100
AcDbLine
 10
900.377326585219
 20
236.5219531730551
 30
0.0
 11
877.477326585219
 21
236.5219531730552
 31
0.0
  0
LINE
  5
1C9
330
1F
100
AcDbEntity
  8
2
  6
Continuous
 62
    90
370
     9
100
AcDbLine
 10
900.6773265852191
 20
268.221953173055
 30
0.0
 11
900.6773265852191
 21
265.771953173055
 31
0.0
  0
LINE
  5
1CA
330
1F
100
AcDbEntity
  8
2
  6
Continuous
 62
    90
370
     9
100
AcDbLine
 10
900.6773265852189
 20
239.271953173055
 30
0.0
 11
900.6773265852189
 21
236.8219531730551
 31
0.0
  0
LINE
  5
1CB
330
1F
100
AcDbEntity
  8
2
  6
Continuous
 62
    90
370
     9
100
AcDbLine
 10
370.6773265852189
 20
268.2219531730547
 30
0.0
 11
370.6773265852189
 21
265.7719531730547
 31
0.0
  0
LINE
  5
1CC
330
1F
100
AcDbEntity
  8
2
  6
Continuous
 62
    90
370
     9
100
AcDbLine
 10
370.6773265852191
 20
239.2719531730546
 30
0.0
 11
370.6773265852191
 21
236.8219531730547
 31
0.0
  0
LINE
  5
1CD
330
1F
100
AcDbEntity
  8
2
  6
Continuous
 62
    90
370
     9
100
AcDbLine
 10
394.1773265852189
 20
268.222381772295
 30
0.0
 11
394.1773265852189
 21
236.8215245751475
 31
0.0
  0
DIMENSION
  5
1D9
330
1F
100
AcDbEntity
  8
6
  6
Continuous
 62
     7
370
     9
100
AcDbDimension
  2
Dim11
 10
377.6773262790587
 20
549.4469894728404
 30
0.0
 11
635.6773264321371
 21
556.4469894728408
 31
0.0
 70
   160
  1
<>
 71
     5
 42
-1.0
  3
Standard
100
AcDbAlignedDimension
 13
377.6773262790587
 23
519.4469894728404
 33
0.0
 14
893.6773268913668
 24
519.4469894728408
 34
0.0
 50
0.0000000000000757
100
AcDbRotatedDimension
1001
ACAD
1000
DSTYLE
1002
{
1070
   344
1005
3C
1070
   343
1005
3C
1070
   173
1070
     1
1070
   289
1070
     2
1070
   279
1070
     2
1070
   288
1070
     1
1070
    77
1070
     3
1070
   172
1070
     1
1070
   174
1070
     0
1070
    74
1070
     0
1070
    73
1070
     0
1070
   284
1070
     8
1070
    78
1070
     8
1070
   140
1040
3.0
1070
    40
1040
4.0
1070
    42
1040
2.0
1070
    44
1040
1.0
1070
    43
1040
10.0
1070
   271
1070
     2
1070
    41
1040
2.0
1002
}
  0
LINE
  5
1DA
330
1F
100
AcDbEntity
  8
2
  6
Continuous
 62
    90
370
     9
100
AcDbLine
 10
877.1773265852191
 20
268.2219531730551
 30
0.0
 11
877.1773265852191
 21
236.8219531730552
 31
0.0
  0
LINE
  5
1DB
330
1F
100
AcDbEntity
  8
2
  6
Continuous
 62
    90
370
     9
100
AcDbLine
 10
877.1773265852171
 20
687.3524431809991
 30
0.0
 11
394.1773262790625
 21
687.3524431810032
 31
0.0
  0
LINE
  5
1DC
330
1F
100
AcDbEntity
  8
2
  6
Continuous
 62
    90
370
     9
100
AcDbLine
 10
394.1773262790587
 20
655.3524431809903
 30
0.0
 11
877.1773265852153
 21
655.3524431810038
 31
0.0
  0
LINE
  5
1DD
330
1F
100
AcDbEntity
  8
1
  6
Continuous
 62
    45
370
     9
100
AcDbLine
 10
394.1773262790587
 20
655.3524431809903
 30
0.0
 11
394.1773262790566
 21
687.3524431809986
 31
0.0
  0
LINE
  5
1DE
330
1F
100
AcDbEntity
  8
1
  6
Continuous
 62
    45
370
     9
100
AcDbLine
 10
877.1773265852153
 20
655.3524431810038
 30
0.0
 11
877.1773265852171
 21
687.3524431809996
 31
0.0
  0
DIMENSION
  5
1E8
330
1F
100
AcDbEntity
  8
6
  6
Continuous
 62
     7
370
     9
100
AcDbDimension
  2
Dim12
 10
677.1773262790582
 20
655.3524431810032
 30
0.0
 11
669.1773262790582
 21
704.0106446304687
 31
0.0
 70
   160
  1
<>
 71
     5
 42
-1.0
  3
Standard
100
AcDbAlignedDimension
 13
677.1773262790582
 23
655.3524431810032
 33
0.0
 14
677.1773262790582
 24
687.3524431810008
 34
0.0
 50
89.99999999999991
100
AcDbRotatedDimension
1001
ACAD
1000
DSTYLE
1002
{
1070
   344
1005
3C
1070
   343
1005
3C
1070
   173
1070
     1
1070
   289
1070
     2
1070
   279
1070
     2
1070
   288
1070
     1
1070
    77
1070
     3
1070
   172
1070
     1
1070
   174
1070
     0
1070
    74
1070
     0
1070
    73
1070
     0
1070
   284
1070
     8
1070
    78
1070
     8
1070
   140
1040
3.0
1070
    40
1040
4.0
1070
    42
1040
2.0
1070
    44
1040
1.0
1070
    43
1040
10.0
1070
   271
1070
     2
1070
    41
1040
2.0
1002
}
  0
LINE
  5
1E9
330
1F
100
AcDbEntity
  8
2
  6
Continuous
 62
    90
370
     9
100
AcDbLine
 10
877.177326891367
 20
519.4469894728364
 30
0.0
 11
394.1773265852124
 21
519.4469894728405
 31
0.0
  0
LINE
  5
1EA
330
1F
100
AcDbEntity
  8
2
  6
Continuous
 62
    90
370
     9
100
AcDbLine
 10
394.1773265852086
 20
487.4469894728277
 30
0.0
 11
877.1773268913652
 21
487.446989472841
 31
0.0
  0
LINE
  5
1EB
330
1F
100
AcDbEntity
  8
1
  6
Continuous
 62
    45
370
     9
100
AcDbLine
 10
394.1773265852086
 20
487.4469894728277
 30
0.0
 11
394.1773265852065
 21
519.446989472836
 31
0.0
  0
LINE
  5
1EC
330
1F
100
AcDbEntity
  8
1
  6
Continuous
 62
    45
370
     9
100
AcDbLine
 10
877.1773268913652
 20
487.446989472841
 30
0.0
 11
877.177326891367
 21
519.4469894728369
 31
0.0
  0
LINE
  5
1ED
330
1F
100
AcDbEntity
  8
2
  6
Continuous
 62
    90
370
     9
100
AcDbLine
 10
877.1773268913671
 20
268.5219531730503
 30
0.0
 11
394.1773265852125
 21
268.5219531730545
 31
0.0
  0
LINE
  5
1EE
330
1F
100
AcDbEntity
  8
2
  6
Continuous
 62
    90
370
     9
100
AcDbLine
 10
394.1773265852087
 20
236.5219531730416
 30
0.0
 11
877.1773268913653
 21
236.521953173055
 31
0.0
  0
LINE
  5
1EF
330
1F
100
AcDbEntity
  8
1
  6
Continuous
 62
    45
370
     9
100
AcDbLine
 10
394.1773265852087
 20
236.5219531730416
 30
0.0
 11
394.1773265852066
 21
268.52195317305
 31
0.0
  0
LINE
  5
1F0
330
1F
100
AcDbEntity
  8
1
  6
Continuous
 62
    45
370
     9
100
AcDbLine
 10
877.1773268913653
 20
236.521953173055
 30
0.0
 11
877.1773268913671
 21
268.5219531730507
 31
0.0
  0
DIMENSION
  5
1FC
330
1F
100
AcDbEntity
  8
6
  6
Continuous
 62
     7
370
     9
100
AcDbDimension
  2
Dim13
 10
986.6773265852189
 20
260.5219531730546
 30
0.0
 11
979.6773265852189
 21
252.5219531730546
 31
0.0
 70
   160
  1
<>
 71
     5
 42
-1.0
  3
Standard
100
AcDbAlignedDimension
 13
954.677326585219
 23
260.5219531730549
 33
0.0
 14
954.677326585219
 24
244.5219531730549
 34
0.0
 50
89.99999999999991
100
AcDbRotatedDimension
1001
ACAD
1000
DSTYLE
1002
{
1070
   344
1005
3C
1070
   343
1005
3C
1070
   173
1070
     1
1070
   289
1070
     2
1070
   279
1070
     2
1070
   288
1070
     1
1070
    77
1070
     3
1070
   172
1070
     1
1070
   174
1070
     0
1070
    74
1070
     0
1070
    73
1070
     0
1070
   284
1070
     8
1070
    78
1070
     8
1070
   140
1040
3.0
1070
    40
1040
4.0
1070
    42
1040
2.0
1070
    44
1040
1.0
1070
    43
1040
10.0
1070
   271
1070
     2
1070
    41
1040
2.0
1002
}
  0
LINE
  5
1FD
330
1F
100
AcDbEntity
  8
1
  6
DASHDOT
 62
    45
370
     9
100
AcDbLine
 10
303.3198298202412
 20
252.5219531730545
 30
0.0
 11
963.9361112641905
 21
252.5219531730549
 31
0.0
  0
LINE
  5
1FE
330
1F
100
AcDbEntity
  8
1
  6
HIDDEN
 62
    45
370
     9
100
AcDbLine
 10
893.6773268913771
 20
684.3524431810037
 30
0.0
 11
878.6773268913668
 21
684.3524431810037
 31
0.0
  0
LINE
  5
1FF
330
1F
100
AcDbEntity
  8
1
  6
HIDDEN
 62
    45
370
     9
100
AcDbLine
 10
377.6773259728968
 20
684.3524431810032
 30
0.0
 11
392.6773259729071
 21
684.3524431810032
 31
0.0
  0
LINE
  5
200
330
1F
100
AcDbEntity
  8
1
  6
HIDDEN
 62
    45
370
     9
100
AcDbLine
 10
877.1773265852162
 20
687.3524431809991
 30
0.0
 11
878.6773268913668
 21
684.3524431810037
 31
0.0
  0
LINE
  5
201
330
1F
100
AcDbEntity
  8
1
  6
HIDDEN
 62
    45
370
     9
100
AcDbLine
 10
394.1773262790577
 20
687.3524431809986
 30
0.0
 11
392.6773259729071
 21
684.3524431810032
 31
0.0
  0
LINE
  5
202
330
1F
100
AcDbEntity
  8
1
  6
HIDDEN
 62
    45
370
     9
100
AcDbLine
 10
893.677327197527
 20
516.446989472841
 30
0.0
 11
878.6773271975167
 21
516.446989472841
 31
0.0
  0
LINE
  5
203
330
1F
100
AcDbEntity
  8
1
  6
HIDDEN
 62
    45
370
     9
100
AcDbLine
 10
377.6773262790467
 20
516.4469894728405
 30
0.0
 11
392.677326279057
 21
516.4469894728405
 31
0.0
  0
LINE
  5
204
330
1F
100
AcDbEntity
  8
1
  6
HIDDEN
 62
    45
370
     9
100
AcDbLine
 10
877.1773268913661
 20
519.4469894728364
 30
0.0
 11
878.6773271975167
 21
516.446989472841
 31
0.0
  0
LINE
  5
205
330
1F
100
AcDbEntity
  8
1
  6
HIDDEN
 62
    45
370
     9
100
AcDbLine
 10
394.1773265852076
 20
519.446989472836
 30
0.0
 11
392.677326279057
 21
516.4469894728405
 31
0.0
  0
LINE
  5
206
330
1F
100
AcDbEntity
  8
1
  6
HIDDEN
 62
    45
370
     9
100
AcDbLine
 10
893.6773271975271
 20
265.5219531730548
 30
0.0
 11
878.6773271975168
 21
265.5219531730548
 31
0.0
  0
LINE
  5
207
330
1F
100
AcDbEntity
  8
1
  6
HIDDEN
 62
    45
370
     9
100
AcDbLine
 10
377.6773262790468
 20
265.5219531730545
 30
0.0
 11
392.6773262790571
 21
265.5219531730545
 31
0.0
  0
LINE
  5
208
330
1F
100
AcDbEntity
  8
1
  6
HIDDEN
 62
    45
370
     9
100
AcDbLine
 10
877.1773268913662
 20
268.5219531730503
 30
0.0
 11
878.6773271975168
 21
265.5219531730548
 31
0.0
  0
LINE
  5
209
330
1F
100
AcDbEntity
  8
1
  6
HIDDEN
 62
    45
370
     9
100
AcDbLine
 10
394.1773265852077
 20
268.52195317305
 30
0.0
 11
392.6773262790571
 21
265.5219531730545
 31
0.0
  0
LINE
  5
20A
330
1F
100
AcDbEntity
  8
1
  6
HIDDEN
 62
    45
370
     9
100
AcDbLine
 10
893.6773268913771
 20
658.3524431810037
 30
0.0
 11
878.6773268913668
 21
658.3524431810037
 31
0.0
  0
LINE
  5
20B
330
1F
100
AcDbEntity
  8
1
  6
HIDDEN
 62
    45
370
     9
100
AcDbLine
 10
377.6773259728967
 20
658.3524431810032
 30
0.0
 11
392.677325972907
 21
658.3524431810032
 31
0.0
  0
LINE
  5
20C
330
1F
100
AcDbEntity
  8
1
  6
HIDDEN
 62
    45
370
     9
100
AcDbLine
 10
877.1773265852162
 20
655.3524431810058
 30
0.0
 11
878.6773268913668
 21
658.3524431810037
 31
0.0
  0
LINE
  5
20D
330
1F
100
AcDbEntity
  8
1
  6
HIDDEN
 62
    45
370
     9
100
AcDbLine
 10
394.1773262790576
 20
655.3524431810054
 30
0.0
 11
392.677325972907
 21
658.3524431810032
 31
0.0
  0
LINE
  5
20E
330
1F
100
AcDbEntity
  8
1
  6
HIDDEN
 62
    45
370
     9
100
AcDbLine
 10
893.677327197527
 20
490.4469894728409
 30
0.0
 11
878.6773271975167
 21
490.4469894728409
 31
0.0
  0
LINE
  5
20F
330
1F
100
AcDbEntity
  8
1
  6
HIDDEN
 62
    45
370
     9
100
AcDbLine
 10
377.6773262790466
 20
490.4469894728406
 30
0.0
 11
392.6773262790569
 21
490.4469894728406
 31
0.0
  0
LINE
  5
210
330
1F
100
AcDbEntity
  8
1
  6
HIDDEN
 62
    45
370
     9
100
AcDbLine
 10
877.1773268913661
 20
487.4469894728431
 30
0.0
 11
878.6773271975167
 21
490.4469894728409
 31
0.0
  0
LINE
  5
211
330
1F
100
AcDbEntity
  8
1
  6
HIDDEN
 62
    45
370
     9
100
AcDbLine
 10
394.1773265852075
 20
487.4469894728427
 30
0.0
 11
392.6773262790569
 21
490.4469894728406
 31
0.0
  0
LINE
  5
212
330
1F
100
AcDbEntity
  8
1
  6
HIDDEN
 62
    45
370
     9
100
AcDbLine
 10
893.6773271975271
 20
239.5219531730549
 30
0.0
 11
878.6773271975168
 21
239.5219531730549
 31
0.0
  0
LINE
  5
213
330
1F
100
AcDbEntity
  8
1
  6
HIDDEN
 62
    45
370
     9
100
AcDbLine
 10
377.6773262790467
 20
239.5219531730545
 30
0.0
 11
392.677326279057
 21
239.5219531730545
 31
0.0
  0
LINE
  5
214
330
1F
100
AcDbEntity
  8
1
  6
HIDDEN
 62
    45
370
     9
100
AcDbLine
 10
877.1773268913662
 20
236.521953173057
 30
0.0
 11
878.6773271975168
 21
239.5219531730549
 31
0.0
  0
LINE
  5
215
330
1F
100
AcDbEntity
  8
1
  6
HIDDEN
 62
    45
370
     9
100
AcDbLine
 10
394.1773265852076
 20
236.5219531730566
 30
0.0
 11
392.677326279057
 21
239.5219531730545
 31
0.0
  0
LINE
  5
216
330
1F
100
AcDbEntity
  8
1
  6
HIDDEN
 62
    45
370
     9
100
AcDbLine
 10
893.6773268913771
 20
658.3524431810037
 30
0.0
 11
893.6773268913771
 21
684.3524431810037
 31
0.0
  0
LINE
  5
217
330
1F
100
AcDbEntity
  8
1
  6
HIDDEN
 62
    45
370
     9
100
AcDbLine
 10
377.6773259728968
 20
684.3524431810032
 30
0.0
 11
377.6773259728967
 21
658.3524431810032
 31
0.0
  0
LINE
  5
218
330
1F
100
AcDbEntity
  8
1
  6
HIDDEN
 62
    45
370
     9
100
AcDbLine
 10
893.677327197527
 20
490.4469894728409
 30
0.0
 11
893.677327197527
 21
516.446989472841
 31
0.0
  0
LINE
  5
219
330
1F
100
AcDbEntity
  8
1
  6
HIDDEN
 62
    45
370
     9
100
AcDbLine
 10
377.6773262790467
 20
516.4469894728405
 30
0.0
 11
377.6773262790466
 21
490.4469894728406
 31
0.0
  0
LINE
  5
21A
330
1F
100
AcDbEntity
  8
1
  6
HIDDEN
 62
    45
370
     9
100
AcDbLine
 10
893.6773271975271
 20
239.5219531730549
 30
0.0
 11
893.6773271975271
 21
265.5219531730548
 31
0.0
  0
LINE
  5
21B
330
1F
100
AcDbEntity
  8
1
  6
HIDDEN
 62
    45
370
     9
100
AcDbLine
 10
377.6773262790468
 20
265.5219531730545
 30
0.0
 11
377.6773262790467
 21
239.5219531730545
 31
0.0
  0
TEXT
  5
21C
330
1F
100
AcDbEntity
  8
8
  6
Continuous
 62
   171
370
     9
100
AcDbText
 10
195.0020143489649
 20
102.3750000000001
 30
0.0
 40
12.0
  1
ナチュラル
 41
0.5
100
AcDbText
  0
TEXT
  5
21D
330
1F
100
AcDbEntity
  8
8
  6
Continuous
 62
   171
370
     9
100
AcDbText
 10
202.202014348965
 20
82.375
 30
0.0
 40
12.0
  1
ダーク
 41
0.4999999999999979
100
AcDbText
  0
LINE
  5
21E
330
1F
100
AcDbEntity
  8
8
  6
Continuous
 62
   171
370
    18
100
AcDbLine
 10
83.0020143489649
 20
78.37499999999997
 30
0.0
 11
243.0020143489645
 21
78.37499999999997
 31
0.0
  0
LINE
  5
21F
330
1F
100
AcDbEntity
  8
8
  6
Continuous
 62
   171
370
    18
100
AcDbLine
 10
83.0020143489649
 20
98.37500000000006
 30
0.0
 11
243.0020143489645
 21
98.37500000000006
 31
0.0
  0
TEXT
  5
220
330
1F
100
AcDbEntity
  8
8
  6
Continuous
 62
   171
370
     9
100
AcDbText
 10
85.7599402748906
 20
102.375
 30
0.0
 40
12.0
  1
ＴＩＷＳ－３２Ｓ６００－Ｎ
 41
0.4999999999999999
100
AcDbText
  0
TEXT
  5
221
330
1F
100
AcDbEntity
  8
8
  6
Continuous
 62
   171
370
     9
100
AcDbText
 10
85.7599402748906
 20
82.37500000000006
 30
0.0
 40
12.0
  1
ＴＩＷＳ－３２Ｓ６００－Ｄ
 41
0.4999999999999999
100
AcDbText
  0
TEXT
  5
222
330
1F
100
AcDbEntity
  8
8
  6
Continuous
 62
   171
370
     9
100
AcDbText
 10
208.202014348965
 20
162.375
 30
0.0
 40
12.0
  1
色
 41
0.6666666666666604
100
AcDbText
  0
LINE
  5
223
330
1F
100
AcDbEntity
  8
8
  6
Continuous
 62
   171
370
    18
100
AcDbLine
 10
183.0020143489649
 20
178.375
 30
0.0
 11
183.0020143489649
 21
78.37499999999997
 31
0.0
  0
LINE
  5
224
330
1F
100
AcDbEntity
  8
8
  6
Continuous
 62
   171
370
    18
100
AcDbLine
 10
243.0020143489645
 20
178.375
 30
0.0
 11
243.0020143489645
 21
78.37499999999997
 31
0.0
  0
LINE
  5
225
330
1F
100
AcDbEntity
  8
8
  6
Continuous
 62
   171
370
    18
100
AcDbLine
 10
83.0020143489649
 20
178.375
 30
0.0
 11
243.0020143489645
 21
178.375
 31
0.0
  0
LINE
  5
226
330
1F
100
AcDbEntity
  8
8
  6
Continuous
 62
   171
370
    18
100
AcDbLine
 10
83.0020143489649
 20
158.375
 30
0.0
 11
243.0020143489645
 21
158.375
 31
0.0
  0
LINE
  5
227
330
1F
100
AcDbEntity
  8
8
  6
Continuous
 62
   171
370
    18
100
AcDbLine
 10
83.0020143489649
 20
178.375
 30
0.0
 11
83.0020143489649
 21
78.37499999999997
 31
0.0
  0
TEXT
  5
228
330
1F
100
AcDbEntity
  8
8
  6
Continuous
 62
   171
370
     9
100
AcDbText
 10
112.8289773119276
 20
162.375
 30
0.0
 40
12.0
  1
品　　番
 41
0.6666666666666683
100
AcDbText
  0
TEXT
  5
229
330
1F
100
AcDbEntity
  8
8
  6
Continuous
 62
   171
370
     9
100
AcDbText
 10
112.3731326345577
 20
182.375
 30
0.0
 40
14.0
  1
品番表
 41
1.944444444444445
100
AcDbText
  0
LINE
  5
22A
330
1F
100
AcDbEntity
  8
8
  6
Continuous
 62
   171
370
    18
100
AcDbLine
 10
83.0020143489649
 20
118.3750000000001
 30
0.0
 11
243.0020143489645
 21
118.3750000000001
 31
0.0
  0
LINE
  5
22B
330
1F
100
AcDbEntity
  8
8
  6
Continuous
 62
   171
370
    18
100
AcDbLine
 10
83.0020143489649
 20
138.3750000000002
 30
0.0
 11
243.0020143489645
 21
138.3750000000002
 31
0.0
  0
TEXT
  5
22C
330
1F
100
AcDbEntity
  8
8
  6
Continuous
 62
   171
370
     9
100
AcDbText
 10
85.7599402748906
 20
142.3750000000002
 30
0.0
 40
12.0
  1
ＴＩＷＳ－３２Ｓ６００－Ｓ
 41
0.4999999999999999
100
AcDbText
  0
TEXT
  5
22D
330
1F
100
AcDbEntity
  8
8
  6
Continuous
 62
   171
370
     9
100
AcDbText
 10
85.7599402748906
 20
122.3750000000001
 30
0.0
 40
12.0
  1
ＴＩＷＳ－３２Ｓ６００－Ｃ
 41
0.4999999999999999
100
AcDbText
  0
TEXT
  5
22E
330
1F
100
AcDbEntity
  8
8
  6
Continuous
 62
   171
370
     9
100
AcDbText
 10
202.202014348965
 20
142.3750000000003
 30
0.0
 40
12.0
  1
スノー
 41
0.4999999999999979
100
AcDbText
  0
TEXT
  5
22F
330
1F
100
AcDbEntity
  8
8
  6
Continuous
 62
   171
370
     9
100
AcDbText
 10
184.202014348965
 20
122.3750000000002
 30
0.0
 40
12.0
  1
ホワイトチェリー
 41
0.4999999999999993
100
AcDbText
  0
TEXT
  5
230
330
1F
100
AcDbEntity
  8
8
  6
Continuous
 62
   171
370
     9
100
AcDbText
 10
1004.0
 20
76.00000000000003
 30
0.0
 40
16.0
  1
大野
 41
0.8333333333333334
100
AcDbText
  0
TEXT
  5
231
330
1F
100
AcDbEntity
  8
8
  6
Continuous
 62
   171
370
     9
100
AcDbText
 10
1052.0
 20
76.00000000000003
 30
0.0
 40
16.0
  1
深川
 41
0.8333333333333334
100
AcDbText
  0
TEXT
  5
232
330
1F
100
AcDbEntity
  8
8
  6
Continuous
 62
   171
370
     9
100
AcDbText
 10
1048.0
 20
53.99999999999998
 30
0.0
 40
12.0
  1
２０１２年１２月０７日
 41
0.5555555555555557
100
AcDbText
  0
TEXT
  5
233
330
1F
100
AcDbEntity
  8
8
  6
Continuous
 62
   171
370
     9
100
AcDbText
 10
772.4000000000001
 20
88.00000000000003
 30
0.0
 40
16.0
  1
ＴＩＷＳ－３２Ｓ６００
 41
0.6250000000000001
100
AcDbText
  0
ARC
  5
234
330
1F
100
AcDbEntity
  8
2
  6
Continuous
 62
    90
370
    18
100
AcDbCircle
 10
934.9273265852191
 20
252.5219531730548
 30
0.0
 40
4.25
100
AcDbArc
 50
89.99999999999991
 51
269.9999999999998
  0
LINE
  5
235
330
1F
100
AcDbEntity
  8
2
  6
Continuous
 62
    90
370
    18
100
AcDbLine
 10
936.4273265852191
 20
248.2719531730548
 30
0.0
 11
934.9273265852191
 21
248.2719531730548
 31
0.0
  0
LINE
  5
236
330
1F
100
AcDbEntity
  8
2
  6
Continuous
 62
    90
370
    18
100
AcDbLine
 10
936.4273265852191
 20
256.7719531730548
 30
0.0
 11
934.9273265852191
 21
256.7719531730548
 31
0.0
  0
ARC
  5
237
330
1F
100
AcDbEntity
  8
2
  6
Continuous
 62
    90
370
    18
100
AcDbCircle
 10
936.4273265852191
 20
252.5219531730548
 30
0.0
 40
4.25
100
AcDbArc
 50
269.9999999999998
 51
89.99999999999991
  0
CIRCLE
  5
238
330
1F
100
AcDbEntity
  8
2
  6
Continuous
 62
    90
370
    18
100
AcDbCircle
 10
946.9273265852191
 20
252.5219531730548
 30
0.0
 40
2.5
  0
CIRCLE
  5
239
330
1F
100
AcDbEntity
  8
2
  6
Continuous
 62
    90
370
    18
100
AcDbCircle
 10
926.9273265852191
 20
244.5219531730549
 30
0.0
 40
2.5
  0
CIRCLE
  5
23A
330
1F
100
AcDbEntity
  8
2
  6
Continuous
 62
    90
370
    18
100
AcDbCircle
 10
926.9273265852191
 20
260.5219531730549
 30
0.0
 40
2.5
  0
ARC
  5
23B
330
1F
100
AcDbEntity
  8
2
  6
Continuous
 62
    90
370
    18
100
AcDbCircle
 10
336.427326585219
 20
252.5219531730545
 30
0.0
 40
4.25
100
AcDbArc
 50
269.9999999999998
 51
89.99999999999991
  0
LINE
  5
23C
330
1F
100
AcDbEntity
  8
2
  6
Continuous
 62
    90
370
    18
100
AcDbLine
 10
334.927326585219
 20
256.7719531730545
 30
0.0
 11
336.427326585219
 21
256.7719531730545
 31
0.0
  0
LINE
  5
23D
330
1F
100
AcDbEntity
  8
2
  6
Continuous
 62
    90
370
    18
100
AcDbLine
 10
334.927326585219
 20
248.2719531730545
 30
0.0
 11
336.427326585219
 21
248.2719531730545
 31
0.0
  0
ARC
  5
23E
330
1F
100
AcDbEntity
  8
2
  6
Continuous
 62
    90
370
    18
100
AcDbCircle
 10
334.927326585219
 20
252.5219531730545
 30
0.0
 40
4.25
100
AcDbArc
 50
89.99999999999991
 51
269.9999999999998
  0
CIRCLE
  5
23F
330
1F
100
AcDbEntity
  8
2
  6
Continuous
 62
    90
370
    18
100
AcDbCircle
 10
324.427326585219
 20
252.5219531730546
 30
0.0
 40
2.5
  0
CIRCLE
  5
240
330
1F
100
AcDbEntity
  8
2
  6
Continuous
 62
    90
370
    18
100
AcDbCircle
 10
344.427326585219
 20
260.5219531730544
 30
0.0
 40
2.5
  0
CIRCLE
  5
241
330
1F
100
AcDbEntity
  8
2
  6
Continuous
 62
    90
370
    18
100
AcDbCircle
 10
344.427326585219
 20
244.5219531730544
 30
0.0
 40
2.5
  0
VIEWPORT
  5
2A
330
1B
100
AcDbEntity
 67
     1
  8
0
100
AcDbViewport
 10
594.0
 20
420.0
 30
0.0
 40
1188.0
 41
840.0
 68
     1
 69
     1
 12
594.0
 22
420.0
 13
0.0
 23
0.0
 14
0.5
 24
0.5
 15
0.5
 25
0.5
 16
0.0
 26
0.0
 36
1.0
 17
0.0
 27
0.0
 37
0.0
 42
50.0
 43
0.0
 44
0.0
 45
9.0
 50
0.0
 51
0.0
 72
   100
 90
    32800
  1

281
     0
 71
     1
 74
     0
110
0.0
120
0.0
130
0.0
111
1.0
121
0.0
131
0.0
112
0.0
122
1.0
132
0.0
 79
     0
146
0.0
  0
ENDSEC
  0
SECTION
  2
OBJECTS
  0
DICTIONARY
  5
C
330
0
100
AcDbDictionary
281
     1
  3
ACAD_GROUP
350
D
  3
ACAD_LAYOUT
350
1A
  3
ACAD_MLINESTYLE
350
17
  3
ACAD_PLOTSETTINGS
350
19
  3
ACAD_PLOTSTYLENAME
350
E
  3
AcDbVariableDictionary
350
242
  0
DICTIONARY
  5
D
102
{ACAD_REACTORS
330
C
102
}
330
C
100
AcDbDictionary
281
     1
  0
DICTIONARY
  5
1A
102
{ACAD_REACTORS
330
C
102
}
330
C
100
AcDbDictionary
281
     1
  3
Layout1
350
1E
  3
Layout2
350
26
  3
Model
350
22
  0
DICTIONARY
  5
17
102
{ACAD_REACTORS
330
C
102
}
330
C
100
AcDbDictionary
281
     1
  3
Standard
350
18
  0
DICTIONARY
  5
19
102
{ACAD_REACTORS
330
C
102
}
330
C
100
AcDbDictionary
281
     1
  0
ACDBDICTIONARYWDFLT
  5
E
102
{ACAD_REACTORS
330
C
102
}
330
C
100
AcDbDictionary
281
     1
  3
Normal
350
F
100
AcDbDictionaryWithDefault
340
F
  0
DICTIONARY
  5
242
102
{ACAD_REACTORS
330
C
102
}
330
C
100
AcDbDictionary
281
     1
  3
DIMASSOC
350
243
  0
LAYOUT
  5
1E
102
{ACAD_REACTORS
330
1A
102
}
330
1A
100
AcDbPlotSettings
  1

  2

  4

  6

 40
0.0
 41
0.0
 42
0.0
 43
0.0
 44
0.0
 45
0.0
 46
0.0
 47
0.0
 48
0.0
 49
0.0
140
0.0
141
0.0
142
1.0
143
1.0
 70
   688
 72
     0
 73
     0
 74
     5
  7

 75
    16
147
1.0
148
0.0
149
0.0
100
AcDbLayout
  1
Layout1
 70
     1
 71
     1
 10
0.0
 20
0.0
 11
297.0
 21
210.0
 12
0.0
 22
0.0
 32
0.0
 14
0.0
 24
0.0
 34
0.0
 15
297.0
 25
210.0
 35
0.0
146
0.0
 13
0.0
 23
0.0
 33
0.0
 16
1.0
 26
0.0
 36
0.0
 17
0.0
 27
1.0
 37
0.0
 76
     0
330
1B
331
2A
  0
LAYOUT
  5
26
102
{ACAD_REACTORS
330
1A
102
}
330
1A
100
AcDbPlotSettings
  1

  2

  4

  6

 40
0.0
 41
0.0
 42
0.0
 43
0.0
 44
0.0
 45
0.0
 46
0.0
 47
0.0
 48
0.0
 49
0.0
140
0.0
141
0.0
142
1.0
143
1.0
 70
   688
 72
     0
 73
     0
 74
     5
  7

 75
    16
147
1.0
148
0.0
149
0.0
100
AcDbLayout
  1
Layout2
 70
     1
 71
     2
 10
0.0
 20
0.0
 11
0.0
 21
0.0
 12
0.0
 22
0.0
 32
0.0
 14
0.0
 24
0.0
 34
0.0
 15
0.0
 25
0.0
 35
0.0
146
0.0
 13
0.0
 23
0.0
 33
0.0
 16
1.0
 26
0.0
 36
0.0
 17
0.0
 27
1.0
 37
0.0
 76
     0
330
23
  0
LAYOUT
  5
22
102
{ACAD_REACTORS
330
1A
102
}
330
1A
100
AcDbPlotSettings
  1

  2

  4

  6

 40
0.0
 41
0.0
 42
0.0
 43
0.0
 44
0.0
 45
0.0
 46
0.0
 47
0.0
 48
0.0
 49
0.0
140
0.0
141
0.0
142
1.0
143
1.0
 70
  1712
 72
     0
 73
     0
 74
     0
  7

 75
     0
147
1.0
148
0.0
149
0.0
100
AcDbLayout
  1
Model
 70
     1
 71
     0
 10
0.0
 20
0.0
 11
1188.0
 21
840.0
 12
0.0
 22
0.0
 32
0.0
 14
0.0
 24
0.0
 34
0.0
 15
1188.0
 25
840.0
 35
0.0
146
0.0
 13
0.0
 23
0.0
 33
0.0
 16
1.0
 26
0.0
 36
0.0
 17
0.0
 27
1.0
 37
0.0
 76
     0
330
1F
  0
MLINESTYLE
  5
18
102
{ACAD_REACTORS
330
17
102
}
330
17
100
AcDbMlineStyle
  2
Standard
 70
     0
  3

 62
   256
 51
90.0
 52
90.0
 71
     2
 49
0.5
 62
   256
  6
BYLAYER
 49
-0.5
 62
   256
  6
BYLAYER
  0
ACDBPLACEHOLDER
  5
F
102
{ACAD_REACTORS
330
E
102
}
330
E
  0
DICTIONARYVAR
  5
243
102
{ACAD_REACTORS
330
242
102
}
330
242
100
DictionaryVariables
280
     0
  1
1
  0
ENDSEC
  0
EOF
